osu file format v14

[General]
AudioFilename: audio.ogg
AudioLeadIn: 0
PreviewTime: 50873
Countdown: 0
SampleSet: Soft
StackLeniency: 0.7
Mode: 0
LetterboxInBreaks: 0
WidescreenStoryboard: 0

[Editor]
Bookmarks: 70152
DistanceSpacing: 1.4
BeatDivisor: 4
GridSize: 4
TimelineZoom: 1.9

[Metadata]
Title:courage
TitleUnicode:courage
Artist:Tomatsu Haruka
ArtistUnicode:戸松遥
Creator:Laurier
Version:Insane
Source:ソードアート・オンラインⅡ
Tags:sword art online 2 ii sao 2nd season opening anime mothers rosario Satellite Lecana japanese pop
BeatmapID:563562
BeatmapSetID:244476

[Difficulty]
HPDrainRate:7
CircleSize:4
OverallDifficulty:8
ApproachRate:9
SliderMultiplier:1.7
SliderTickRate:1

[Events]
//Background and Video events
0,0,"BG.jpg",0,0
//Break Periods
//Storyboard Layer 0 (Background)
//Storyboard Layer 1 (Fail)
//Storyboard Layer 2 (Pass)
//Storyboard Layer 3 (Foreground)
//Storyboard Layer 4 (Overlay)
//Storyboard Sound Samples

[TimingPoints]
-555,306.122448979592,4,2,1,60,1,0
1893,-166.666666666667,4,2,2,20,0,0
9240,-142.857142857143,4,2,2,30,0,0
11689,-142.857142857143,4,2,1,30,0,0
14138,-142.857142857143,4,2,2,30,0,0
19649,-142.857142857143,4,2,1,30,0,0
20261,-142.857142857143,4,2,1,50,0,0
20567,-125,4,2,1,50,0,0
21485,-100,4,2,1,60,0,0
30669,-100,4,2,1,40,0,0
31281,-100,4,2,1,60,0,0
33730,-125,4,2,1,60,0,0
36179,-100,4,2,1,60,0,0
38628,-125,4,2,1,60,0,0
41077,-100,4,2,1,60,0,0
50108,-166.666666666667,4,2,1,40,0,0
50567,-125,4,2,1,40,0,0
50873,-100,4,2,1,70,0,1
69547,-100,4,2,1,30,0,0
70312,-100,4,2,1,60,0,0
79496,-142.857142857143,4,2,1,40,0,0
79955,-142.857142857143,4,2,1,20,0,0
80261,-142.857142857143,4,2,1,60,0,0
82557,-100,4,2,1,60,0,0
90363,-125,4,2,1,50,0,0
99240,-125,4,2,1,30,0,0
99853,-100,4,2,1,60,0,0
101996,-100,4,2,1,40,0,0
102302,-125,4,2,1,60,0,0
104751,-100,4,2,1,60,0,0
107200,-125,4,2,1,60,0,0
109189,-125,4,2,1,40,0,0
109649,-100,4,2,1,60,0,0
119445,-125,4,2,1,50,0,0
124342,-111.111111111111,4,2,1,60,0,0
126179,-111.111111111111,4,2,1,40,0,0
126791,-111.111111111111,4,2,1,60,0,0
128475,-166.666666666666,4,2,1,30,0,0
128934,-125,4,2,1,60,0,0
129240,-99.9999999999999,4,2,1,70,0,1
148679,-99.9999999999999,4,2,1,70,0,0
149138,-99.9999999999999,4,2,1,50,0,0
150669,-142.857142857143,4,2,1,50,0,0
153577,-111.111111111111,4,2,1,60,0,0
158475,-100,4,2,1,60,0,0
186791,-100,4,2,2,60,0,0
186868,-100,4,2,2,30,0,0
187710,-100,4,2,1,30,0,0
187863,-100,4,2,1,5,0,0
188016,-166.666666666667,4,2,2,30,0,0
192914,-125,4,2,1,30,0,0
195975,-125,4,2,1,40,0,0
196281,-125,4,2,1,50,0,0
197812,-100,4,2,1,60,0,0
206383,-142.857142857143,4,2,1,60,0,0
207608,-100,4,2,1,60,0,1
216791,-100,4,2,1,30,0,1
217404,-100,4,2,1,70,0,1
226587,-100,4,2,1,60,0,1
227965,-100,4,2,1,60,0,0
244496,-100,4,2,1,5,0,0
244802,-100,4,2,1,50,0,0

[Colours]
Combo1 : 172,255,255
Combo2 : 185,252,180
Combo3 : 247,187,253
Combo4 : 224,224,224

[HitObjects]
255,186,1893,5,6,0:0:0:0:
256,192,2353,1,8,0:0:0:0:
256,191,2659,2,0,P|252:217|244:241,2,50.9999984436036,0|0|8,0:0|0:0|0:0,0:0:0:0:
181,39,3730,1,0,0:0:0:0:
136,130,4036,1,0,0:0:0:0:
256,192,4342,6,0,P|281:200|311:203,2,50.9999984436036,6|0|0,0:0|0:0|0:0,0:0:0:0:
166,212,4802,2,0,L|64:218,1,101.999996887207,8|0,0:0|0:0,0:0:0:0:
87,293,5261,2,0,P|74:316|64:339,1,50.9999984436036,0|8,0:0|0:0,0:0:0:0:
258,343,5720,6,0,P|270:320|280:297,1,50.9999984436036,8|0,0:0|0:0,0:0:0:0:
361,293,6026,2,0,P|367:268|370:243,1,50.9999984436036
441,202,6332,2,0,P|440:176|437:151,1,50.9999984436036
386,87,6638,1,0,0:0:0:0:
386,87,6715,1,0,0:0:0:0:
386,87,6791,6,0,P|359:99|335:108,1,50.9999984436036,4|0,0:0|0:0,0:0:0:0:
281,165,7098,2,0,P|253:154|230:143,1,50.9999984436036,0|0,0:0|0:0,0:0:0:0:
164,102,7404,1,0,0:0:0:0:
117,192,7557,2,0,P|110:240|105:293,1,101.999996887207,4|0,0:0|0:0,0:0:0:0:
216,384,8016,6,0,P|222:335|227:282,1,101.999996887207,4|0,0:0|0:0,0:0:0:0:
165,102,8628,1,2,0:0:0:0:
160,95,9240,6,0,P|224:90|281:81,1,118.999996368408,4|0,0:0|0:0,0:0:0:0:
341,183,9700,2,0,P|405:187|462:197,1,118.999996368408,4|0,0:0|0:0,0:0:0:0:
361,297,10159,2,0,P|332:296|300:287,1,59.4999981842042,4|0,0:0|0:0,0:0:0:0:
189,192,10465,5,6,0:0:0:0:
184,186,11077,1,4,0:0:0:0:
179,177,11689,5,4,0:0:0:0:
179,176,11996,2,0,P|174:236|163:294,2,118.999996368408,0|0|0,0:0|0:0|0:0,0:0:0:0:
113,63,12914,6,0,P|137:79|166:86,1,59.4999981842042
284,108,13373,2,0,P|343:105|402:98,2,118.999996368408,0|0|0,0:0|0:0|0:0,0:0:0:0:
286,191,14138,5,4,0:0:0:0:
286,191,14445,1,0,0:0:0:0:
211,239,14598,2,0,P|203:269|198:297,1,59.4999981842042,0|0,0:0|0:0,0:0:0:0:
112,268,15210,6,0,P|83:263|54:262,2,59.4999981842042,0|0|0,0:0|0:0|0:0,0:0:0:0:
225,121,15822,2,0,P|237:62|242:3,2,118.999996368408,0|0|0,0:0|0:0|0:0,0:0:0:0:
260,222,16587,6,0,L|279:339,1,118.999996368408,4|0,0:0|0:0,0:0:0:0:
385,238,17047,1,0,0:0:0:0:
332,144,17659,6,0,P|304:131|276:124,1,59.4999981842042
188,161,17965,1,0,0:0:0:0:
15,155,18271,1,0,0:0:0:0:
11,150,18424,1,0,0:0:0:0:
56,279,18577,1,0,0:0:0:0:
61,286,19036,6,0,L|196:271,1,118.999996368408,4|0,0:0|0:0,0:0:0:0:
102,165,19496,1,0,0:0:0:0:
102,165,19649,2,0,L|163:187,1,59.4999981842042,4|0,0:0|0:0,0:0:0:0:
266,260,19955,2,0,L|327:238,1,59.4999981842042,4|0,0:0|0:0,0:0:0:0:
426,202,20261,5,2,0:0:0:0:
380,331,20414,1,2,0:0:0:0:
201,311,20567,2,0,P|188:279|186:245,1,68,2|2,0:0|0:0,0:0:0:0:
258,46,20873,1,8,0:0:0:0:
426,201,21026,2,0,P|385:207|345:198,1,68,8|0,0:0|0:0,0:0:0:0:
331,10,21485,6,0,P|337:51|327:92,1,85,6|0,0:0|0:0,0:0:0:0:
173,160,21791,2,0,P|130:170|88:178,1,85,8|0,0:0|0:0,0:0:0:0:
182,289,22098,1,2,0:0:0:0:
258,166,22251,1,2,0:0:0:0:
95,95,22404,2,0,P|84:135|90:177,1,85,8|0,0:0|0:0,0:0:0:0:
267,259,22710,6,0,P|351:258|436:246,2,170,2|8|2,0:0|0:0|0:0,0:0:0:0:
173,160,23475,1,2,0:0:0:0:
139,300,23628,1,8,0:0:0:0:
343,346,23781,6,0,P|350:304|353:261,1,85,2|0,0:0|0:0,0:0:0:0:
327,119,24087,1,2,0:0:0:0:
193,0,24240,2,0,P|185:41|182:84,1,85,8|0,0:0|0:0,0:0:0:0:
232,238,24547,1,2,0:0:0:0:
232,238,24700,1,2,0:0:0:0:
100,346,24853,2,0,P|96:303|89:261,1,85,8|0,0:0|0:0,0:0:0:0:
25,107,25159,6,0,P|108:120|183:82,1,170,2|8,0:0|0:0,0:0:0:0:
344,36,25618,2,0,P|329:75|327:118,1,85,0|2,0:0|0:0,0:0:0:0:
410,226,25924,1,2,0:0:0:0:
482,111,26077,1,8,0:0:0:0:
327,118,26230,6,0,P|320:202|312:287,1,170,2|2,0:0|0:0,0:0:0:0:
445,384,26689,2,0,P|448:342|452:300,1,85,8|0,0:0|0:0,0:0:0:0:
482,111,26996,1,2,0:0:0:0:
410,226,27149,1,2,0:0:0:0:
241,188,27302,2,0,P|198:186|156:185,1,85,8|0,0:0|0:0,0:0:0:0:
37,47,27608,6,0,P|121:53|206:50,1,170,2|8,0:0|0:0,0:0:0:0:
339,24,28067,1,0,0:0:0:0:
241,188,28220,2,0,P|233:229|227:271,1,85,2|2,0:0|0:0,0:0:0:0:
376,381,28526,2,0,P|371:338|363:296,1,85,8|0,0:0|0:0,0:0:0:0:
353,109,28832,6,0,B|414:117|478:77|478:77|458:110,1,170,6|8,0:0|0:0,0:0:0:0:
406,197,29291,1,0,0:0:0:0:
241,188,29445,2,0,P|197:181|153:179,1,85,2|2,0:0|0:0,0:0:0:0:
0,239,29751,1,8,0:0:0:0:
70,122,29904,1,0,0:0:0:0:
205,293,30057,6,0,P|247:290|289:283,1,85,6|0,0:0|0:0,0:0:0:0:
406,197,30363,1,8,0:0:0:0:
433,164,30439,1,8,0:0:0:0:
444,124,30516,1,8,0:0:0:0:
437,82,30592,1,8,0:0:0:0:
414,47,30669,6,0,P|394:39|373:36,1,42.5,8|8,0:0|0:0,0:0:0:0:
253,130,30822,2,0,P|272:138|293:140,1,42.5,8|8,0:0|0:0,0:0:0:0:
395,237,30975,6,0,P|403:217|405:196,1,42.5,8|8,0:0|0:0,0:0:0:0:
259,240,31128,2,0,P|250:259|248:280,1,42.5,8|8,0:0|0:0,0:0:0:0:
344,384,31281,6,0,P|396:320|395:237,1,170,6|8,0:0|0:0,0:0:0:0:
321,177,31740,1,0,0:0:0:0:
174,286,31893,1,2,0:0:0:0:
231,104,32047,1,2,0:0:0:0:
268,284,32200,2,0,L|255:369,1,85,8|0,0:0|0:0,0:0:0:0:
133,179,32506,6,0,L|146:264,1,85,2|0,0:0|0:0,0:0:0:0:
269,31,32812,2,0,L|256:116,1,85,8|0,0:0|0:0,0:0:0:0:
242,197,33118,1,2,0:0:0:0:
155,70,33271,1,2,0:0:0:0:
360,93,33424,2,0,P|402:104|444:107,1,85,8|0,0:0|0:0,0:0:0:0:
480,281,33730,6,0,P|415:264|348:269,1,136,6|2,0:0|0:0,0:0:0:0:
223,352,34189,1,2,0:0:0:0:
259,235,34342,2,0,L|266:164,1,68,8|0,0:0|0:0,0:0:0:0:
172,190,34649,1,0,0:0:0:0:
172,190,34802,1,0,0:0:0:0:
223,352,34955,6,0,P|256:357|290:355,1,68,2|8,0:0|0:0,0:0:0:0:
405,351,35261,1,0,0:0:0:0:
350,210,35414,2,0,P|344:176|343:142,1,68,2|0,0:0|0:0,0:0:0:0:
476,16,35720,2,0,P|483:82|481:151,1,136,6|8,0:0|0:0,0:0:0:0:
368,286,36179,6,0,P|291:260|280:180,1,170,6|8,0:0|0:0,0:0:0:0:
350,84,36638,1,0,0:0:0:0:
475,232,36791,1,2,0:0:0:0:
366,181,36945,1,2,0:0:0:0:
476,17,37098,1,8,0:0:0:0:
450,134,37251,1,0,0:0:0:0:
493,298,37404,6,0,P|431:283|367:284,1,127.5,2|0,0:0|0:0,0:0:0:0:
298,321,37710,2,0,P|255:325|213:323,1,85,8|0,0:0|0:0,0:0:0:0:
84,241,38016,1,2,0:0:0:0:
84,241,38092,1,0,0:0:0:0:
84,241,38169,1,2,0:0:0:0:
212,127,38322,2,0,P|215:169|213:211,1,85,8|0,0:0|0:0,0:0:0:0:
83,241,38628,6,0,P|51:250|17:252,1,68,6|0,0:0|0:0,0:0:0:0:
40,118,38934,2,0,P|72:108|106:106,1,68,2|2,0:0|0:0,0:0:0:0:
249,136,39240,2,0,P|316:144|384:146,1,136,8|0,0:0|0:0,0:0:0:0:
510,86,39700,1,0,0:0:0:0:
485,244,39853,5,2,0:0:0:0:
384,146,40006,2,0,P|375:113|374:79,1,68,8|2,0:0|0:0,0:0:0:0:
372,258,40312,2,0,P|347:276|307:289,1,68,4|0,0:0|0:0,0:0:0:0:
182,245,40618,1,8,0:0:0:0:
178,243,40695,1,8,0:0:0:0:
174,242,40771,1,8,0:0:0:0:
170,240,40848,1,8,0:0:0:0:
166,239,40924,1,8,0:0:0:0:
162,238,41001,1,8,0:0:0:0:
158,236,41077,6,0,P|95:227|32:238,1,127.5,4|0,0:0|0:0,0:0:0:0:
2,269,41383,1,8,0:0:0:0:
77,126,41536,1,0,0:0:0:0:
255,204,41689,2,0,P|260:245|249:286,1,85,2|2,0:0|0:0,0:0:0:0:
93,384,41996,2,0,P|87:342|98:301,1,85,8|0,0:0|0:0,0:0:0:0:
218,129,42302,6,0,P|260:123|301:134,1,85,2|0,0:0|0:0,0:0:0:0:
435,305,42608,2,0,P|393:311|352:300,1,85,8|0,0:0|0:0,0:0:0:0:
255,204,42914,1,2,0:0:0:0:
165,340,43067,1,2,0:0:0:0:
342,384,43220,2,0,L|352:297,1,85,8|0,0:0|0:0,0:0:0:0:
353,75,43526,6,0,P|292:63|238:95,1,127.5,6|0,0:0|0:0,0:0:0:0:
219,128,43832,1,8,0:0:0:0:
332,235,43985,1,2,0:0:0:0:
470,182,44138,2,0,P|492:100|505:16,1,170,2|8,0:0|0:0,0:0:0:0:
505,16,44598,1,0,0:0:0:0:
377,158,44751,6,0,P|364:198|361:244,1,85,6|0,0:0|0:0,0:0:0:0:
502,361,45057,2,0,P|473:329|435:304,1,85,8|0,0:0|0:0,0:0:0:0:
262,366,45363,2,0,P|303:357|344:336,1,85,2|2,0:0|0:0,0:0:0:0:
471,182,45669,1,8,0:0:0:0:
471,182,45746,1,8,0:0:0:0:
471,182,45822,1,8,0:0:0:0:
471,182,45899,1,8,0:0:0:0:
471,181,45975,6,0,P|449:242|439:304,1,127.5,6|0,0:0|0:0,0:0:0:0:
408,336,46281,2,0,P|408:295|404:243,1,85,8|0,0:0|0:0,0:0:0:0:
348,109,46587,1,2,0:0:0:0:
272,243,46740,1,2,0:0:0:0:
470,182,46893,2,0,P|479:140|482:98,1,85,8|0,0:0|0:0,0:0:0:0:
280,160,47200,6,0,P|315:136|347:109,1,85,10|0,0:0|0:0,0:0:0:0:
146,56,47506,2,0,P|187:64|229:67,1,85,8|0,0:0|0:0,0:0:0:0:
358,22,47812,1,10,0:0:0:0:
280,160,47965,1,2,0:0:0:0:
145,55,48118,2,0,P|147:119|148:183,1,127.5,8|0,0:0|0:0,0:0:0:0:
154,259,48424,5,8,0:0:0:0:
34,82,48577,1,8,0:0:0:0:
26,74,48883,5,8,0:0:0:0:
268,155,49036,1,8,0:0:0:0:
280,160,49342,5,8,0:0:0:0:
71,173,49496,1,8,0:0:0:0:
71,173,50108,5,0,0:0:0:0:
71,172,50261,2,0,P|115:167|159:166,1,76.4999976654053
180,169,50567,2,0,P|230:172|280:159,1,102,2|0,0:0|0:0,0:0:0:0:
348,111,50873,6,0,P|357:152|357:194,1,85,6|0,0:0|0:0,0:0:0:0:
223,367,51179,2,0,P|213:325|213:283,1,85,8|0,0:0|0:0,0:0:0:0:
280,161,51485,1,2,0:0:0:0:
355,273,51638,1,2,0:0:0:0:
512,167,51791,2,0,P|469:162|427:160,1,85,8|0,0:0|0:0,0:0:0:0:
215,286,52098,6,0,P|152:294|91:276,1,127.5,2|0,0:0|0:0,0:0:0:0:
62,245,52404,1,8,0:0:0:0:
170,149,52557,1,0,0:0:0:0:
368,189,52710,2,0,P|364:231|354:272,1,85,2|2,0:0|0:0,0:0:0:0:
203,370,53016,2,0,P|206:327|216:286,1,85,8|0,0:0|0:0,0:0:0:0:
279,161,53322,6,0,L|269:33,1,127.5,2|0,0:0|0:0,0:0:0:0:
234,0,53628,2,0,L|242:91,1,85,8|0,0:0|0:0,0:0:0:0:
384,70,53934,1,2,0:0:0:0:
384,70,54087,1,2,0:0:0:0:
234,0,54240,2,0,P|194:16|152:21,1,85,8|0,0:0|0:0,0:0:0:0:
31,132,54547,6,0,P|73:137|112:152,1,85,2|0,0:0|0:0,0:0:0:0:
234,263,54853,1,8,0:0:0:0:
137,346,55006,1,0,0:0:0:0:
137,346,55082,1,0,0:0:0:0:
137,346,55159,2,0,P|119:307|116:266,1,85,2|2,0:0|0:0,0:0:0:0:
224,158,55465,2,0,P|266:162|303:179,1,85,8|0,0:0|0:0,0:0:0:0:
468,334,55771,6,0,P|408:357|346:351,1,127.5,6|0,0:0|0:0,0:0:0:0:
308,330,56077,1,8,0:0:0:0:
390,232,56230,2,0,P|396:190|398:147,1,85,0|2,0:0|0:0,0:0:0:0:
390,45,56536,1,2,0:0:0:0:
233,73,56689,2,0,P|226:114|224:157,1,85,8|0,0:0|0:0,0:0:0:0:
308,330,56996,5,2,0:0:0:0:
390,233,57149,1,0,0:0:0:0:
308,329,57302,2,0,P|269:346|227:356,1,85,8|0,0:0|0:0,0:0:0:0:
48,252,57608,2,0,P|86:235|128:225,1,85,2|2,0:0|0:0,0:0:0:0:
233,73,57914,2,0,P|272:88|308:111,1,85,8|0,0:0|0:0,0:0:0:0:
432,326,58220,6,0,L|421:156,1,170,6|8,0:0|0:0,0:0:0:0:
421,156,58679,1,0,0:0:0:0:
312,237,58832,1,2,0:0:0:0:
465,236,58985,1,2,0:0:0:0:
343,103,59138,1,8,0:0:0:0:
452,22,59291,1,0,0:0:0:0:
395,186,59445,5,2,0:0:0:0:
251,35,59598,1,2,0:0:0:0:
448,105,59751,1,8,0:0:0:0:
312,237,59904,1,2,0:0:0:0:
342,103,60057,2,0,P|350:61|353:18,1,85,2|0,0:0|0:0,0:0:0:0:
142,126,60363,2,0,P|134:167|131:210,1,85,8|0,0:0|0:0,0:0:0:0:
269,323,60669,6,0,P|331:329|388:296,1,127.5,6|0,0:0|0:0,0:0:0:0:
403,258,60975,1,8,0:0:0:0:
343,103,61128,1,0,0:0:0:0:
217,202,61281,2,0,P|175:209|132:210,1,85,2|2,0:0|0:0,0:0:0:0:
312,179,61587,2,0,P|354:179|396:187,1,85,8|0,0:0|0:0,0:0:0:0:
401,49,61893,6,0,P|339:63|275:58,1,127.5,2|0,0:0|0:0,0:0:0:0:
239,34,62200,1,8,0:0:0:0:
312,179,62353,1,0,0:0:0:0:
486,98,62506,1,2,0:0:0:0:
448,219,62659,1,2,0:0:0:0:
284,356,62812,2,0,P|272:316|265:274,1,85,8|0,0:0|0:0,0:0:0:0:
239,33,63118,6,0,P|161:65|79:48,1,170,6|8,0:0|0:0,0:0:0:0:
79,48,63577,1,0,0:0:0:0:
144,176,63730,1,2,0:0:0:0:
35,242,63883,1,2,0:0:0:0:
164,67,64036,1,8,0:0:0:0:
238,170,64189,1,0,0:0:0:0:
137,358,64342,6,0,P|130:316|126:274,1,85,2|0,0:0|0:0,0:0:0:0:
228,86,64649,2,0,P|234:128|238:170,1,85,8|0,0:0|0:0,0:0:0:0:
209,303,64955,1,2,0:0:0:0:
144,176,65108,1,2,0:0:0:0:
337,165,65261,2,0,P|379:167|420:160,1,85,8|0,0:0|0:0,0:0:0:0:
495,328,65567,6,0,P|432:316|372:334,1,127.5,6|0,0:0|0:0,0:0:0:0:
294,297,65873,2,0,P|252:304|209:303,1,85,8|0,0:0|0:0,0:0:0:0:
54,226,66179,1,2,0:0:0:0:
170,127,66332,1,2,0:0:0:0:
109,332,66485,1,8,0:0:0:0:
221,227,66638,1,0,0:0:0:0:
107,60,66791,6,0,P|87:97|77:138,1,85,2|0,0:0|0:0,0:0:0:0:
109,332,67098,1,8,0:0:0:0:
221,227,67251,1,0,0:0:0:0:
221,227,67327,1,0,0:0:0:0:
221,227,67404,1,2,0:0:0:0:
54,226,67557,1,2,0:0:0:0:
218,351,67710,2,0,P|235:290|225:227,1,127.5,8|0,0:0|0:0,0:0:0:0:
249,149,68016,6,0,P|206:148|166:166,1,85,6|0,0:0|0:0,0:0:0:0:
109,331,68322,2,0,P|130:294|135:250,1,85,8|0,0:0|0:0,0:0:0:0:
39,121,68628,2,0,P|59:158|95:183,1,85,8|2,0:0|0:0,0:0:0:0:
220,227,68934,2,0,P|284:223|348:217,1,127.5,8|0,0:0|0:0,0:0:0:0:
386,198,69240,5,2,0:0:0:0:
320,307,69393,1,0,0:0:0:0:
249,148,69547,1,8,0:0:0:0:
247,143,69623,1,8,0:0:0:0:
245,138,69700,1,8,0:0:0:0:
243,133,69776,1,8,0:0:0:0:
241,128,69853,1,8,0:0:0:0:
239,123,69929,1,8,0:0:0:0:
235,119,70006,2,0,P|200:142|161:159,1,85,0|0,0:0|0:0,0:0:0:0:
0,332,70312,6,0,P|83:316|168:310,1,170,6|8,0:0|0:0,0:0:0:0:
320,307,70771,1,2,0:0:0:0:
254,158,70924,1,2,0:0:0:0:
88,319,71077,1,8,0:0:0:0:
88,319,71383,2,0,P|81:276|77:234,1,85
244,74,71689,6,0,P|250:116|254:158,1,85,2|0,0:0|0:0,0:0:0:0:
236,318,71996,2,0,P|278:311|320:307,1,85,2|0,0:0|0:0,0:0:0:0:
439,352,72302,1,8,0:0:0:0:
376,240,72455,1,0,0:0:0:0:
488,100,72608,1,8,0:0:0:0:
499,251,72761,6,0,P|436:259|375:240,1,127.5,2|0,0:0|0:0,0:0:0:0:
345,210,73067,1,8,0:0:0:0:
244,75,73220,2,0,L|233:159,1,85,2|2,0:0|0:0,0:0:0:0:
88,318,73526,2,0,L|52:151,1,170,8|0,0:0|0:0,0:0:0:0:
33,68,73985,1,0,0:0:0:0:
145,158,74138,5,2,0:0:0:0:
235,45,74291,2,0,L|319:36,1,85,0|2,0:0|0:0,0:0:0:0:
428,201,74598,2,0,P|365:198|309:228,1,127.5,6|0,0:0|0:0,0:0:0:0:
294,267,74904,2,0,P|285:308|282:351,1,85,2|0,0:0|0:0,0:0:0:0:
469,267,75210,6,0,P|505:195|458:129,1,170,6|2,0:0|0:0,0:0:0:0:
236,45,75669,2,0,P|239:87|252:127,1,85,2|0,0:0|0:0,0:0:0:0:
350,313,75975,2,0,P|288:297|224:294,1,127.5,8|0,0:0|0:0,0:0:0:0:
183,307,76281,2,0,P|140:303|98:298,1,85
17,223,76587,5,2,0:0:0:0:
91,88,76740,2,0,P|133:91|175:96,1,85,0|2,0:0|0:0,0:0:0:0:
296,177,77047,1,2,0:0:0:0:
183,307,77200,1,8,0:0:0:0:
127,175,77353,1,0,0:0:0:0:
194,340,77506,1,8,0:0:0:0:
324,277,77659,6,0,P|332:191|338:107,1,170,2|0,0:0|0:0,0:0:0:0:
250,15,78118,1,2,0:0:0:0:
165,110,78271,1,2,0:0:0:0:
248,314,78424,2,0,P|287:298|324:278,1,85,8|0,0:0|0:0,0:0:0:0:
420,194,78730,1,0,0:0:0:0:
349,26,78883,6,0,P|342:67|338:110,1,85,2|0,0:0|0:0,0:0:0:0:
325,277,79189,1,2,0:0:0:0:
325,276,79496,2,0,P|257:303|191:274,1,148.74999546051
182,245,79955,2,0,L|181:179,1,59.4999981842042,4|0,0:0|0:0,0:0:0:0:
178,44,80261,5,4,0:0:0:0:
178,44,81791,5,0,0:0:0:0:
126,110,81945,1,8,0:0:0:0:
126,110,82021,1,8,0:0:0:0:
126,110,82098,2,0,L|62:104,1,59.4999981842042,8|2,0:0|0:0,0:0:0:0:
38,13,82404,1,2,0:0:0:0:
178,44,82557,6,0,P|209:119|163:186,1,170,6|2,0:0|0:0,0:0:0:0:
27,308,83016,2,0,P|72:298|122:295,1,85,8|0,0:0|0:0,0:0:0:0:
339,349,83322,1,2,0:0:0:0:
265,234,83475,1,2,0:0:0:0:
195,384,83628,2,0,L|205:289,1,85,8|0,0:0|0:0,0:0:0:0:
339,349,83934,5,2,0:0:0:0:
448,233,84087,2,0,P|406:241|363:240,1,85,0|8,0:0|0:0,0:0:0:0:
274,138,84393,1,0,0:0:0:0:
274,138,84470,1,0,0:0:0:0:
274,138,84547,1,2,0:0:0:0:
195,269,84700,1,2,0:0:0:0:
365,241,84853,1,8,0:0:0:0:
324,70,85006,6,0,P|262:60|207:91,1,127.5,6|0,0:0|0:0,0:0:0:0:
195,132,85312,1,2,0:0:0:0:
250,337,85465,2,0,P|270:296|279:253,1,85,8|0,0:0|0:0,0:0:0:0:
132,68,85771,2,0,P|112:109|103:152,1,85,2|2,0:0|0:0,0:0:0:0:
109,319,86077,1,8,0:0:0:0:
203,233,86230,1,0,0:0:0:0:
28,206,86383,6,0,P|69:226|112:235,1,85,2|0,0:0|0:0,0:0:0:0:
270,173,86689,1,8,0:0:0:0:
219,289,86842,1,0,0:0:0:0:
217,293,86919,1,0,0:0:0:0:
215,297,86996,1,2,0:0:0:0:
166,160,87149,1,2,0:0:0:0:
340,133,87302,2,0,P|349:174|339:215,1,85,8|0,0:0|0:0,0:0:0:0:
263,361,87608,6,0,P|181:367|134:301,1,170,6|8,0:0|0:0,0:0:0:0:
166,160,88067,1,0,0:0:0:0:
276,239,88220,1,2,0:0:0:0:
254,37,88373,1,2,0:0:0:0:
199,161,88526,1,8,0:0:0:0:
342,133,88679,1,0,0:0:0:0:
478,17,88832,6,0,P|471:60|473:102,1,85,6|0,0:0|0:0,0:0:0:0:
500,172,89062,1,0,0:0:0:0:
500,172,89138,1,8,0:0:0:0:
342,133,89291,1,0,0:0:0:0:
342,133,89368,1,0,0:0:0:0:
342,133,89445,1,2,0:0:0:0:
413,340,89598,1,2,0:0:0:0:
416,204,89751,1,2,0:0:0:0:
297,270,89904,1,2,0:0:0:0:
344,93,90057,5,4,0:0:0:0:
344,99,90363,2,0,P|280:122|213:114,2,136,0|8|0,0:0|0:0|0:0,0:0:0:0:
476,32,91281,5,2,0:0:0:0:
456,138,91434,2,0,L|442:206,1,68,8|0,0:0|0:0,0:0:0:0:
336,229,91740,1,2,0:0:0:0:
377,363,91893,2,0,P|407:348|429:323,1,68,8|0,0:0|0:0,0:0:0:0:
179,307,92200,2,0,P|211:317|244:315,1,68
336,229,92506,5,2,0:0:0:0:
70,40,92812,2,0,P|58:72|53:105,1,68,2|0,0:0|0:0,0:0:0:0:
177,307,93118,2,0,P|113:288|47:302,1,136,8|0,0:0|0:0,0:0:0:0:
46,302,93577,1,0,0:0:0:0:
114,196,93730,5,2,0:0:0:0:
270,289,93883,2,0,L|285:153,1,136,8|2,0:0|0:0,0:0:0:0:
389,250,94342,1,8,0:0:0:0:
326,356,94496,2,0,P|261:370|202:340,1,136,2|0,0:0|0:0,0:0:0:0:
113,195,94955,6,0,P|80:196|48:207,1,68,4|0,0:0|0:0,0:0:0:0:
29,321,95261,2,0,P|62:320|94:309,1,68,0|2,0:0|0:0,0:0:0:0:
257,191,95567,1,8,0:0:0:0:
325,284,95720,1,0,0:0:0:0:
242,364,95873,2,0,P|223:335|214:303,1,68
257,191,96179,6,0,L|270:112,1,68,2|8,0:0|0:0,0:0:0:0:
131,223,96485,2,0,L|144:144,1,68,0|2,0:0|0:0,0:0:0:0:
17,266,96791,2,0,L|30:187,1,68,8|2,0:0|0:0,0:0:0:0:
47,84,97098,1,0,0:0:0:0:
131,223,97251,1,2,0:0:0:0:
209,111,97404,6,0,P|273:95|330:129,1,136,4|2,0:0|0:0,0:0:0:0:
397,247,97863,1,8,0:0:0:0:
236,339,98016,2,0,P|232:305|236:271,1,68,0|2,0:0|0:0,0:0:0:0:
331,130,98322,2,0,P|334:96|331:62,1,68,8|0,0:0|0:0,0:0:0:0:
169,30,98628,6,0,P|127:58|77:56,1,102,8|0,0:0|0:0,0:0:0:0:
4,75,98934,2,0,P|4:42|18:11,1,68,8|2,0:0|0:0,0:0:0:0:
92,155,99240,1,8,0:0:0:0:
107,184,99317,1,8,0:0:0:0:
112,218,99393,1,8,0:0:0:0:
105,251,99470,1,8,0:0:0:0:
87,280,99547,1,8,0:0:0:0:
64,294,99623,1,8,0:0:0:0:
43,296,99700,1,8,0:0:0:0:
28,292,99776,1,8,0:0:0:0:
12,284,99853,6,0,P|72:272|138:265,1,127.5,6|0,0:0|0:0,0:0:0:0:
209,219,100159,2,0,P|250:227|293:229,1,85,8|0,0:0|0:0,0:0:0:0:
473,193,100465,1,2,0:0:0:0:
382,282,100618,1,2,0:0:0:0:
333,55,100771,1,8,0:0:0:0:
394,166,100924,1,0,0:0:0:0:
208,219,101077,5,2,0:0:0:0:
309,141,101230,1,0,0:0:0:0:
281,319,101383,2,0,P|223:343|160:334,1,127.5,8|0,0:0|0:0,0:0:0:0:
99,289,101689,1,2,0:0:0:0:
93,161,101842,1,2,0:0:0:0:
208,219,101996,1,8,0:0:0:0:
208,219,102072,1,8,0:0:0:0:
208,219,102149,1,8,0:0:0:0:
208,219,102225,1,8,0:0:0:0:
207,219,102302,6,0,P|215:185|217:151,1,68,6|0,0:0|0:0,0:0:0:0:
103,93,102608,2,0,P|95:126|93:160,1,68,2|2,0:0|0:0,0:0:0:0:
191,303,102914,2,0,P|256:295|293:240,1,136,8|0,0:0|0:0,0:0:0:0:
269,155,103373,1,0,0:0:0:0:
382,288,103526,5,2,0:0:0:0:
454,172,103679,2,0,P|421:182|387:182,1,68,8|0,0:0|0:0,0:0:0:0:
247,68,103985,2,0,P|281:69|314:79,1,68,6|0,0:0|0:0,0:0:0:0:
135,162,104291,2,0,P|69:173|13:138,1,136,4|8,0:0|0:0,0:0:0:0:
11,124,104674,1,8,0:0:0:0:
11,124,104751,6,0,P|20:209|28:302,1,170,6|8,0:0|0:0,0:0:0:0:
153,316,105210,1,0,0:0:0:0:
237,220,105363,2,0,P|244:179|244:136,1,85,2|2,0:0|0:0,0:0:0:0:
113,0,105669,2,0,P|113:42|120:84,1,85,8|0,0:0|0:0,0:0:0:0:
330,44,105975,5,2,0:0:0:0:
202,41,106128,1,0,0:0:0:0:
237,221,106281,2,0,P|275:237|317:245,1,85,8|0,0:0|0:0,0:0:0:0:
483,194,106587,1,2,0:0:0:0:
419,304,106740,1,2,0:0:0:0:
306,160,106893,2,0,P|303:117|305:75,1,85,8|0,0:0|0:0,0:0:0:0:
482,58,107200,6,0,P|485:126|483:193,1,136,6|2,0:0|0:0,0:0:0:0:
419,304,107659,1,2,0:0:0:0:
215,312,107812,2,0,P|185:294|160:272,1,68,8|0,0:0|0:0,0:0:0:0:
123,154,108118,2,0,P|99:179|71:199,1,68
5,116,108424,5,2,0:0:0:0:
35,347,108577,2,0,L|51:281,1,68,8|0,0:0|0:0,0:0:0:0:
204,209,108883,2,0,L|220:143,1,68,2|8,0:0|0:0,0:0:0:0:
373,11,109189,1,8,0:0:0:0:
405,2,109266,1,8,0:0:0:0:
438,8,109342,1,8,0:0:0:0:
466,29,109419,1,8,0:0:0:0:
481,58,109496,1,8,0:0:0:0:
482,92,109572,1,8,0:0:0:0:
467,123,109649,6,0,P|441:202|471:280,1,170,6|8,0:0|0:0,0:0:0:0:
471,280,110108,1,0,0:0:0:0:
286,248,110261,1,2,0:0:0:0:
367,344,110414,1,2,0:0:0:0:
442,203,110567,2,0,P|407:181|365:172,1,85,8|0,0:0|0:0,0:0:0:0:
197,190,110873,5,2,0:0:0:0:
283,96,111026,1,0,0:0:0:0:
376,259,111179,2,0,P|372:302|366:344,1,85,8|0,0:0|0:0,0:0:0:0:
176,384,111485,2,0,P|179:341|185:299,1,85,2|2,0:0|0:0,0:0:0:0:
283,96,111791,1,8,0:0:0:0:
283,96,111868,1,0,0:0:0:0:
283,96,111945,1,0,0:0:0:0:
222,207,112098,6,0,P|159:206|109:168,1,127.5,6|0,0:0|0:0,0:0:0:0:
98,126,112404,1,8,0:0:0:0:
94,280,112557,1,2,0:0:0:0:
317,244,112710,2,0,P|326:182|297:126,1,127.5,2|0,0:0|0:0,0:0:0:0:
283,96,113016,1,8,0:0:0:0:
222,208,113169,1,0,0:0:0:0:
336,330,113322,6,0,P|372:308|399:270,1,85,6|0,0:0|0:0,0:0:0:0:
396,61,113628,2,0,P|397:103|416:145,1,85,8|0,0:0|0:0,0:0:0:0:
477,299,113934,2,0,P|439:278|393:274,1,85,2|2,0:0|0:0,0:0:0:0:
239,299,114240,2,0,P|177:314|118:293,1,127.5,8|0,0:0|0:0,0:0:0:0:
76,227,114547,6,0,P|66:143|62:58,1,170,6|8,0:0|0:0,0:0:0:0:
62,58,115006,1,0,0:0:0:0:
222,160,115159,1,2,0:0:0:0:
320,54,115312,1,2,0:0:0:0:
156,11,115465,2,0,P|155:53|157:95,1,85,8|0,0:0|0:0,0:0:0:0:
240,299,115771,6,0,P|300:316|363:306,1,127.5,6|0,0:0|0:0,0:0:0:0:
395,278,116077,1,8,0:0:0:0:
315,167,116230,1,0,0:0:0:0:
471,71,116383,1,2,0:0:0:0:
404,189,116536,1,2,0:0:0:0:
251,104,116689,2,0,P|233:142|229:184,1,85,8|0,0:0|0:0,0:0:0:0:
176,351,116996,6,0,P|92:341|18:380,1,170,6|8,0:0|0:0,0:0:0:0:
18,380,117455,1,0,0:0:0:0:
60,251,117608,2,0,P|72:210|75:167,1,85,2|2,0:0|0:0,0:0:0:0:
195,230,117914,2,0,P|226:258|263:278,1,85,8|0,0:0|0:0,0:0:0:0:
428,238,118220,5,2,0:0:0:0:
283,363,118424,1,2,0:0:0:0:
234,128,118628,1,2,0:0:0:0:
332,266,118832,5,2,0:0:0:0:
437,132,119036,1,2,0:0:0:0:
195,229,119240,1,2,0:0:0:0:
301,67,119445,6,0,P|318:132|290:193,1,136,6|0,0:0|0:0,0:0:0:0:
195,228,119904,2,0,P|131:224|60:212,1,136
36,111,120363,2,0,P|69:111|103:117,1,68
235,127,120669,6,0,P|298:147|363:127,2,136,0|0|0,0:0|0:0|0:0,0:0:0:0:
235,127,121587,1,0,0:0:0:0:
439,37,121893,6,0,P|442:104|450:172,1,136
365,229,122353,2,0,P|353:262|345:297,1,68
418,364,122659,1,0,0:0:0:0:
471,238,122812,2,0,P|463:204|451:173,1,68
362,123,123118,5,0,0:0:0:0:
256,184,123271,1,0,0:0:0:0:
271,305,123424,1,0,0:0:0:0:
388,337,123577,1,2,0:0:0:0:
388,337,123654,1,0,0:0:0:0:
388,337,123730,2,0,L|388:253,1,68,8|0,0:0|0:0,0:0:0:0:
256,184,124036,2,0,L|256:100,1,68,0|2,0:0|0:0,0:0:0:0:
168,40,124342,6,0,P|97:63|28:35,1,152.999995330811,6|0,0:0|0:0,0:0:0:0:
28,35,124802,1,2,0:0:0:0:
56,181,124955,2,0,L|69:268,1,76.4999976654053,8|0,0:0|0:0,0:0:0:0:
170,207,125261,1,0,0:0:0:0:
134,339,125414,1,2,0:0:0:0:
0,286,125567,6,0,P|31:264|68:256,1,76.4999976654053,8|0,0:0|0:0,0:0:0:0:
165,128,125873,2,0,P|202:134|233:155,1,76.4999976654053,0|2,0:0|0:0,0:0:0:0:
230,368,126179,1,8,0:0:0:0:
233,341,126256,1,8,0:0:0:0:
236,314,126332,1,8,0:0:0:0:
239,288,126409,1,8,0:0:0:0:
243,261,126485,2,0,L|289:247,1,38.2499988327027,8|8,0:0|0:0,0:0:0:0:
344,196,126638,2,0,L|389:210,1,38.2499988327027,8|8,0:0|0:0,0:0:0:0:
458,235,126791,5,8,0:0:0:0:
360,57,126945,1,8,0:0:0:0:
365,49,127251,5,8,0:0:0:0:
234,156,127404,1,8,0:0:0:0:
226,149,127710,5,8,0:0:0:0:
364,337,127863,1,12,0:0:0:0:
364,337,128475,5,0,0:0:0:0:
363,337,128628,2,0,P|370:299|375:261,1,76.4999976654053
356,235,128934,2,0,L|363:340,1,102,2|0,0:0|0:0,0:0:0:0:
283,353,129240,6,0,P|237:377|136:361,1,127.5,6|0,0:0|0:0,0:0:0:0:
126,350,129547,1,8,0:0:0:0:
200,246,129700,1,0,0:0:0:0:
19,139,129853,1,2,0:0:0:0:
43,264,130006,1,2,0:0:0:0:
133,173,130159,1,8,0:0:0:0:
126,350,130312,1,0,0:0:0:0:
126,350,130388,1,0,0:0:0:0:
125,350,130465,6,0,P|69:378|6:380,1,127.5,2|0,0:0|0:0,0:0:0:0:
72,289,130771,2,0,P|110:271|152:273,1,85,8|0,0:0|0:0,0:0:0:0:
304,318,131077,1,2,0:0:0:0:
258,198,131230,1,2,0:0:0:0:
126,350,131383,1,8,0:0:0:0:
231,278,131536,1,0,0:0:0:0:
143,46,131689,6,0,L|134:173,1,127.5,2|0,0:0|0:0,0:0:0:0:
163,205,131996,2,0,L|170:110,1,85,8|0,0:0|0:0,0:0:0:0:
47,109,132302,1,2,0:0:0:0:
163,205,132455,1,2,0:0:0:0:
273,82,132608,2,0,P|335:70|392:96,1,127.5,8|0,0:0|0:0,0:0:0:0:
465,71,132914,6,0,P|465:113|449:152,1,85,2|0,0:0|0:0,0:0:0:0:
305,318,133220,2,0,P|294:255|310:193,1,127.5,8|0,0:0|0:0,0:0:0:0:
324,153,133526,1,2,0:0:0:0:
411,257,133679,1,2,0:0:0:0:
241,381,133832,2,0,P|225:341|220:299,1,85,8|0,0:0|0:0,0:0:0:0:
274,83,134138,6,0,B|218:103|156:66|156:66|171:83|178:108,1,170,6|8,0:0|0:0,0:0:0:0:
209,215,134598,1,0,0:0:0:0:
90,123,134751,1,2,0:0:0:0:
231,8,134904,1,2,0:0:0:0:
363,100,135057,2,0,L|339:189,1,85,8|0,0:0|0:0,0:0:0:0:
220,384,135363,6,0,L|208:212,1,170,2|8,0:0|0:0,0:0:0:0:
209,215,135822,1,0,0:0:0:0:
317,323,135975,1,2,0:0:0:0:
343,183,136128,1,2,0:0:0:0:
163,136,136281,2,0,P|127:160|88:175,1,85,8|0,0:0|0:0,0:0:0:0:
0,327,136587,6,0,P|82:319|151:367,1,170,6|8,0:0|0:0,0:0:0:0:
209,215,137047,1,0,0:0:0:0:
214,208,137123,1,0,0:0:0:0:
219,201,137200,1,2,0:0:0:0:
232,306,137353,1,2,0:0:0:0:
253,85,137506,1,8,0:0:0:0:
343,183,137659,1,0,0:0:0:0:
164,136,137812,5,2,0:0:0:0:
333,47,137965,1,2,0:0:0:0:
288,244,138118,1,8,0:0:0:0:
253,85,138271,1,0,0:0:0:0:
253,85,138348,1,0,0:0:0:0:
253,85,138424,1,2,0:0:0:0:
209,215,138577,1,2,0:0:0:0:
343,183,138730,1,2,0:0:0:0:
232,306,138883,1,2,0:0:0:0:
163,136,139036,6,0,P|221:124|281:159,1,127.5,6|0,0:0|0:0,0:0:0:0:
343,183,139342,2,0,P|384:195|426:191,1,85,8|0,0:0|0:0,0:0:0:0:
507,92,139649,1,2,0:0:0:0:
429,0,139802,1,2,0:0:0:0:
343,183,139955,2,0,L|332:269,1,85,8|0,0:0|0:0,0:0:0:0:
224,337,140261,6,0,P|148:369|74:330,2,170,2|8|2,0:0|0:0|0:0,0:0:0:0:
105,203,141026,1,2,0:0:0:0:
224,114,141179,2,0,P|233:155|233:197,1,85,8|0,0:0|0:0,0:0:0:0:
75,332,141485,6,0,B|29:304|-22:311|-22:311|16:285,1,127.5,6|0,0:0|0:0,0:0:0:0:
23,220,141791,2,0,L|31:128,1,85,8|0,0:0|0:0,0:0:0:0:
152,285,142098,1,2,0:0:0:0:
124,111,142251,1,2,0:0:0:0:
270,234,142404,2,0,P|275:276|277:318,1,85,8|0,0:0|0:0,0:0:0:0:
466,132,142710,6,0,P|404:146|341:135,1,127.5,2|0,0:0|0:0,0:0:0:0:
290,72,143016,2,0,P|248:64|205:68,1,85,8|0,0:0|0:0,0:0:0:0:
67,281,143322,2,0,P|108:288|151:284,1,85,2|2,0:0|0:0,0:0:0:0:
270,234,143628,1,8,0:0:0:0:
410,313,143781,1,0,0:0:0:0:
415,319,143858,1,0,0:0:0:0:
420,325,143934,6,0,P|409:283|405:241,1,85,6|0,0:0|0:0,0:0:0:0:
290,71,144240,2,0,P|285:113|275:154,1,85,8|0,0:0|0:0,0:0:0:0:
152,285,144547,1,2,0:0:0:0:
119,161,144700,1,2,0:0:0:0:
58,351,144853,1,8,0:0:0:0:
39,224,145006,1,0,0:0:0:0:
151,284,145159,6,0,P|193:291|236:289,1,85,2|0,0:0|0:0,0:0:0:0:
402,200,145465,1,8,0:0:0:0:
405,198,145541,1,0,0:0:0:0:
408,196,145618,1,0,0:0:0:0:
411,194,145695,1,0,0:0:0:0:
414,192,145771,1,2,0:0:0:0:
357,281,145924,1,2,0:0:0:0:
210,125,146077,2,0,P|273:135|331:111,1,127.5,8|0,0:0|0:0,0:0:0:0:
412,88,146383,6,0,L|431:0,1,85,6|0,0:0|0:0,0:0:0:0:
512,228,146689,2,0,L|494:144,1,85,8|0,0:0|0:0,0:0:0:0:
397,358,146996,2,0,L|414:274,1,85,8|0,0:0|0:0,0:0:0:0:
316,212,147302,2,0,P|274:220|229:213,1,85,8|0,0:0|0:0,0:0:0:0:
61,151,147608,5,8,0:0:0:0:
130,267,147761,1,0,0:0:0:0:
14,357,147914,1,2,0:0:0:0:
61,151,148067,2,0,P|102:142|144:143,1,85,0|2,0:0|0:0,0:0:0:0:
316,212,148373,1,0,0:0:0:0:
242,97,148526,1,0,0:0:0:0:
130,267,148679,5,6,0:0:0:0:
130,267,149138,1,2,0:0:0:0:
192,368,149445,1,2,0:0:0:0:
249,263,149751,1,2,0:0:0:0:
135,299,150057,5,2,0:0:0:0:
227,374,150363,1,2,0:0:0:0:
216,255,150669,2,0,P|208:223|204:194,1,59.4999981842042,2|0,0:0|0:0,0:0:0:0:
280,108,150975,2,0,P|275:78|268:49,1,59.4999981842042,2|0,0:0|0:0,0:0:0:0:
143,86,151281,6,0,P|83:86|24:79,2,118.999996368408,2|2|2,0:0|0:0|0:0,0:0:0:0:
289,19,152200,2,0,L|279:115,1,89.2499972763062,2|0,0:0|0:0,0:0:0:0:
246,178,152506,6,0,L|253:221,2,29.7499990921021,2|0|8,0:0|0:0|0:0,0:0:0:0:
379,118,152812,2,0,P|371:148|357:173,1,59.4999981842042,8|0,0:0|0:0,0:0:0:0:
143,87,153118,1,8,0:0:0:0:
217,286,153271,1,8,0:0:0:0:
221,293,153577,6,0,P|144:287|70:306,1,152.999995330811,6|8,0:0|0:0,0:0:0:0:
1,189,154036,2,0,P|40:184|77:176,1,76.4999976654053,0|2,0:0|0:0,0:0:0:0:
143,87,154342,1,8,0:0:0:0:
211,189,154496,1,0,0:0:0:0:
267,80,154649,1,0,0:0:0:0:
267,80,154725,1,0,0:0:0:0:
267,80,154802,1,2,0:0:0:0:
148,12,154955,6,0,P|141:49|141:87,1,76.4999976654053,0|8,0:0|0:0,0:0:0:0:
211,189,155261,1,0,0:0:0:0:
267,80,155414,2,0,L|351:69,1,76.4999976654053,2|8,0:0|0:0,0:0:0:0:
479,1,155720,1,0,0:0:0:0:
443,134,155873,1,8,0:0:0:0:
478,315,156026,1,2,0:0:0:0:
392,238,156179,5,0,0:0:0:0:
370,350,156332,1,0,0:0:0:0:
477,315,156485,2,0,P|489:278|496:241,1,76.4999976654053,2|0,0:0|0:0,0:0:0:0:
443,134,156791,1,8,0:0:0:0:
294,239,156945,2,0,P|282:275|275:312,1,76.4999976654053
332,125,157251,6,0,P|257:137|186:110,1,152.999995330811,6|2,0:0|0:0,0:0:0:0:
83,22,157710,1,8,0:0:0:0:
96,197,157863,2,0,L|76:221,14,19.1249994163513,8|0|0|0|0|0|0|0|0|0|0|0|0|0|0,0:0|0:0|0:0|0:0|0:0|0:0|0:0|0:0|0:0|0:0|0:0|0:0|0:0|0:0|0:0,0:0:0:0:
112,173,158475,6,0,P|102:257|87:341,1,170,6|2,0:0|0:0,0:0:0:0:
240,368,158934,2,0,P|246:325|254:281,1,85,8|0,0:0|0:0,0:0:0:0:
366,180,159240,1,2,0:0:0:0:
229,58,159393,2,0,P|189:70|147:74,1,85,2|8,0:0|0:0,0:0:0:0:
13,221,159700,6,0,P|95:206|168:246,1,170,6|0,0:0|0:0,0:0:0:0:
353,265,160159,2,0,P|359:222|367:178,1,85,8|0,0:0|0:0,0:0:0:0:
348,54,160465,1,2,0:0:0:0:
256,165,160618,1,2,0:0:0:0:
442,311,160771,1,8,0:0:0:0:
448,161,160924,1,0,0:0:0:0:
448,161,161001,1,0,0:0:0:0:
449,161,161077,6,0,P|408:173|366:180,1,85,2|0,0:0|0:0,0:0:0:0:
158,303,161383,2,0,P|167:261|182:221,1,85,8|0,0:0|0:0,0:0:0:0:
234,87,161689,1,2,0:0:0:0:
297,222,161842,1,2,0:0:0:0:
464,74,161996,1,8,0:0:0:0:
344,21,162149,6,0,L|316:145,1,127.5,6|0,0:0|0:0,0:0:0:0:
297,222,162455,1,2,0:0:0:0:
233,87,162608,2,0,P|192:96|150:98,1,85,8|0,0:0|0:0,0:0:0:0:
74,292,162914,2,0,P|116:294|157:303,1,85,2|2,0:0|0:0,0:0:0:0:
300,348,163220,1,8,0:0:0:0:
208,234,163373,6,0,P|193:172|212:112,1,127.5,6|0,0:0|0:0,0:0:0:0:
234,87,163679,1,2,0:0:0:0:
384,182,163832,2,0,P|392:220|380:273,1,85,8|0,0:0|0:0,0:0:0:0:
228,310,164138,1,2,0:0:0:0:
298,221,164291,1,2,0:0:0:0:
432,357,164445,1,8,0:0:0:0:
300,348,164598,6,0,L|297:211,1,127.5,2|0,0:0|0:0,0:0:0:0:
295,139,164904,1,2,0:0:0:0:
468,134,165057,2,0,L|468:222,1,85,8|0,0:0|0:0,0:0:0:0:
332,384,165363,2,0,L|332:299,1,85,2|2,0:0|0:0,0:0:0:0:
384,146,165669,1,8,0:0:0:0:
257,46,165822,6,0,B|198:72|132:28|132:28|149:61,1,170,6|2,0:0|0:0,0:0:0:0:
167,221,166281,2,0,L|137:301,1,85,8|0,0:0|0:0,0:0:0:0:
267,142,166587,2,0,L|273:227,1,85,2|2,0:0|0:0,0:0:0:0:
363,360,166893,2,0,P|303:338|240:346,1,127.5,8|0,0:0|0:0,0:0:0:0:
199,360,167200,5,2,0:0:0:0:
267,142,167353,1,2,0:0:0:0:
492,249,167659,2,0,P|468:275|425:310,1,85,2|0,0:0|0:0,0:0:0:0:
252,222,167965,2,0,P|209:224|167:221,1,85,2|0,0:0|0:0,0:0:0:0:
45,51,168271,6,0,P|129:46|214:50,1,170,6|2,0:0|0:0,0:0:0:0:
448,127,168730,2,0,P|465:88|469:46,1,85,8|0,0:0|0:0,0:0:0:0:
344,69,169036,2,0,P|326:107|322:149,1,85,2|2,0:0|0:0,0:0:0:0:
412,337,169342,1,8,0:0:0:0:
463,219,169496,1,0,0:0:0:0:
254,258,169649,5,2,0:0:0:0:
381,252,169802,1,0,0:0:0:0:
344,69,169955,2,0,P|301:74|260:82,1,85,8|0,0:0|0:0,0:0:0:0:
73,70,170261,2,0,P|78:112|86:153,1,85,2|2,0:0|0:0,0:0:0:0:
240,342,170567,2,0,P|247:300|253:258,1,85,8|0,0:0|0:0,0:0:0:0:
46,234,170873,6,0,B|112:252|163:208|163:208|154:227|150:250,1,170,2|8,0:0|0:0,0:0:0:0:
139,352,171332,1,0,0:0:0:0:
242,162,171485,1,2,0:0:0:0:
151,251,171638,1,2,0:0:0:0:
330,319,171791,2,0,P|337:277|343:235,1,85,8|0,0:0|0:0,0:0:0:0:
314,58,172098,5,2,0:0:0:0:
314,58,172251,1,0,0:0:0:0:
408,180,172404,2,0,P|451:193|513:144,1,127.5,8|0,0:0|0:0,0:0:0:0:
512,108,172710,1,2,0:0:0:0:
425,273,172863,1,2,0:0:0:0:
242,162,173016,2,0,P|176:156|114:158,1,127.5,8|0,0:0|0:0,0:0:0:0:
72,166,173322,6,0,P|110:186|152:189,1,85,6|0,0:0|0:0,0:0:0:0:
408,180,173628,1,8,0:0:0:0:
408,180,173934,1,2,0:0:0:0:
290,264,174087,1,2,0:0:0:0:
212,70,174240,1,8,0:0:0:0:
212,70,174547,5,6,0:0:0:0:
212,70,174853,2,0,P|204:111|195:155,1,85,8|0,0:0|0:0,0:0:0:0:
125,317,175159,1,2,0:0:0:0:
108,182,175312,1,2,0:0:0:0:
290,263,175465,2,0,P|282:304|273:348,1,85,8|0,0:0|0:0,0:0:0:0:
0,298,175771,6,0,P|62:303|124:316,1,127.5,6|0,0:0|0:0,0:0:0:0:
157,344,176077,1,8,0:0:0:0:
108,182,176230,1,0,0:0:0:0:
259,167,176383,1,2,0:0:0:0:
189,252,176536,1,2,0:0:0:0:
363,329,176689,2,0,P|377:288|379:245,1,85,8|0,0:0|0:0,0:0:0:0:
347,79,176996,5,2,0:0:0:0:
346,74,177072,1,0,0:0:0:0:
345,69,177149,1,0,0:0:0:0:
290,263,177302,1,8,0:0:0:0:
407,158,177455,1,0,0:0:0:0:
278,5,177608,2,0,P|263:45|257:87,1,85,2|2,0:0|0:0,0:0:0:0:
290,263,177914,1,8,0:0:0:0:
290,263,177990,1,0,0:0:0:0:
290,263,178067,1,0,0:0:0:0:
290,263,178143,1,0,0:0:0:0:
290,263,178220,6,0,B|234:250|176:296|176:296|192:244,1,170,6|8,0:0|0:0,0:0:0:0:
218,153,178679,1,0,0:0:0:0:
372,197,178832,2,0,P|414:202|456:201,1,85,2|2,0:0|0:0,0:0:0:0:
415,25,179138,2,0,P|372:19|330:20,1,85,8|0,0:0|0:0,0:0:0:0:
181,74,179445,6,0,P|119:84|68:48,1,127.5,2|0,0:0|0:0,0:0:0:0:
43,13,179751,2,0,P|47:58|34:105,1,85,8|0,0:0|0:0,0:0:0:0:
3,253,180057,1,2,0:0:0:0:
111,171,180210,1,2,0:0:0:0:
100,363,180363,2,0,P|96:318|109:271,1,85,8|0,0:0|0:0,0:0:0:0:
181,75,180669,5,6,0:0:0:0:
265,212,180822,1,0,0:0:0:0:
111,171,180975,1,8,0:0:0:0:
264,121,181128,1,0,0:0:0:0:
125,204,181281,1,2,0:0:0:0:
182,53,181434,1,2,0:0:0:0:
217,269,181587,2,0,P|276:285|328:251,1,127.5,8|0,0:0|0:0,0:0:0:0:
348,213,181893,6,0,L|348:125,1,85,2|0,0:0|0:0,0:0:0:0:
490,271,182200,2,0,P|451:288|409:294,1,85,8|0,0:0|0:0,0:0:0:0:
217,269,182506,2,0,P|178:251|136:245,1,85,2|2,0:0|0:0,0:0:0:0:
0,145,182812,2,0,P|41:138|80:121,1,85,8|0,0:0|0:0,0:0:0:0:
265,12,183118,6,0,L|236:186,1,170,6|8,0:0|0:0,0:0:0:0:
218,269,183577,1,0,0:0:0:0:
251,102,183730,1,2,0:0:0:0:
348,213,183883,1,2,0:0:0:0:
141,321,184036,2,0,P|134:279|134:236,1,85,8|0,0:0|0:0,0:0:0:0:
174,65,184342,6,0,P|213:80|250:101,1,85,2|0,0:0|0:0,0:0:0:0:
348,213,184649,1,8,0:0:0:0:
429,125,184802,1,0,0:0:0:0:
251,102,184955,1,2,0:0:0:0:
380,13,185108,1,2,0:0:0:0:
469,216,185261,2,0,P|407:230|347:212,1,127.5,8|0,0:0|0:0,0:0:0:0:
279,263,185567,6,0,L|251:358,1,85,6|0,0:0|0:0,0:0:0:0:
216,97,185873,2,0,L|188:192,1,85,8|0,0:0|0:0,0:0:0:0:
69,342,186179,1,8,0:0:0:0:
160,266,186332,1,0,0:0:0:0:
80,79,186485,1,8,0:0:0:0:
77,197,186638,1,0,0:0:0:0:
316,137,186791,6,0,L|345:128,28,21.25,2|0|0|0|0|0|0|0|0|0|0|0|0|0|0|0|0|0|0|0|0|0|0|0|0|0|0|0|0,0:0|0:0|0:0|0:0|0:0|0:0|0:0|0:0|0:0|0:0|0:0|0:0|0:0|0:0|0:0|0:0|0:0|0:0|0:0|0:0|0:0|0:0|0:0|0:0|0:0|0:0|0:0|0:0|0:0,0:0:0:0:
258,200,188016,5,4,0:0:0:0:
232,280,188169,1,0,0:0:0:0:
294,337,188322,1,0,0:0:0:0:
372,307,188475,2,0,P|422:297|473:293,1,101.999996887207,8|0,0:0|0:0,0:0:0:0:
484,168,188934,2,0,P|449:171|410:169,1,50.9999984436036,8|0,0:0|0:0,0:0:0:0:
342,107,189240,6,0,P|292:95|241:96,1,101.999996887207,4|0,0:0|0:0,0:0:0:0:
161,167,189700,2,0,P|111:178|60:177,1,101.999996887207,8|0,0:0|0:0,0:0:0:0:
12,94,190159,1,8,0:0:0:0:
85,295,190465,5,4,0:0:0:0:
154,362,190618,1,0,0:0:0:0:
174,267,190771,1,0,0:0:0:0:
28,246,190924,2,0,P|10:292|27:342,1,101.999996887207,8|0,0:0|0:0,0:0:0:0:
154,362,191383,2,0,L|211:354,1,50.9999984436036
286,304,191689,6,0,B|342:297|393:341|393:341|381:317|381:317|380:298,1,152.999995330811,4|8,0:0|0:0,0:0:0:0:
405,224,192302,2,0,L|412:155,1,50.9999984436036
335,128,192608,2,0,L|340:77,1,50.9999984436036
240,4,192914,6,0,P|174:11|143:69,1,136,4|0,0:0|0:0,0:0:0:0:
220,155,193373,2,0,L|190:290,1,136
83,304,193832,2,0,L|97:235,1,68
259,127,194138,6,0,L|245:193,1,68
323,326,194445,1,0,0:0:0:0:
459,193,194751,1,0,0:0:0:0:
338,45,195057,1,0,0:0:0:0:
337,45,195363,6,0,P|274:63|213:35,1,136
213,35,195822,1,0,0:0:0:0:
126,110,195975,2,0,P|108:139|97:173,1,68
181,309,196281,2,0,P|199:280|210:246,1,68
215,132,196587,5,2,0:0:0:0:
97,256,196740,1,2,0:0:0:0:
285,198,196893,1,8,0:0:0:0:
126,111,197047,1,8,0:0:0:0:
209,248,197200,1,8,0:0:0:0:
234,101,197353,1,8,0:0:0:0:
379,203,197506,2,0,P|370:170|356:140,1,68,2|2,0:0|0:0,0:0:0:0:
278,16,197812,6,0,P|197:8|98:5,1,170,6|2,0:0|0:0,0:0:0:0:
108,5,198271,1,0,0:0:0:0:
46,160,198424,2,0,P|35:200|13:236,1,85,2|0,0:0|0:0,0:0:0:0:
99,352,198730,2,0,P|109:311|131:275,1,85,2|0,0:0|0:0,0:0:0:0:
248,190,199036,6,0,L|379:171,1,127.5,2|0,0:0|0:0,0:0:0:0:
442,197,199342,2,0,L|357:209,1,85,2|0,0:0|0:0,0:0:0:0:
193,255,199649,2,0,P|165:178|216:114,1,170,2|2,0:0|0:0,0:0:0:0:
301,114,200108,1,0,0:0:0:0:
271,277,200261,6,0,P|212:332|134:309,1,170,2|2,0:0|0:0,0:0:0:0:
89,237,200720,1,0,0:0:0:0:
134,129,200873,2,0,P|176:128|216:115,1,85,2|0,0:0|0:0,0:0:0:0:
388,38,201179,2,0,P|358:68|339:105,1,85,2|0,0:0|0:0,0:0:0:0:
371,220,201485,6,0,L|399:347,1,127.5,2|0,0:0|0:0,0:0:0:0:
314,348,201791,2,0,P|279:357|232:349,1,85,2|0,0:0|0:0,0:0:0:0:
90,319,202098,2,0,P|81:284|89:237,1,85,2|0,0:0|0:0,0:0:0:0:
154,40,202404,1,2,0:0:0:0:
227,154,202557,1,0,0:0:0:0:
29,139,202710,6,0,L|155:123,1,127.5,6|0,0:0|0:0,0:0:0:0:
227,154,203016,2,0,L|316:146,1,85,2|0,0:0|0:0,0:0:0:0:
440,64,203322,1,2,0:0:0:0:
440,64,203475,1,0,0:0:0:0:
499,176,203628,1,2,0:0:0:0:
499,176,203781,1,0,0:0:0:0:
363,251,203934,6,0,L|347:343,1,85,2|0,0:0|0:0,0:0:0:0:
228,154,204240,2,0,L|242:237,1,85,2|0,0:0|0:0,0:0:0:0:
337,67,204547,1,0,0:0:0:0:
409,171,204700,1,0,0:0:0:0:
244,238,204853,2,0,P|182:254|119:251,1,127.5,8|0,0:0|0:0,0:0:0:0:
81,230,205159,5,2,0:0:0:0:
132,122,205312,1,0,0:0:0:0:
36,50,205465,2,0,P|17:89|6:134,1,85,8|2,0:0|0:0,0:0:0:0:
57,354,205771,2,0,P|76:293|81:229,1,127.5
73,187,206077,1,2,0:0:0:0:
0,273,206230,1,2,0:0:0:0:
175,329,206383,6,0,P|249:325|322:337,1,148.74999546051,4|0,0:0|0:0,0:0:0:0:
360,354,206842,1,2,0:0:0:0:
314,205,206996,2,0,L|311:139,1,59.4999981842042,8|0,0:0|0:0,0:0:0:0:
439,19,207302,2,0,L|441:78,1,59.4999981842042
375,246,207608,6,0,P|301:277|243:222,1,170,6|2,0:0|0:0,0:0:0:0:
259,72,208067,1,2,0:0:0:0:
263,64,208143,1,0,0:0:0:0:
267,56,208220,2,0,L|248:149,1,85,8|0,0:0|0:0,0:0:0:0:
133,165,208526,2,0,L|114:258,1,85,2|2,0:0|0:0,0:0:0:0:
188,381,208832,6,0,P|229:372|271:369,1,85,4|8,0:0|0:0,0:0:0:0:
397,263,209138,2,0,P|354:260|313:251,1,85,0|2,0:0|0:0,0:0:0:0:
195,111,209445,2,0,P|117:86|55:139,1,170,8|0,0:0|0:0,0:0:0:0:
55,139,209904,1,0,0:0:0:0:
52,294,210057,6,0,P|93:284|131:264,1,85,2|0,0:0|0:0,0:0:0:0:
275,331,210363,2,0,P|297:294|310:254,1,85,2|2,0:0|0:0,0:0:0:0:
191,48,210669,2,0,L|201:185,1,127.5,8|0,0:0|0:0,0:0:0:0:
203,217,210975,1,2,0:0:0:0:
334,115,211128,6,0,P|417:128|500:113,1,170,2|8,0:0|0:0,0:0:0:0:
495,277,211587,2,0,P|453:274|411:277,1,85,0|2,0:0|0:0,0:0:0:0:
256,284,211893,2,0,P|194:297|140:269,1,127.5
119,230,212200,1,8,0:0:0:0:
158,371,212353,1,8,0:0:0:0:
311,357,212506,6,0,P|340:280|297:209,1,170,4|2,0:0|0:0,0:0:0:0:
297,209,212965,1,2,0:0:0:0:
118,230,213118,2,0,P|77:236|34:235,1,85,8|0,0:0|0:0,0:0:0:0:
70,104,213424,2,0,P|111:97|154:98,1,85,0|2,0:0|0:0,0:0:0:0:
263,116,213730,5,0,0:0:0:0:
446,228,213883,2,0,L|468:59,1,170,8|0,0:0|0:0,0:0:0:0:
338,199,214342,2,0,P|297:209|254:209,1,85,8|0,0:0|0:0,0:0:0:0:
188,341,214649,2,0,P|230:340|271:351,1,85
449,324,214955,6,0,B|429:268|486:210|486:210|463:225|441:228,1,170,6|2,0:0|0:0,0:0:0:0:
338,199,215414,1,2,0:0:0:0:
423,68,215567,2,0,P|427:46|427:25,2,42.5,8|0|0,0:0|0:0|0:0,0:0:0:0:
320,110,215873,2,0,P|281:125|239:130,1,85,2|2,0:0|0:0,0:0:0:0:
265,263,216179,6,0,P|226:246|192:220,1,85,8|0,0:0|0:0,0:0:0:0:
122,335,216485,2,0,P|106:295|101:253,1,85,8|0,0:0|0:0,0:0:0:0:
145,79,216791,1,8,0:0:0:0:
163,61,216868,1,8,0:0:0:0:
177,40,216945,1,8,0:0:0:0:
185,16,217021,1,8,0:0:0:0:
210,20,217098,1,8,0:0:0:0:
221,43,217174,1,8,0:0:0:0:
237,63,217251,1,8,0:0:0:0:
256,80,217327,1,8,0:0:0:0:
277,94,217404,6,0,B|335:111|389:65|389:65|370:89|366:109,1,170,6|8,0:0|0:0,0:0:0:0:
368,218,217863,1,0,0:0:0:0:
463,161,218016,1,2,0:0:0:0:
393,316,218169,1,2,0:0:0:0:
293,177,218322,2,0,P|251:188|209:187,1,85,8|0,0:0|0:0,0:0:0:0:
23,315,218628,6,0,P|65:314|106:324,1,85,2|0,0:0|0:0,0:0:0:0:
305,343,218934,2,0,L|295:210,1,127.5,8|0,0:0|0:0,0:0:0:0:
293,177,219240,1,2,0:0:0:0:
398,263,219393,1,2,0:0:0:0:
213,384,219547,2,0,L|206:294,1,85,8|0,0:0|0:0,0:0:0:0:
183,110,219853,5,6,0:0:0:0:
98,236,220006,1,0,0:0:0:0:
293,177,220159,1,8,0:0:0:0:
149,125,220312,1,0,0:0:0:0:
201,268,220465,1,2,0:0:0:0:
293,177,220618,1,2,0:0:0:0:
198,27,220771,2,0,P|186:67|183:110,1,85,8|0,0:0|0:0,0:0:0:0:
350,338,221077,6,0,P|361:297|364:254,1,85,2|0,0:0|0:0,0:0:0:0:
384,84,221383,1,8,0:0:0:0:
357,70,221460,1,0,0:0:0:0:
328,65,221536,1,0,0:0:0:0:
299,70,221613,1,0,0:0:0:0:
273,84,221689,1,2,0:0:0:0:
279,212,221842,1,2,0:0:0:0:
456,225,221996,2,0,P|459:182|458:140,1,85,8|0,0:0|0:0,0:0:0:0:
278,212,222302,6,0,P|196:227|116:201,1,170,6|8,0:0|0:0,0:0:0:0:
116,201,222761,1,0,0:0:0:0:
56,88,222914,1,2,0:0:0:0:
56,88,223067,1,2,0:0:0:0:
216,52,223220,2,0,P|216:94|213:136,1,85,8|0,0:0|0:0,0:0:0:0:
170,313,223526,6,0,B|113:341|44:302|44:302|58:328|56:359,1,170,2|8,0:0|0:0,0:0:0:0:
116,201,223985,1,0,0:0:0:0:
56,87,224138,2,0,P|25:117|2:153,1,85,2|2,0:0|0:0,0:0:0:0:
170,313,224445,2,0,P|200:283|223:247,1,85,8|0,0:0|0:0,0:0:0:0:
185,69,224751,6,0,P|242:99|301:123,1,127.5,6|0,0:0|0:0,0:0:0:0:
378,83,225057,2,0,P|419:70|460:60,1,85,8|0,0:0|0:0,0:0:0:0:
415,270,225363,2,0,P|374:282|333:292,1,85,2|2,0:0|0:0,0:0:0:0:
116,202,225669,1,8,0:0:0:0:
213,283,225822,1,8,0:0:0:0:
213,283,225899,1,8,0:0:0:0:
213,283,225975,5,8,0:0:0:0:
279,91,226128,1,2,0:0:0:0:
126,240,226281,1,2,0:0:0:0:
330,191,226434,1,2,0:0:0:0:
202,0,226587,5,6,0:0:0:0:
202,0,227200,6,0,L|194:86,1,85
222,208,227506,1,0,0:0:0:0:
222,208,227582,1,0,0:0:0:0:
222,208,227659,1,2,0:0:0:0:
110,86,227812,1,8,0:0:0:0:
299,66,227965,1,10,0:0:0:0:
299,66,229496,6,0,P|378:90|452:53,1,170,6|8,0:0|0:0,0:0:0:0:
366,176,229955,2,0,L|377:261,1,85,2|2,0:0|0:0,0:0:0:0:
475,344,230261,2,0,L|497:219,1,127.5,8|0,0:0|0:0,0:0:0:0:
503,186,230567,1,0,0:0:0:0:
378,262,230720,1,0,0:0:0:0:
439,150,230873,5,2,0:0:0:0:
476,344,231026,2,0,P|445:368|399:382,1,85,8|2,0:0|0:0,0:0:0:0:
250,355,231332,1,2,0:0:0:0:
366,177,231485,2,0,P|372:219|378:262,1,85,8|0,0:0|0:0,0:0:0:0:
286,76,231791,1,8,0:0:0:0:
193,235,231945,6,0,P|115:257|54:203,1,170,6|8,0:0|0:0,0:0:0:0:
121,95,232404,2,0,L|131:187,1,85,2|2,0:0|0:0,0:0:0:0:
250,355,232710,2,0,L|288:187,1,170,8|0,0:0|0:0,0:0:0:0:
287,189,233169,1,0,0:0:0:0:
360,293,233322,5,2,0:0:0:0:
194,235,233475,2,0,L|216:138,1,85,2|0,0:0|0:0,0:0:0:0:
250,355,233781,1,6,0:0:0:0:
446,192,234087,1,6,0:0:0:0:
255,22,234393,1,6,0:0:0:0:
255,22,234700,5,4,0:0:0:0:
314,109,234853,2,0,L|285:200,1,85,0|2,0:0|0:0,0:0:0:0:
168,314,235159,2,0,P|89:292|23:340,1,170,8|0,0:0|0:0,0:0:0:0:
23,340,235618,1,0,0:0:0:0:
10,213,235771,5,2,0:0:0:0:
192,122,235924,2,0,L|180:213,1,85,8|0,0:0|0:0,0:0:0:0:
101,65,236230,2,0,P|60:77|18:82,1,85,2|8,0:0|0:0,0:0:0:0:
98,188,236536,2,0,P|140:192|180:205,1,85,0|8,0:0|0:0,0:0:0:0:
319,283,236842,6,0,B|446:248|446:248|392:232,1,170,6|8,0:0|0:0,0:0:0:0:
328,189,237302,2,0,P|317:147|318:105,1,85,2|2,0:0|0:0,0:0:0:0:
467,92,237608,2,0,P|484:173|447:248,1,170,8|0,0:0|0:0,0:0:0:0:
447,248,238067,1,0,0:0:0:0:
328,189,238220,5,2,0:0:0:0:
230,294,238373,2,0,L|208:378,1,85,8|0,0:0|0:0,0:0:0:0:
307,107,238679,2,0,L|328:189,1,85,8|0,0:0|0:0,0:0:0:0:
200,16,238985,2,0,L|179:99,1,85,8|0,0:0|0:0,0:0:0:0:
134,231,239291,5,6,0:0:0:0:
256,192,239368,12,0,244496,0:0:0:0:
256,192,244802,12,2,245873,0:0:0:0:
