osu file format v14

[General]
AudioFilename: audio.ogg
AudioLeadIn: 0
PreviewTime: 50873
Countdown: 0
SampleSet: Soft
StackLeniency: 0.7
Mode: 0
LetterboxInBreaks: 0
WidescreenStoryboard: 0

[Editor]
Bookmarks: 70152
DistanceSpacing: 1.3
BeatDivisor: 4
GridSize: 4
TimelineZoom: 1.6

[Metadata]
Title:courage
TitleUnicode:courage
Artist:Tomatsu Haruka
ArtistUnicode:戸松遥
Creator:Laurier
Version:Hard
Source:ソードアート・オンラインⅡ
Tags:sword art online 2 ii sao 2nd season opening anime mothers rosario Satellite Lecana japanese pop
BeatmapID:576839
BeatmapSetID:244476

[Difficulty]
HPDrainRate:5
CircleSize:4
OverallDifficulty:6
ApproachRate:8
SliderMultiplier:1.5
SliderTickRate:1

[Events]
//Background and Video events
0,0,"BG.jpg",0,0
//Break Periods
//Storyboard Layer 0 (Background)
//Storyboard Layer 1 (Fail)
//Storyboard Layer 2 (Pass)
//Storyboard Layer 3 (Foreground)
//Storyboard Layer 4 (Overlay)
//Storyboard Sound Samples

[TimingPoints]
-555,306.122448979592,4,2,1,60,1,0
1893,-166.666666666667,4,2,2,20,0,0
9240,-142.857142857143,4,2,2,30,0,0
11689,-142.857142857143,4,2,1,30,0,0
14138,-142.857142857143,4,2,2,30,0,0
19649,-142.857142857143,4,2,1,30,0,0
20261,-142.857142857143,4,2,1,50,0,0
20567,-125,4,2,1,50,0,0
21485,-100,4,2,1,60,0,0
30669,-100,4,2,1,40,0,0
31281,-100,4,2,1,60,0,0
33730,-125,4,2,1,60,0,0
36179,-100,4,2,1,60,0,0
38628,-125,4,2,1,60,0,0
41077,-100,4,2,1,60,0,0
50108,-166.666666666667,4,2,1,40,0,0
50567,-125,4,2,1,40,0,0
50873,-100,4,2,1,70,0,1
69547,-100,4,2,1,50,0,1
70312,-100,4,2,1,60,0,0
79496,-142.857142857143,4,2,1,40,0,0
79955,-142.857142857143,4,2,1,20,0,0
80261,-142.857142857143,4,2,1,60,0,0
82557,-100,4,2,1,60,0,0
90363,-125,4,2,1,50,0,0
99240,-125,4,2,1,40,0,0
99853,-100,4,2,1,60,0,0
101996,-100,4,2,1,40,0,0
102302,-125,4,2,1,60,0,0
104751,-100,4,2,1,60,0,0
107200,-125,4,2,1,60,0,0
109189,-125,4,2,1,40,0,0
109649,-100,4,2,1,60,0,0
119445,-125,4,2,1,50,0,0
124342,-111.111111111111,4,2,1,60,0,0
126179,-111.111111111111,4,2,1,40,0,0
126791,-111.111111111111,4,2,1,60,0,0
128475,-166.666666666666,4,2,1,30,0,0
128934,-125,4,2,1,60,0,0
129240,-99.9999999999999,4,2,1,70,0,1
148679,-99.9999999999999,4,2,1,70,0,0
149138,-142.857142857143,4,2,1,50,0,0
150669,-142.857142857143,4,2,1,50,0,0
153577,-111.111111111111,4,2,1,60,0,0
158475,-100,4,2,1,60,0,0
186791,-100,4,2,2,60,0,0
186868,-100,4,2,2,30,0,0
187710,-100,4,2,1,30,0,0
187863,-100,4,2,1,5,0,0
188016,-166.666666666667,4,2,2,30,0,0
192914,-125,4,2,1,30,0,0
195975,-125,4,2,1,40,0,0
196281,-125,4,2,1,50,0,0
197812,-100,4,2,1,60,0,0
206383,-142.857142857143,4,2,1,60,0,0
207608,-100,4,2,1,60,0,1
216791,-100,4,2,1,50,0,1
217404,-100,4,2,1,70,0,1
226587,-100,4,2,1,60,0,1
227812,-100,4,2,1,60,0,0
244496,-100,4,2,1,5,0,0
244802,-100,4,2,1,50,0,0

[Colours]
Combo1 : 172,255,255
Combo2 : 185,252,180
Combo3 : 247,187,253
Combo4 : 224,224,224

[HitObjects]
248,194,1893,6,0,P|312:211|375:191,2,134.999995880127,2|8|0,0:0|0:0|0:0,0:0:0:0:
248,194,2965,1,8,0:0:0:0:
248,194,3730,2,0,L|236:291,1,89.999997253418
151,333,4342,6,0,P|86:350|24:326,2,134.999995880127,2|8|0,0:0|0:0|0:0,0:0:0:0:
151,333,5414,1,8,0:0:0:0:
90,254,5720,6,0,P|82:232|79:210,1,44.999998626709,4|0,0:0|0:0,0:0:0:0:
126,145,6026,2,0,P|127:122|134:101,1,44.999998626709,0|0,0:0|0:0,0:0:0:0:
211,76,6332,2,0,P|222:56|237:39,1,44.999998626709,0|0,0:0|0:0,0:0:0:0:
317,46,6638,1,0,0:0:0:0:
317,46,6715,1,0,0:0:0:0:
317,46,6791,6,0,L|505:25,1,179.999994506836,4|0,0:0|0:0,0:0:0:0:
484,276,8016,2,0,P|396:268|315:305,1,179.999994506836,4|0,0:0|0:0,0:0:0:0:
36,347,9240,6,0,P|23:297|29:245,1,104.999996795654,4|0,0:0|0:0,0:0:0:0:
118,210,9700,2,0,P|124:158|110:107,1,104.999996795654,4|0,0:0|0:0,0:0:0:0:
48,35,10159,2,0,P|32:54|20:78,1,52.4999983978272,4|0,0:0|0:0,0:0:0:0:
110,108,10465,2,0,B|186:110|236:53|236:53|225:92|225:92|248:105,1,209.999993591309,6|0,0:0|0:0,0:0:0:0:
475,145,11689,5,4,0:0:0:0:
475,145,12302,1,0,0:0:0:0:
475,144,12914,2,0,P|469:223|445:298,2,157.499995193482,0|0|0,0:0|0:0|0:0,0:0:0:0:
394,35,14138,5,4,0:0:0:0:
394,34,14598,2,0,P|321:61|247:39,1,157.499995193482
149,134,15363,2,0,P|76:107|2:129,1,157.499995193482,0|0,0:0|0:0,0:0:0:0:
2,129,15975,1,0,0:0:0:0:
177,338,16587,6,0,P|249:364|323:342,2,157.499995193482,4|0|0,0:0|0:0|0:0,0:0:0:0:
258,228,17812,2,0,L|273:67,1,157.499995193482
273,72,18577,1,0,0:0:0:0:
273,72,19036,6,4,P|349:83|415:43,1,157.499995193482
477,99,19649,2,0,P|461:119|451:143,1,52.4999983978272,4|0,0:0|0:0,0:0:0:0:
376,182,19955,2,0,P|378:208|388:232,1,52.4999983978272,4|0,0:0|0:0,0:0:0:0:
474,329,20261,5,2,0:0:0:0:
474,329,20414,1,2,0:0:0:0:
474,329,20567,2,0,P|437:328|402:332,1,60,2|2,0:0|0:0,0:0:0:0:
284,362,20873,1,8,0:0:0:0:
237,278,21026,2,0,L|232:209,1,60,8|0,0:0|0:0,0:0:0:0:
256,39,21485,6,0,P|181:43|107:31,2,150,6|8|2,0:0|0:0|0:0,0:0:0:0:
351,18,22251,1,2,0:0:0:0:
322,111,22404,2,0,P|318:149|317:185,1,75,8|0,0:0|0:0,0:0:0:0:
256,261,22710,6,0,P|221:305|147:366,2,150,2|8|2,0:0|0:0|0:0,0:0:0:0:
221,169,23475,1,2,0:0:0:0:
221,169,23628,1,8,0:0:0:0:
221,169,23781,6,0,B|110:158|110:158|142:138,1,150,2|2,0:0|0:0,0:0:0:0:
214,72,24240,2,0,P|182:55|141:51,1,75,8|0,0:0|0:0,0:0:0:0:
58,94,24547,2,0,P|24:157|58:221,1,150,2|8,0:0|0:0,0:0:0:0:
300,324,25159,6,0,P|371:306|440:331,1,150,2|8,0:0|0:0,0:0:0:0:
440,331,25618,2,0,L|457:253,1,75,0|2,0:0|0:0,0:0:0:0:
374,127,25924,2,0,L|358:200,1,75,2|8,0:0|0:0,0:0:0:0:
254,244,26230,6,0,B|142:261|142:261|185:278,1,150,6|2,0:0|0:0,0:0:0:0:
88,328,26689,2,0,P|61:335|12:340,1,75,8|0,0:0|0:0,0:0:0:0:
30,200,26996,2,0,P|57:193|106:188,1,75,2|2,0:0|0:0,0:0:0:0:
210,156,27302,2,0,P|232:85|201:19,1,150,8|2,0:0|0:0,0:0:0:0:
201,19,27914,5,8,0:0:0:0:
201,19,28220,2,0,P|238:27|278:29,1,75,2|2,0:0|0:0,0:0:0:0:
350,112,28526,2,0,P|387:104|427:102,1,75,8|0,0:0|0:0,0:0:0:0:
481,198,28832,6,0,L|472:358,1,150,6|8,0:0|0:0,0:0:0:0:
380,283,29291,1,2,0:0:0:0:
380,283,29445,2,0,P|353:303|310:319,1,75,0|2,0:0|0:0,0:0:0:0:
207,350,29751,2,0,P|187:323|171:280,1,75,8|0,0:0|0:0,0:0:0:0:
231,189,30057,6,0,L|239:39,2,150,6|8|8,0:0|0:0|0:0,0:0:0:0:
231,189,30975,1,8,0:0:0:0:
19,40,31281,6,0,P|90:59|157:29,1,150,6|8,0:0|0:0,0:0:0:0:
264,63,31740,1,0,0:0:0:0:
264,63,31893,2,0,P|335:43|402:73,1,150,2|8,0:0|0:0,0:0:0:0:
469,289,32506,6,0,P|397:308|330:278,2,150,2|8|2,0:0|0:0|0:0,0:0:0:0:
406,204,33271,1,2,0:0:0:0:
406,204,33424,1,8,0:0:0:0:
186,222,33730,6,0,L|172:348,1,120,6|2,0:0|0:0,0:0:0:0:
89,351,34189,1,2,0:0:0:0:
89,351,34342,2,0,P|60:355|30:357,1,60,8|0,0:0|0:0,0:0:0:0:
34,272,34649,2,0,P|29:242|27:212,1,60
91,157,34955,5,2,0:0:0:0:
91,157,35108,2,0,P|89:127|84:97,1,60,8|0,0:0|0:0,0:0:0:0:
179,14,35414,2,0,P|180:43|185:73,1,60,2|0,0:0|0:0,0:0:0:0:
266,157,35720,2,0,L|393:162,1,120,6|8,0:0|0:0,0:0:0:0:
469,225,36179,6,0,B|434:335|434:335|412:300,1,150,6|8,0:0|0:0,0:0:0:0:
314,276,36638,1,0,0:0:0:0:
314,276,36791,2,0,P|276:282|239:282,1,75,2|2,0:0|0:0,0:0:0:0:
159,212,37098,2,0,P|121:212|84:218,1,75,8|2,0:0|0:0,0:0:0:0:
75,113,37404,6,0,B|93:67|87:5|87:5|98:26|116:37,1,150,2|8,0:0|0:0,0:0:0:0:
211,72,37863,1,2,0:0:0:0:
310,39,38016,2,0,L|351:22,2,37.5,2|0|2,0:0|0:0|0:0,0:0:0:0:
289,141,38322,1,8,0:0:0:0:
289,141,38628,6,0,L|277:272,1,120,6|2,0:0|0:0,0:0:0:0:
278,260,39087,1,2,0:0:0:0:
385,240,39240,2,0,P|405:247|458:253,1,60,8|0,0:0|0:0,0:0:0:0:
377,336,39547,2,0,P|347:339|318:349,1,60
217,334,39853,6,0,L|165:366,1,60,2|8,0:0|0:0,0:0:0:0:
73,323,40159,1,0,0:0:0:0:
145,250,40312,2,0,P|162:194|158:134,1,120,6|0,0:0|0:0,0:0:0:0:
64,95,40771,2,0,P|57:124|58:154,1,60,8|0,0:0|0:0,0:0:0:0:
145,250,41077,6,0,P|218:261|277:218,2,150,6|8|2,0:0|0:0|0:0,0:0:0:0:
195,158,41842,1,2,0:0:0:0:
195,158,41996,2,0,L|203:78,1,75,8|0,0:0|0:0,0:0:0:0:
285,18,42302,6,0,B|308:123|308:123|336:81,1,150,2|8,0:0|0:0,0:0:0:0:
440,266,42914,2,0,P|436:303|430:340,1,75,2|2,0:0|0:0,0:0:0:0:
332,301,43220,2,0,P|315:334|296:367,1,75,8|0,0:0|0:0,0:0:0:0:
151,315,43526,6,0,P|82:338|14:310,1,150,6|8,0:0|0:0,0:0:0:0:
14,310,43985,1,2,0:0:0:0:
82,207,44138,2,0,P|151:183|219:211,1,150,6|8,0:0|0:0,0:0:0:0:
219,211,44598,1,0,0:0:0:0:
345,194,44751,6,0,L|361:44,2,150,6|8|2,0:0|0:0|0:0,0:0:0:0:
405,288,45516,1,2,0:0:0:0:
405,288,45669,2,0,P|445:297|481:297,1,75,8|0,0:0|0:0,0:0:0:0:
300,282,45975,6,0,L|153:318,2,150,6|8|2,0:0|0:0|0:0,0:0:0:0:
345,193,46740,1,2,0:0:0:0:
345,193,46893,1,8,0:0:0:0:
156,68,47200,6,0,P|83:60|24:103,1,150,6|2,0:0|0:0,0:0:0:0:
24,103,47659,1,8,0:0:0:0:
109,177,47812,2,0,P|181:184|240:141,1,150,2|8,0:0|0:0,0:0:0:0:
257,29,48271,1,2,0:0:0:0:
348,95,48424,5,12,0:0:0:0:
348,95,48577,1,8,0:0:0:0:
257,301,48883,1,8,0:0:0:0:
257,301,49036,1,8,0:0:0:0:
455,195,49342,1,8,0:0:0:0:
455,195,49496,1,8,0:0:0:0:
455,195,50108,5,0,0:0:0:0:
454,195,50261,2,0,P|411:207|367:207,1,89.9999972534181,0|2,0:0|0:0,0:0:0:0:
170,97,50873,6,0,L|143:253,1,150,6|8,0:0|0:0,0:0:0:0:
220,323,51332,2,0,L|256:257,1,75,0|2,0:0|0:0,0:0:0:0:
144,245,51638,1,2,0:0:0:0:
236,181,51791,2,0,L|271:114,1,75,8|0,0:0|0:0,0:0:0:0:
358,42,52098,6,0,P|429:61|492:23,2,150,2|8|2,0:0|0:0|0:0,0:0:0:0:
249,18,52863,1,2,0:0:0:0:
249,18,53016,2,0,P|211:14|174:16,1,75,8|0,0:0|0:0,0:0:0:0:
36,63,53322,6,0,P|45:137|47:212,2,150,6|8|2,0:0|0:0|0:0,0:0:0:0:
133,118,54087,1,2,0:0:0:0:
133,118,54240,2,0,P|137:161|137:200,1,75,8|0,0:0|0:0,0:0:0:0:
107,302,54547,6,0,P|79:335|51:362,2,75,2|0|8,0:0|0:0|0:0,0:0:0:0:
185,36,55159,2,0,P|211:62|234:91,1,75,2|2,0:0|0:0,0:0:0:0:
286,191,55465,2,0,P|312:164|335:135,1,75,8|0,0:0|0:0,0:0:0:0:
437,35,55771,6,0,L|456:192,1,150,6|8,0:0|0:0,0:0:0:0:
370,257,56230,1,0,0:0:0:0:
370,257,56383,2,0,P|344:284|310:299,1,75,2|2,0:0|0:0,0:0:0:0:
199,279,56689,1,8,0:0:0:0:
199,279,56842,1,0,0:0:0:0:
199,279,56996,5,2,0:0:0:0:
364,127,57302,1,8,0:0:0:0:
162,27,57608,1,2,0:0:0:0:
228,117,57761,1,2,0:0:0:0:
116,130,57914,2,0,P|109:166|106:204,1,75,8|0,0:0|0:0,0:0:0:0:
198,278,58220,6,0,P|269:295|326:251,2,150,6|8|2,0:0|0:0|0:0,0:0:0:0:
251,206,58985,1,2,0:0:0:0:
251,206,59138,2,0,P|257:169|260:131,1,75,8|0,0:0|0:0,0:0:0:0:
257,18,59445,5,2,0:0:0:0:
257,18,59598,1,2,0:0:0:0:
353,75,59751,1,10,0:0:0:0:
353,75,59904,1,2,0:0:0:0:
454,26,60057,2,0,L|426:175,1,150,2|8,0:0|0:0,0:0:0:0:
426,173,60516,1,2,0:0:0:0:
402,326,60669,6,0,P|330:340|271:297,1,150,6|8,0:0|0:0,0:0:0:0:
252,206,61128,1,0,0:0:0:0:
252,206,61281,2,0,L|246:123,1,75,2|2,0:0|0:0,0:0:0:0:
173,55,61587,2,0,P|163:93|144:128,1,75,8|0,0:0|0:0,0:0:0:0:
53,174,61893,6,0,P|83:242|71:315,1,150,6|8,0:0|0:0,0:0:0:0:
71,315,62353,1,0,0:0:0:0:
71,315,62506,2,0,L|152:304,1,75,2|2,0:0|0:0,0:0:0:0:
240,350,62812,2,0,L|320:338,1,75,8|0,0:0|0:0,0:0:0:0:
438,282,63118,6,0,B|483:166|483:166|445:179,1,150,6|8,0:0|0:0,0:0:0:0:
364,197,63577,1,0,0:0:0:0:
364,197,63730,2,0,P|326:200|289:197,1,75,2|2,0:0|0:0,0:0:0:0:
198,234,64036,2,0,P|195:196|198:159,1,75,8|0,0:0|0:0,0:0:0:0:
301,64,64342,6,0,L|454:36,2,150,2|8|2,0:0|0:0|0:0,0:0:0:0:
222,5,65108,1,2,0:0:0:0:
215,124,65261,1,8,0:0:0:0:
243,312,65567,6,0,P|169:317|118:267,2,150,6|8|2,0:0|0:0|0:0,0:0:0:0:
199,233,66332,1,2,0:0:0:0:
112,187,66485,2,0,P|77:201|50:226,1,75,8|0,0:0|0:0,0:0:0:0:
198,232,66791,6,0,P|271:218|317:161,1,150,2|8,0:0|0:0,0:0:0:0:
331,64,67251,1,0,0:0:0:0:
204,65,67404,2,0,P|194:101|191:138,1,75,2|2,0:0|0:0,0:0:0:0:
277,218,67710,2,0,P|277:292|255:364,1,150,8|6,0:0|0:0,0:0:0:0:
255,364,68322,5,8,0:0:0:0:
113,188,68628,1,8,0:0:0:0:
331,64,68934,1,8,0:0:0:0:
331,64,69240,5,2,0:0:0:0:
380,137,69393,2,0,P|418:141|455:136,1,75,0|0,0:0|0:0,0:0:0:0:
455,136,69700,2,0,L|437:292,1,150,8|8,0:0|0:0,0:0:0:0:
352,235,70159,1,8,0:0:0:0:
292,334,70312,6,0,P|219:350|154:316,1,150,6|8,0:0|0:0,0:0:0:0:
125,231,70771,1,2,0:0:0:0:
125,231,70924,1,2,0:0:0:0:
242,209,71077,2,0,P|255:135|248:60,1,150,8|0,0:0|0:0,0:0:0:0:
248,60,71536,1,0,0:0:0:0:
145,14,71689,6,0,P|136:50|136:87,2,75,2|2|0,0:0|0:0|0:0,0:0:0:0:
248,60,72149,2,0,P|284:67|322:64,1,75,2|8,0:0|0:0,0:0:0:0:
400,144,72455,2,0,P|436:136|473:140,1,75,2|8,0:0|0:0,0:0:0:0:
442,281,72761,6,0,P|368:290|295:271,1,150,6|8,0:0|0:0,0:0:0:0:
239,192,73220,2,0,P|213:219|197:253,1,75,2|2,0:0|0:0,0:0:0:0:
238,357,73526,2,0,P|164:347|91:366,1,150,8|0,0:0|0:0,0:0:0:0:
91,366,73985,1,0,0:0:0:0:
34,287,74138,6,0,P|12:256|0:221,2,75,2|0|2,0:0|0:0|0:0,0:0:0:0:
95,210,74598,2,0,L|106:54,1,150,6|2,0:0|0:0,0:0:0:0:
105,60,75210,6,0,P|176:80|246:58,1,150,6|2,0:0|0:0,0:0:0:0:
336,21,75669,2,0,P|340:58|337:95,1,75,8|0,0:0|0:0,0:0:0:0:
389,221,75975,2,0,P|318:199|247:219,1,150,8|0,0:0|0:0,0:0:0:0:
58,340,76587,5,2,0:0:0:0:
103,245,76740,2,0,L|111:171,1,75,8|0,0:0|0:0,0:0:0:0:
201,45,77047,2,0,L|209:119,1,75,2|8,0:0|0:0,0:0:0:0:
248,219,77353,2,0,L|240:293,1,75,2|8,0:0|0:0,0:0:0:0:
333,352,77659,6,0,P|403:373|474:353,1,150,6|2,0:0|0:0,0:0:0:0:
489,249,78118,2,0,L|504:97,1,150,2|8,0:0|0:0,0:0:0:0:
503,99,78730,1,0,0:0:0:0:
402,129,78883,6,0,B|295:166|295:166|313:117,1,150,6|2,0:0|0:0,0:0:0:0:
307,131,79496,2,0,L|252:284,1,157.499995193482,0|0,0:0|0:0,0:0:0:0:
253,279,80261,5,6,0:0:0:0:
253,279,81791,6,0,L|259:341,2,52.4999983978272,0|8|8,0:0|0:0|0:0,0:0:0:0:
184,229,82251,1,2,0:0:0:0:
184,229,82404,1,8,0:0:0:0:
184,228,82557,6,0,P|110:239|39:216,1,150,6|2,0:0|0:0,0:0:0:0:
19,86,83016,2,0,P|56:86|92:95,1,75,8|0,0:0|0:0,0:0:0:0:
203,131,83322,1,2,0:0:0:0:
203,131,83475,1,2,0:0:0:0:
107,239,83628,2,0,L|109:313,1,75,8|0,0:0|0:0,0:0:0:0:
226,337,83934,6,0,P|298:354|362:318,1,150,2|8,0:0|0:0,0:0:0:0:
394,226,84393,1,0,0:0:0:0:
308,177,84547,2,0,P|300:211|301:254,1,75,2|2,0:0|0:0,0:0:0:0:
394,226,84853,1,8,0:0:0:0:
389,128,85006,6,0,P|328:86|257:102,1,150,2|2,0:0|0:0,0:0:0:0:
182,164,85465,2,0,P|110:178|49:137,2,150,8|2|8,0:0|0:0|0:0,0:0:0:0:
182,164,86383,6,0,P|176:204|172:239,1,75,2|0,0:0|0:0,0:0:0:0:
275,331,86689,2,0,P|281:291|285:256,1,75,8|0,0:0|0:0,0:0:0:0:
276,143,86996,2,0,B|276:36|276:36|310:61,1,150,2|8,0:0|0:0,0:0:0:0:
310,61,87455,1,0,0:0:0:0:
182,162,87608,6,0,L|183:12,1,150,6|8,0:0|0:0,0:0:0:0:
183,12,88067,1,0,0:0:0:0:
90,76,88220,2,0,P|59:96|23:105,1,75,2|2,0:0|0:0,0:0:0:0:
49,215,88526,2,0,P|85:224|116:244,1,75,8|0,0:0|0:0,0:0:0:0:
216,296,88832,6,0,L|201:370,1,75,2|2,0:0|0:0,0:0:0:0:
350,239,89138,2,0,L|335:313,1,75,8|0,0:0|0:0,0:0:0:0:
335,312,89368,1,0,0:0:0:0:
335,312,89445,1,2,0:0:0:0:
264,224,89598,1,2,0:0:0:0:
353,156,89751,2,0,P|388:166|418:189,1,75,2|2,0:0|0:0,0:0:0:0:
495,271,90057,5,6,0:0:0:0:
495,271,90363,2,0,P|497:212|490:152,2,120,0|8|0,0:0|0:0|0:0,0:0:0:0:
340,363,91281,5,2,0:0:0:0:
340,363,91434,2,0,L|280:358,1,60,8|0,0:0|0:0,0:0:0:0:
208,303,91740,2,0,L|139:326,1,60,2|8,0:0|0:0,0:0:0:0:
292,273,92047,2,0,L|308:147,1,120,2|0,0:0|0:0,0:0:0:0:
307,153,92506,5,2,0:0:0:0:
121,28,92812,2,0,P|109:55|104:85,1,60,2|0,0:0|0:0,0:0:0:0:
192,152,93118,2,0,P|249:166|308:154,1,120,8|0,0:0|0:0,0:0:0:0:
394,100,93577,1,0,0:0:0:0:
394,100,93730,5,2,0:0:0:0:
398,204,93883,2,0,L|385:325,1,120,8|2,0:0|0:0,0:0:0:0:
289,268,94342,2,0,L|245:319,2,60,8|2|0,0:0|0:0|0:0,0:0:0:0:
289,268,94802,1,0,0:0:0:0:
170,271,94955,6,0,P|140:270|110:272,1,60,6|0,0:0|0:0,0:0:0:0:
208,180,95261,2,0,P|178:179|148:181,1,60,0|2,0:0|0:0,0:0:0:0:
36,169,95567,2,0,L|25:38,2,120,8|0|2,0:0|0:0|0:0,0:0:0:0:
61,295,96332,6,0,B|35:379|35:379|76:364,1,120,8|2,0:0|0:0,0:0:0:0:
166,357,96791,2,0,L|230:349,1,60,8|0,0:0|0:0,0:0:0:0:
315,255,97098,2,0,L|255:247,1,60,2|8,0:0|0:0,0:0:0:0:
152,178,97404,6,0,P|94:161|35:167,1,120,6|2,0:0|0:0,0:0:0:0:
35,167,97863,1,8,0:0:0:0:
114,257,98016,2,0,P|142:264|172:260,1,60,0|2,0:0|0:0,0:0:0:0:
255,167,98322,2,0,P|262:138|258:108,1,60,8|0,0:0|0:0,0:0:0:0:
368,62,98628,6,0,L|433:49,1,60,8|0,0:0|0:0,0:0:0:0:
343,170,98934,2,0,L|408:157,1,60,8|0,0:0|0:0,0:0:0:0:
492,238,99240,2,0,P|501:296|471:346,1,120,8|8,0:0|0:0,0:0:0:0:
180,321,99853,6,0,P|120:304|34:349,2,150,6|8|2,0:0|0:0|0:0,0:0:0:0:
180,321,100618,1,2,0:0:0:0:
180,321,100771,2,0,L|190:243,1,75,8|0,0:0|0:0,0:0:0:0:
208,120,101077,6,0,P|239:139|276:146,1,75,2|0,0:0|0:0,0:0:0:0:
364,237,101383,2,0,P|437:219|511:230,2,150,8|2|8,0:0|0:0|0:0,0:0:0:0:
180,321,102302,5,6,0:0:0:0:
209,119,102608,1,2,0:0:0:0:
365,237,102914,2,0,P|307:250|248:241,1,120,8|0,0:0|0:0,0:0:0:0:
168,200,103373,1,8,0:0:0:0:
168,200,103526,6,0,P|136:216|113:231,2,60,2|8|0,0:0|0:0|0:0,0:0:0:0:
209,119,103985,2,0,P|214:87|215:58,1,60,6|0,0:0|0:0,0:0:0:0:
127,34,104291,2,0,P|68:30|14:54,1,120,6|8,0:0|0:0,0:0:0:0:
31,227,104751,6,0,P|103:237|166:199,2,150,6|8|2,0:0|0:0|0:0,0:0:0:0:
31,227,105516,1,2,0:0:0:0:
31,227,105669,2,0,L|37:315,1,75,8|0,0:0|0:0,0:0:0:0:
143,308,105975,6,0,L|149:396,1,75,2|2,0:0|0:0,0:0:0:0:
255,349,106281,2,0,P|326:329|398:348,2,150,8|2|8,0:0|0:0|0:0,0:0:0:0:
195,179,107200,6,0,L|206:50,1,120,6|2,0:0|0:0,0:0:0:0:
205,59,107659,1,2,0:0:0:0:
283,118,107812,2,0,L|272:237,1,120,8|0,0:0|0:0,0:0:0:0:
272,237,108271,1,0,0:0:0:0:
391,195,108424,5,2,0:0:0:0:
391,195,108577,2,0,P|421:192|451:192,1,60,8|0,0:0|0:0,0:0:0:0:
497,292,108883,1,2,0:0:0:0:
497,292,109036,2,0,P|467:294|437:294,1,60,8|8,0:0|0:0,0:0:0:0:
347,302,109342,2,0,P|322:318|290:331,1,60,8|8,0:0|0:0,0:0:0:0:
188,289,109649,6,0,P|116:270|47:297,2,150,6|8|2,0:0|0:0|0:0,0:0:0:0:
274,236,110414,1,2,0:0:0:0:
274,236,110567,2,0,L|279:162,1,75,8|0,0:0|0:0,0:0:0:0:
284,48,110873,5,2,0:0:0:0:
284,48,111026,1,2,0:0:0:0:
284,48,111179,2,0,P|353:75|420:47,2,150,8|2|8,0:0|0:0|0:0,0:0:0:0:
45,29,112098,6,0,B|28:90|53:146|53:146|76:126,1,150,6|8,0:0|0:0,0:0:0:0:
161,65,112557,1,2,0:0:0:0:
161,65,112710,2,0,P|166:139|168:214,1,150,2|8,0:0|0:0,0:0:0:0:
108,342,113169,1,0,0:0:0:0:
203,297,113322,6,0,P|239:291|277:290,1,75,2|0,0:0|0:0,0:0:0:0:
402,313,113628,2,0,P|395:276|394:238,1,75,8|2,0:0|0:0,0:0:0:0:
261,119,113934,2,0,P|267:155|268:193,1,75,8|2,0:0|0:0,0:0:0:0:
395,238,114240,2,0,P|431:231|469:230,1,75,8|0,0:0|0:0,0:0:0:0:
408,105,114547,6,0,P|335:122|260:118,2,150,6|8|2,0:0|0:0|0:0,0:0:0:0:
408,105,115312,1,2,0:0:0:0:
408,105,115465,1,8,0:0:0:0:
258,311,115771,5,6,0:0:0:0:
258,311,116077,1,8,0:0:0:0:
178,254,116230,1,2,0:0:0:0:
255,194,116383,2,0,P|262:157|261:119,1,75,0|8,0:0|0:0,0:0:0:0:
197,46,116689,2,0,P|160:38|122:39,1,75,2|0,0:0|0:0,0:0:0:0:
55,110,116996,6,0,P|36:183|49:256,2,150,6|8|2,0:0|0:0|0:0,0:0:0:0:
147,140,117761,1,2,0:0:0:0:
147,140,117914,1,8,0:0:0:0:
325,61,118220,6,0,P|366:81|422:93,2,100,8|2|2,0:0|0:0|0:0,0:0:0:0:
252,129,118832,2,0,P|266:172|297:220,2,100,2|2|2,0:0|0:0|0:0,0:0:0:0:
255,8,119445,5,6,0:0:0:0:
443,193,120057,1,0,0:0:0:0:
443,193,120363,1,0,0:0:0:0:
332,266,120669,6,0,P|276:285|218:272,1,120
147,161,121281,2,0,P|203:141|261:154,2,120,0|0|0,0:0|0:0|0:0,0:0:0:0:
61,262,122200,5,0,0:0:0:0:
162,346,122506,1,0,0:0:0:0:
209,222,122812,1,0,0:0:0:0:
98,87,123118,6,0,P|95:57|96:27,1,60
187,62,123424,2,0,P|189:91|188:121,1,60
209,222,123730,2,0,L|343:236,1,120,8|2,0:0|0:0,0:0:0:0:
496,157,124342,6,0,P|512:92|488:30,2,134.999995880127,6|0|8,0:0|0:0|0:0,0:0:0:0:
417,211,125108,1,0,0:0:0:0:
417,211,125261,1,2,0:0:0:0:
414,116,125414,1,2,0:0:0:0:
336,170,125567,6,0,P|277:184|201:171,1,134.999995880127,8|2,0:0|0:0,0:0:0:0:
36,323,126179,2,0,P|95:309|171:322,1,134.999995880127,12|8,0:0|0:0,0:0:0:0:
359,367,126791,5,6,0:0:0:0:
359,367,126945,1,8,0:0:0:0:
256,192,127251,1,8,0:0:0:0:
256,192,127404,1,8,0:0:0:0:
433,95,127710,1,8,0:0:0:0:
433,95,127863,1,8,0:0:0:0:
433,95,128475,5,0,0:0:0:0:
433,95,128628,2,0,L|426:195,1,89.9999972534181,0|2,0:0|0:0,0:0:0:0:
226,287,129240,6,0,P|153:272|86:303,2,150,6|8|2,0:0|0:0|0:0,0:0:0:0:
313,358,130006,1,2,0:0:0:0:
313,358,130159,2,0,P|331:321|336:281,1,75,8|0,0:0|0:0,0:0:0:0:
274,193,130465,6,0,L|272:38,1,150,2|8,0:0|0:0,0:0:0:0:
84,166,131077,2,0,P|117:180|161:184,1,75,2|2,0:0|0:0,0:0:0:0:
273,193,131383,2,0,P|306:179|350:175,2,75,8|0|2,0:0|0:0|0:0,0:0:0:0:
77,305,131996,5,8,0:0:0:0:
150,92,132302,1,2,0:0:0:0:
150,92,132455,1,2,0:0:0:0:
150,92,132608,2,0,L|161:246,1,150,8|2,0:0|0:0,0:0:0:0:
354,355,133220,5,8,0:0:0:0:
256,192,133526,1,2,0:0:0:0:
256,192,133679,1,2,0:0:0:0:
256,192,133832,2,0,P|294:198|337:194,1,75,8|0,0:0|0:0,0:0:0:0:
462,177,134138,6,0,P|479:105|451:37,2,150,6|8|2,0:0|0:0|0:0,0:0:0:0:
378,114,134904,1,2,0:0:0:0:
378,114,135057,2,0,P|340:108|297:112,1,75,8|0,0:0|0:0,0:0:0:0:
197,72,135363,6,0,P|124:88|57:57,1,150,2|8,0:0|0:0,0:0:0:0:
57,57,135822,1,0,0:0:0:0:
57,57,135975,2,0,L|37:133,1,75,2|2,0:0|0:0,0:0:0:0:
107,272,136281,2,0,L|126:199,1,75,8|0,0:0|0:0,0:0:0:0:
233,163,136587,6,0,P|302:141|364:180,1,150,6|8,0:0|0:0,0:0:0:0:
289,243,137047,1,0,0:0:0:0:
233,163,137200,2,0,L|252:90,1,75,2|2,0:0|0:0,0:0:0:0:
347,0,137506,2,0,L|366:73,1,75,8|0,0:0|0:0,0:0:0:0:
450,144,137812,6,0,P|459:181|456:218,1,75,2|0,0:0|0:0,0:0:0:0:
366,285,138118,2,0,P|363:322|371:358,1,75,10|0,0:0|0:0,0:0:0:0:
371,358,138424,2,0,L|217:340,1,150,2|2,0:0|0:0,0:0:0:0:
112,364,138883,1,2,0:0:0:0:
166,244,139036,6,0,L|179:90,1,150,6|8,0:0|0:0,0:0:0:0:
79,148,139496,1,0,0:0:0:0:
79,148,139649,2,0,P|76:186|71:224,1,75,2|2,0:0|0:0,0:0:0:0:
38,355,139955,2,0,P|76:358|114:363,1,75,8|0,0:0|0:0,0:0:0:0:
213,314,140261,6,0,B|321:289|321:289|266:262,1,150,2|8,0:0|0:0,0:0:0:0:
210,210,140720,1,0,0:0:0:0:
299,172,140873,1,2,0:0:0:0:
299,172,141026,1,2,0:0:0:0:
219,115,141179,2,0,P|218:75|221:40,1,75,8|0,0:0|0:0,0:0:0:0:
333,30,141485,6,0,P|405:43|472:11,2,150,6|8|2,0:0|0:0|0:0,0:0:0:0:
333,30,142251,1,2,0:0:0:0:
220,41,142404,2,0,P|184:47|147:43,1,75,8|0,0:0|0:0,0:0:0:0:
44,78,142710,6,0,B|12:179|12:179|56:163,1,150,2|8,0:0|0:0,0:0:0:0:
147,139,143169,1,2,0:0:0:0:
147,139,143322,2,0,L|122:293,1,150,2|8,0:0|0:0,0:0:0:0:
343,324,143934,6,0,P|415:340|478:301,2,150,6|8|2,0:0|0:0|0:0,0:0:0:0:
263,244,144700,1,2,0:0:0:0:
262,244,144853,2,0,P|239:273|231:309,1,75,8|0,0:0|0:0,0:0:0:0:
345,324,145159,6,0,P|375:258|357:186,1,150,2|8,0:0|0:0,0:0:0:0:
255,138,145618,1,0,0:0:0:0:
255,138,145771,2,0,L|172:139,1,75,2|2,0:0|0:0,0:0:0:0:
91,208,146077,2,0,L|8:209,1,75,8|0,0:0|0:0,0:0:0:0:
92,322,146383,6,0,P|163:299|230:327,2,150,6|8|2,0:0|0:0|0:0,0:0:0:0:
92,322,147149,1,0,0:0:0:0:
92,322,147302,1,8,0:0:0:0:
256,103,147608,5,2,0:0:0:0:
256,103,147761,1,2,0:0:0:0:
294,192,147914,1,2,0:0:0:0:
294,192,148067,2,0,L|371:184,1,75,0|2,0:0|0:0,0:0:0:0:
440,118,148373,2,0,P|468:186|441:255,1,150,2|6,0:0|0:0,0:0:0:0:
256,336,149138,5,2,0:0:0:0:
256,336,149445,1,2,0:0:0:0:
256,336,149751,1,2,0:0:0:0:
255,335,150057,6,0,P|206:322|157:339,1,104.999996795654,2|0,0:0|0:0,0:0:0:0:
44,228,150669,2,0,P|93:241|142:224,1,104.999996795654,2|0,0:0|0:0,0:0:0:0:
227,182,151281,6,0,L|237:70,1,104.999996795654,2|2,0:0|0:0,0:0:0:0:
322,116,151893,2,0,L|332:4,2,104.999996795654,2|2|2,0:0|0:0|0:0,0:0:0:0:
322,116,152659,5,8,0:0:0:0:
322,116,152812,1,8,0:0:0:0:
301,272,153118,1,8,0:0:0:0:
301,272,153271,1,8,0:0:0:0:
110,341,153577,6,0,P|93:276|115:214,1,134.999995880127,6|8,0:0|0:0,0:0:0:0:
206,170,154036,2,0,P|228:107|211:43,2,134.999995880127,2|8|0,0:0|0:0|0:0,0:0:0:0:
206,170,154802,1,2,0:0:0:0:
206,170,154955,6,0,L|279:160,1,67.4999979400635,0|8,0:0|0:0,0:0:0:0:
334,240,155261,2,0,L|407:230,1,67.4999979400635,0|2,0:0|0:0,0:0:0:0:
465,153,155567,1,8,0:0:0:0:
465,153,155720,2,0,L|473:73,1,67.4999979400635,0|8,0:0|0:0,0:0:0:0:
374,26,156026,1,2,0:0:0:0:
374,26,156179,6,0,L|366:106,1,67.4999979400635,0|8,0:0|0:0,0:0:0:0:
270,62,156485,2,0,P|237:72|204:74,1,67.4999979400635,8|2,0:0|0:0,0:0:0:0:
105,51,156791,2,0,P|72:41|39:39,2,67.4999979400635,8|0|0,0:0|0:0|0:0,0:0:0:0:
141,145,157251,6,0,L|154:293,1,134.999995880127,6|2,0:0|0:0,0:0:0:0:
152,279,157710,1,8,0:0:0:0:
152,279,157863,1,8,0:0:0:0:
356,331,158475,6,0,P|429:337|478:283,1,150,6|2,0:0|0:0,0:0:0:0:
444,192,158934,2,0,P|412:211|392:243,1,75,8|0,0:0|0:0,0:0:0:0:
294,251,159240,2,0,L|221:235,2,75,2|2|8,0:0|0:0|0:0,0:0:0:0:
332,160,159700,6,0,L|347:3,1,150,6|2,0:0|0:0,0:0:0:0:
252,37,160159,2,0,P|217:51|179:55,1,75,8|0,0:0|0:0,0:0:0:0:
83,41,160465,2,0,P|96:75|100:113,1,75,2|2,0:0|0:0,0:0:0:0:
174,176,160771,2,0,P|177:213|191:248,1,75,8|0,0:0|0:0,0:0:0:0:
274,299,161077,6,0,P|347:305|407:263,2,150,2|8|2,0:0|0:0|0:0,0:0:0:0:
258,202,161842,1,2,0:0:0:0:
258,202,161996,1,8,0:0:0:0:
340,150,162149,6,0,B|347:36|347:36|313:49,1,150,6|2,0:0|0:0,0:0:0:0:
227,95,162608,2,0,L|150:87,1,75,8|0,0:0|0:0,0:0:0:0:
110,175,162914,2,0,L|33:167,2,75,8|2|8,0:0|0:0|0:0,0:0:0:0:
257,201,163373,6,0,P|281:271|252:338,1,150,6|2,0:0|0:0,0:0:0:0:
156,354,163832,1,8,0:0:0:0:
156,354,164138,2,0,P|119:347|81:348,2,75,2|2|8,0:0|0:0|0:0,0:0:0:0:
253,339,164598,6,0,L|403:316,1,150,2|2,0:0|0:0,0:0:0:0:
469,246,165057,2,0,L|387:226,1,75,8|0,0:0|0:0,0:0:0:0:
298,235,165363,2,0,L|281:74,1,150,2|8,0:0|0:0,0:0:0:0:
190,20,165822,6,0,P|137:71|63:75,1,150,6|2,0:0|0:0,0:0:0:0:
63,75,166281,2,0,P|88:106|105:141,1,75,8|0,0:0|0:0,0:0:0:0:
134,246,166587,2,0,P|129:284|116:321,1,75,2|2,0:0|0:0,0:0:0:0:
17,267,166893,2,0,P|21:228|34:191,1,75,8|0,0:0|0:0,0:0:0:0:
133,246,167200,5,2,0:0:0:0:
133,246,167353,1,2,0:0:0:0:
255,57,167659,1,2,0:0:0:0:
432,194,167965,1,2,0:0:0:0:
432,193,168271,6,0,P|361:215|292:189,1,150,6|2,0:0|0:0,0:0:0:0:
192,137,168730,2,0,L|210:226,1,75,8|0,0:0|0:0,0:0:0:0:
173,317,169036,2,0,P|136:326|99:321,1,75,2|2,0:0|0:0,0:0:0:0:
42,225,169342,2,0,P|78:215|115:220,1,75,8|0,0:0|0:0,0:0:0:0:
192,137,169649,6,0,B|211:42|211:42|237:96,1,150,2|8,0:0|0:0,0:0:0:0:
363,273,170261,2,0,P|399:281|435:273,1,75,2|2,0:0|0:0,0:0:0:0:
396,184,170567,2,0,P|359:175|323:183,1,75,8|0,0:0|0:0,0:0:0:0:
258,256,170873,6,0,P|182:253|103:249,2,150,2|8|2,0:0|0:0|0:0,0:0:0:0:
258,256,171638,1,2,0:0:0:0:
258,256,171791,2,0,P|248:288|242:334,1,75,8|0,0:0|0:0,0:0:0:0:
363,273,172098,6,0,P|373:241|379:195,1,75,2|0,0:0|0:0,0:0:0:0:
348,91,172404,2,0,P|316:81|270:75,1,75,8|0,0:0|0:0,0:0:0:0:
176,129,172710,2,0,P|103:142|38:107,1,150,2|8,0:0|0:0,0:0:0:0:
38,107,173322,5,6,0:0:0:0:
164,328,173628,1,8,0:0:0:0:
164,328,173934,2,0,P|173:291|176:248,1,75,2|2,0:0|0:0,0:0:0:0:
176,130,174240,2,0,P|247:149|316:124,1,150,8|4,0:0|0:0,0:0:0:0:
316,124,174853,5,8,0:0:0:0:
424,338,175159,1,2,0:0:0:0:
483,260,175312,1,2,0:0:0:0:
386,247,175465,2,0,P|348:247|305:254,1,75,8|0,0:0|0:0,0:0:0:0:
220,317,175771,6,0,P|147:333|75:315,1,150,6|8,0:0|0:0,0:0:0:0:
75,315,176230,1,0,0:0:0:0:
47,205,176383,2,0,P|84:202|120:212,1,75,2|2,0:0|0:0,0:0:0:0:
231,217,176689,2,0,P|245:143|247:68,1,150,8|4,0:0|0:0,0:0:0:0:
247,68,177302,5,8,0:0:0:0:
335,137,177455,1,0,0:0:0:0:
302,270,177608,2,0,P|235:300|168:272,1,150,2|8,0:0|0:0,0:0:0:0:
114,71,178220,6,0,P|180:40|247:68,1,150,6|8,0:0|0:0,0:0:0:0:
335,137,178679,2,0,P|371:142|407:133,1,75,0|2,0:0|0:0,0:0:0:0:
493,86,178985,1,2,0:0:0:0:
493,86,179138,2,0,P|500:122|491:169,1,75,8|0,0:0|0:0,0:0:0:0:
431,234,179445,6,0,P|416:306|455:368,2,150,2|8|2,0:0|0:0|0:0,0:0:0:0:
431,234,180210,1,2,0:0:0:0:
431,234,180363,1,8,0:0:0:0:
221,317,180669,6,0,P|147:307|79:336,2,150,6|8|2,0:0|0:0|0:0,0:0:0:0:
307,360,181434,1,2,0:0:0:0:
300,262,181587,2,0,L|313:107,1,150,8|4,0:0|0:0,0:0:0:0:
72,39,182200,5,8,0:0:0:0:
209,177,182506,1,2,0:0:0:0:
310,10,182812,1,8,0:0:0:0:
148,118,183118,6,0,P|126:187|164:249,1,150,6|8,0:0|0:0,0:0:0:0:
164,249,183577,1,0,0:0:0:0:
276,237,183730,2,0,P|291:201|293:162,2,75,2|2|8,0:0|0:0|0:0,0:0:0:0:
242,344,184189,1,0,0:0:0:0:
241,343,184342,6,0,P|311:370|384:356,2,150,2|8|2,0:0|0:0|0:0,0:0:0:0:
164,249,185108,1,2,0:0:0:0:
164,249,185261,2,0,P|140:277|125:311,1,75,8|0,0:0|0:0,0:0:0:0:
210,177,185567,6,0,P|229:105|210:34,2,150,6|8|8,0:0|0:0|0:0,0:0:0:0:
210,177,186485,1,8,0:0:0:0:
210,177,186791,5,2,0:0:0:0:
210,177,188016,6,0,P|251:193|295:191,1,89.9999972534181,4|0,0:0|0:0,0:0:0:0:
362,144,188475,1,0,0:0:0:0:
362,144,188781,2,0,P|368:118|372:96,2,44.999998626709,0|0|0,0:0|0:0|0:0,0:0:0:0:
296,192,189240,6,0,P|288:236|289:281,1,89.9999972534181,4|0,0:0|0:0,0:0:0:0:
343,342,189700,1,0,0:0:0:0:
343,342,189853,2,0,P|305:360|256:353,1,89.9999972534181
167,221,190465,6,0,P|132:249|113:289,1,89.9999972534181,4|0,0:0|0:0,0:0:0:0:
146,363,190924,2,0,P|98:368|58:348,1,89.9999972534181
37,273,191383,6,0,P|25:250|0:238,2,44.999998626709,0|0|4,0:0|0:0|0:0,0:0:0:0:
86,33,192149,2,0,P|107:97|98:164,1,134.999995880127
262,303,192914,6,0,P|243:247|246:187,1,120,4|0,0:0|0:0,0:0:0:0:
346,147,193373,2,0,P|348:87|329:30,2,120,0|0|0,0:0|0:0|0:0,0:0:0:0:
346,147,194138,5,0,0:0:0:0:
172,195,194445,1,0,0:0:0:0:
337,266,194751,1,0,0:0:0:0:
161,306,195057,1,0,0:0:0:0:
261,156,195363,6,0,L|247:281,1,120
337,266,195822,1,0,0:0:0:0:
337,266,195975,2,0,P|366:271|401:268,2,60,0|0|0,0:0|0:0|0:0,0:0:0:0:
256,65,196587,5,2,0:0:0:0:
256,65,196740,1,8,0:0:0:0:
262,156,196893,1,8,0:0:0:0:
262,156,197047,1,8,0:0:0:0:
181,115,197200,2,0,L|54:87,1,120,8|2,0:0|0:0,0:0:0:0:
51,178,197659,1,2,0:0:0:0:
21,286,197812,6,0,P|93:275|144:222,2,150,6|2|2,0:0|0:0|0:0,0:0:0:0:
21,286,198730,1,0,0:0:0:0:
181,115,199036,5,2,0:0:0:0:
255,327,199342,1,2,0:0:0:0:
436,191,199649,2,0,P|364:210|293:188,1,150,2|2,0:0|0:0,0:0:0:0:
110,49,200261,6,0,P|181:27|253:46,2,150,2|2|2,0:0|0:0|0:0,0:0:0:0:
158,265,201179,1,2,0:0:0:0:
158,265,201332,1,0,0:0:0:0:
159,264,201485,6,0,P|175:190|181:116,1,150,2|2,0:0|0:0,0:0:0:0:
388,24,202098,2,0,P|394:98|410:171,1,150,2|2,0:0|0:0,0:0:0:0:
468,268,202557,1,2,0:0:0:0:
468,268,202710,6,0,P|434:283|397:280,1,75,6|0,0:0|0:0,0:0:0:0:
297,229,203016,2,0,P|223:225|159:263,2,150,2|2|2,0:0|0:0|0:0,0:0:0:0:
297,229,203934,5,2,0:0:0:0:
179,93,204240,1,2,0:0:0:0:
179,93,204393,1,0,0:0:0:0:
179,93,204547,2,0,P|105:96|41:58,1,150,2|8,0:0|0:0,0:0:0:0:
288,79,205159,6,0,L|298:241,1,150,2|8,0:0|0:0,0:0:0:0:
391,167,205618,1,0,0:0:0:0:
391,167,205771,2,0,P|396:210|392:242,1,75,0|2,0:0|0:0,0:0:0:0:
432,346,206077,2,0,P|389:351|357:347,1,75,2|2,0:0|0:0,0:0:0:0:
264,302,206383,6,0,B|226:262|192:253|192:253|166:278|131:284,1,157.499995193482,4|8,0:0|0:0,0:0:0:0:
84,159,206996,2,0,P|104:173|129:201,1,52.4999983978272,8|0,0:0|0:0,0:0:0:0:
45,311,207302,2,0,P|41:286|43:249,1,52.4999983978272
13,124,207608,6,0,P|72:82|141:104,1,150,6|2,0:0|0:0,0:0:0:0:
141,104,208067,1,0,0:0:0:0:
208,195,208220,2,0,P|276:217|336:175,1,150,8|2,0:0|0:0,0:0:0:0:
336,175,208679,1,2,0:0:0:0:
336,175,208832,6,0,L|345:101,1,75,0|8,0:0|0:0,0:0:0:0:
441,43,209138,2,0,L|450:117,1,75,0|2,0:0|0:0,0:0:0:0:
466,229,209445,2,0,B|437:325|437:325|399:281,1,150,8|0,0:0|0:0,0:0:0:0:
237,93,210057,6,0,P|164:89|117:144,2,150,2|2|8,0:0|0:0|0:0,0:0:0:0:
210,186,210822,1,0,0:0:0:0:
210,185,210975,2,0,P|188:218|151:238,1,75,2|2,0:0|0:0,0:0:0:0:
61,217,211281,6,0,L|51:291,1,75,0|8,0:0|0:0,0:0:0:0:
134,339,211587,2,0,P|204:362|271:332,1,150,0|0,0:0|0:0,0:0:0:0:
361,159,212200,1,8,0:0:0:0:
361,159,212353,1,8,0:0:0:0:
361,159,212506,6,0,P|340:88|364:18,1,150,6|2,0:0|0:0,0:0:0:0:
364,18,212965,1,2,0:0:0:0:
260,58,213118,2,0,P|189:77|123:44,1,150,8|2,0:0|0:0,0:0:0:0:
123,44,213730,6,0,P|132:80|129:117,1,75,0|8,0:0|0:0,0:0:0:0:
24,230,214036,2,0,P|14:193|17:156,1,75,0|2,0:0|0:0,0:0:0:0:
140,226,214342,2,0,B|176:271|176:271|181:218|203:183,1,150,8|0,0:0|0:0,0:0:0:0:
257,84,214802,1,0,0:0:0:0:
256,83,214955,6,0,P|327:104|396:78,2,150,6|2|8,0:0|0:0|0:0,0:0:0:0:
42,15,215873,1,2,0:0:0:0:
42,15,216026,1,2,0:0:0:0:
42,15,216179,6,0,P|31:55|27:100,1,75,8|0,0:0|0:0,0:0:0:0:
74,190,216485,2,0,P|69:227|59:263,1,75,8|0,0:0|0:0,0:0:0:0:
144,335,216791,2,0,P|218:322|292:333,1,150,8|8,0:0|0:0,0:0:0:0:
443,127,217404,6,0,P|369:139|295:128,1,150,6|8,0:0|0:0,0:0:0:0:
227,42,217863,1,0,0:0:0:0:
227,41,218016,2,0,P|202:70|185:103,1,75,2|2,0:0|0:0,0:0:0:0:
199,230,218322,2,0,P|162:227|127:216,1,75,8|0,0:0|0:0,0:0:0:0:
30,157,218628,5,2,0:0:0:0:
30,157,218781,1,2,0:0:0:0:
30,157,218934,2,0,L|38:306,1,150,8|2,0:0|0:0,0:0:0:0:
148,327,219393,1,2,0:0:0:0:
147,326,219547,2,0,P|183:338|220:338,1,75,8|0,0:0|0:0,0:0:0:0:
317,255,219853,6,0,P|389:236|458:263,1,150,6|8,0:0|0:0,0:0:0:0:
458,263,220312,1,0,0:0:0:0:
458,263,220465,2,0,L|470:189,1,75,2|2,0:0|0:0,0:0:0:0:
394,57,220771,2,0,L|382:131,1,75,8|0,0:0|0:0,0:0:0:0:
272,101,221077,6,0,P|237:113|200:117,1,75,2|2,0:0|0:0,0:0:0:0:
71,214,221383,2,0,P|108:218|143:230,1,75,8|2,0:0|0:0,0:0:0:0:
261,279,221689,2,0,L|245:369,1,75,2|0,0:0|0:0,0:0:0:0:
276,191,221996,1,8,0:0:0:0:
275,190,222302,6,0,P|348:202|415:170,2,150,6|8|2,0:0|0:0|0:0,0:0:0:0:
199,118,223067,1,2,0:0:0:0:
199,117,223220,2,0,P|176:147|166:183,1,75,8|0,0:0|0:0,0:0:0:0:
215,301,223526,6,0,P|141:292|77:329,1,150,2|2,0:0|0:0,0:0:0:0:
77,329,223985,1,8,0:0:0:0:
77,329,224138,2,0,P|67:293|44:263,1,75,0|2,0:0|0:0,0:0:0:0:
11,147,224445,2,0,P|43:165|80:170,1,75,8|0,0:0|0:0,0:0:0:0:
199,118,224751,6,0,P|272:105|352:91,1,150,6|8,0:0|0:0,0:0:0:0:
496,278,225363,2,0,P|423:291|343:305,1,150,8|0,0:0|0:0,0:0:0:0:
258,236,225822,1,8,0:0:0:0:
258,236,225899,1,8,0:0:0:0:
258,235,225975,6,0,P|241:269|235:306,1,75,0|2,0:0|0:0,0:0:0:0:
348,305,226281,2,0,P|364:271|370:234,1,75,2|0,0:0|0:0,0:0:0:0:
348,93,226587,1,6,0:0:0:0:
256,192,226664,12,2,227812,0:0:0:0:
349,259,229496,6,0,P|280:285|212:257,1,150,6|8,0:0|0:0,0:0:0:0:
116,236,229955,2,0,P|131:202|160:179,1,75,2|2,0:0|0:0,0:0:0:0:
258,181,230261,2,0,P|278:110|252:41,1,150,8|0,0:0|0:0,0:0:0:0:
428,126,230873,5,2,0:0:0:0:
427,126,231026,2,0,P|412:159|411:197,1,75,2|2,0:0|0:0,0:0:0:0:
476,270,231332,2,0,P|444:289|407:295,1,75,8|2,0:0|0:0,0:0:0:0:
314,265,231638,2,0,P|277:270|245:290,1,75,2|8,0:0|0:0,0:0:0:0:
162,341,231945,6,0,P|91:359|30:318,1,150,6|8,0:0|0:0,0:0:0:0:
106,257,232404,2,0,L|102:181,1,75,2|2,0:0|0:0,0:0:0:0:
166,108,232710,2,0,B|203:147|233:193|233:193|246:153,1,150,8|0,0:0|0:0,0:0:0:0:
102,22,233322,5,2,0:0:0:0:
101,22,233475,2,0,P|75:48|58:81,1,75,2|0,0:0|0:0,0:0:0:0:
166,108,233781,2,0,P|238:90|310:67,2,150,6|6|6,0:0|0:0|0:0,0:0:0:0:
64,275,234700,6,0,P|59:311|63:348,2,75,6|0|2,0:0|0:0|0:0,0:0:0:0:
157,302,235159,2,0,P|230:311|290:269,1,150,8|0,0:0|0:0,0:0:0:0:
235,188,235618,1,0,0:0:0:0:
332,179,235771,5,2,0:0:0:0:
332,179,235924,2,0,L|414:171,1,75,8|0,0:0|0:0,0:0:0:0:
489,120,236230,2,0,P|497:83|495:46,1,75,2|8,0:0|0:0,0:0:0:0:
407,2,236536,2,0,P|398:38|400:75,1,75,2|8,0:0|0:0,0:0:0:0:
405,172,236842,6,0,P|424:243|396:311,1,150,2|8,0:0|0:0,0:0:0:0:
298,311,237302,2,0,P|261:305|224:311,1,75,2|0,0:0|0:0,0:0:0:0:
149,247,237608,2,0,P|81:271|15:238,1,150,8|0,0:0|0:0,0:0:0:0:
15,238,238067,1,0,0:0:0:0:
83,167,238220,6,0,L|74:84,1,75,2|2,0:0|0:0,0:0:0:0:
74,92,238679,1,12,0:0:0:0:
256,223,238985,1,6,0:0:0:0:
64,341,239291,1,6,0:0:0:0:
256,192,239368,12,0,244496,0:0:0:0:
256,192,244802,12,2,245873,0:0:0:0:
