osu file format v14

[General]
AudioFilename: audio.mp3
AudioLeadIn: 0
PreviewTime: 59497
Countdown: 0
SampleSet: Soft
StackLeniency: 0.3
Mode: 0
LetterboxInBreaks: 0
WidescreenStoryboard: 1

[Editor]
DistanceSpacing: 1.6
BeatDivisor: 4
GridSize: 32
TimelineZoom: 6.299996

[Metadata]
Title:Yume Sekai (TV Size)
TitleUnicode:ユメセカイ (TV Size)
Artist:Tomatsu Haruka
ArtistUnicode:戸松遥
Creator:AsuKow
Version:Akane-_'s Hard
Source:ソードアート・オンライン
Tags:Akane-_ Synaelle hakashii SAO Sword Art Online Aincrad ALfheim ALO ed Ending japanese female vocalist anime Pop j-pop jpop Furukawa Takahiro ふるかわ たかひろ
BeatmapID:2927957
BeatmapSetID:1421537

[Difficulty]
HPDrainRate:5
CircleSize:3.8
OverallDifficulty:6
ApproachRate:7.5
SliderMultiplier:2
SliderTickRate:1

[Events]
//Background and Video events
Video,430,"Yume Sekai.mp4"
0,0,"background.jpg",0,0
//Break Periods
//Storyboard Layer 0 (Background)
//Storyboard Layer 1 (Fail)
//Storyboard Layer 2 (Pass)
//Storyboard Layer 3 (Foreground)
//Storyboard Layer 4 (Overlay)
//Storyboard Sound Samples

[TimingPoints]
-10595,740.740740740741,4,2,69,40,1,0
330,-100,4,2,69,40,0,0
423,-100,4,2,69,40,0,0
516,-100,4,2,69,40,0,0
1256,-83.3333333333333,4,2,69,70,0,0
7182,-83.3333333333333,4,2,69,70,0,0
8293,-83.3333333333333,4,2,5,70,0,0
8849,-83.3333333333333,4,2,5,70,0,0
10145,-83.3333333333333,4,2,5,70,0,0
10516,-83.3333333333333,4,2,69,70,0,0
11256,-83.3333333333333,4,2,5,70,0,0
11627,-83.3333333333333,4,2,5,60,0,0
11997,-83.3333333333333,4,2,5,65,0,0
12367,-83.3333333333333,4,2,5,65,0,0
12738,-83.3333333333333,4,2,5,65,0,0
13108,-100,4,2,2,40,0,0
13849,-100,4,2,2,45,0,0
16627,-100,4,2,2,45,0,0
16812,-100,4,2,2,45,0,0
16997,-100,4,2,2,45,0,0
17182,-100,4,2,2,45,0,0
19034,-100,4,2,2,45,0,0
23664,-100,4,2,2,45,0,0
23849,-100,4,2,2,45,0,0
24590,-100,4,2,2,45,0,0
30886,-100,4,2,2,45,0,0
32182,-100,4,2,2,45,0,0
32367,-100,4,2,2,45,0,0
36812,-90.9090909090909,4,2,69,55,0,0
39034,-90.9090909090909,4,2,69,55,0,0
40886,-90.9090909090909,4,2,69,55,0,0
42738,-90.9090909090909,4,2,69,50,0,0
43108,-90.9090909090909,4,2,69,50,0,0
43293,-90.9090909090909,4,2,69,50,0,0
45330,-90.9090909090909,4,2,69,50,0,0
46812,-90.9090909090909,4,2,69,50,0,0
48479,-90.9090909090909,4,2,69,50,0,0
48664,-90.9090909090909,4,2,69,50,0,0
49034,-90.9090909090909,4,2,69,50,0,0
49219,-90.9090909090909,4,2,69,50,0,0
50330,-90.9090909090909,4,2,69,50,0,0
50516,-90.9090909090909,4,2,69,50,0,0
51256,-90.9090909090909,4,2,69,50,0,0
51627,-90.9090909090909,4,2,69,50,0,0
54590,-90.9090909090909,4,2,69,65,0,0
55330,-90.9090909090909,4,2,69,45,0,0
56812,-90.9090909090909,4,2,69,45,0,0
57553,-90.9090909090909,4,2,69,70,0,0
59034,-90.9090909090909,4,2,2,75,0,0
60516,-74.0740740740741,4,2,69,85,0,1
61256,-74.0740740740741,4,2,69,85,0,1
69405,-74.0740740740741,4,2,69,85,0,1
71627,-74.0740740740741,4,2,69,85,0,1
71997,-74.0740740740741,4,2,69,85,0,0
72367,-74.0740740740741,4,2,69,85,0,1
76071,-74.0740740740741,4,2,69,85,0,1
81256,-74.0740740740741,4,2,69,65,0,1
82738,-74.0740740740741,4,2,69,65,0,1
84219,-100,4,2,69,30,0,0
84960,-100,4,2,69,30,0,0
85516,-100,4,2,69,30,0,0
85763,-100,4,2,69,25,0,0
86442,-100,4,2,69,20,0,0
86997,-200,4,2,69,20,0,0
87182,-200,4,2,69,15,0,0
89405,-200,4,2,69,5,0,0

[Colours]
Combo1 : 255,128,128
Combo2 : 248,190,126
Combo3 : 131,135,150

[HitObjects]
52,26,330,5,0,0:0:0:0:
52,26,423,1,0,3:2:0:0:
52,26,516,2,0,L|56:88,1,50,0|0,1:2|3:2,0:0:0:0:
14,142,886,1,2,3:2:0:0:
28,347,1256,6,0,P|67:308|137:310,1,119.999996337891,4|2,3:1|3:2,0:0:0:0:
213,351,1812,1,0,0:0:0:0:
267,279,1997,2,0,P|259:237|255:203,1,59.9999981689454,2|0,1:2|0:0,0:0:0:0:
177,176,2368,2,0,P|185:142|189:110,1,59.9999981689454,2|0,0:0|0:0,0:0:0:0:
247,49,2738,6,0,P|307:28|371:56,1,119.999996337891,2|2,3:2|3:2,0:0:0:0:
413,116,3294,1,0,0:0:0:0:
502,104,3479,2,0,P|492:163|484:228,1,119.999996337891,2|2,1:2|0:2,0:0:0:0:
361,353,4219,2,0,P|309:319|246:316,1,119.999996337891,2|2,3:2|3:2,0:0:0:0:
172,272,4775,1,0,0:0:0:0:
201,186,4960,2,0,P|186:122|177:58,1,119.999996337891,2|2,1:2|0:2,0:0:0:0:
4,17,5701,6,0,P|-5:83|-16:141,1,119.999996337891,4|4,3:0|3:0,0:0:0:0:
45,215,6256,1,0,3:2:0:0:
45,215,6442,2,0,L|50:285,2,59.9999981689454,2|0|4,1:2|1:0|3:0,0:0:0:0:
114,157,6997,1,0,3:2:0:0:
191,202,7182,6,0,B|304:206|246:265|370:275,1,179.999994506836,4|0,3:1|3:2,0:0:0:0:
411,339,7923,1,0,1:2:0:0:
496,180,8294,2,0,P|514:118|485:58,1,119.999996337891,6|0,3:2|0:2,0:0:0:0:
419,23,8849,1,0,1:2:0:0:
329,13,9034,2,0,L|269:20,1,59.9999981689454,4|0,3:0|3:2,0:0:0:0:
226,91,9405,2,0,L|155:100,2,59.9999981689454,0|0|8,1:2|1:2|3:0,0:0:0:0:
278,164,9960,1,0,3:2:0:0:
207,219,10145,6,0,B|282:208|282:208|317:230|317:230|395:216,1,179.999994506836,4|0,3:1|3:2,0:0:0:0:
426,142,10886,1,0,1:2:0:0:
509,301,11256,2,0,P|455:335|388:315,1,119.999996337891,6|0,3:2|3:2,0:0:0:0:
329,272,11812,1,0,0:0:0:0:
248,312,11997,2,0,P|214:318|168:325,1,59.9999981689454,4|0,3:0|0:0,0:0:0:0:
107,362,12368,2,0,P|74:348|46:335,1,59.9999981689454,8|0,3:0|0:0,0:0:0:0:
51,247,12738,2,0,P|42:203|35:164,1,59.9999981689454,8|0,3:0|0:0,0:0:0:0:
70,97,13108,5,4,3:2:0:0:
221,174,13479,2,0,P|278:181|325:140,1,100,2|10,3:2|1:2,0:0:0:0:
474,108,14219,2,0,P|481:147|485:176,1,50,2|2,3:2|3:2,0:0:0:0:
484,242,14590,6,0,P|490:294|501:354,1,100,0|2,3:2|3:2,0:0:0:0:
415,350,15145,1,2,3:2:0:0:
415,350,15331,2,0,P|359:362|299:372,1,100,10|2,1:2|3:2,0:0:0:0:
152,328,16071,6,0,P|137:274|174:218,1,100,4|0,3:0|3:0,0:0:0:0:
268,109,16812,2,0,P|285:62|250:22,1,100,8|0,1:2|3:2,0:0:0:0:
177,47,17368,1,0,1:2:0:0:
177,47,17553,6,0,P|124:36|75:20,1,100,0|2,3:2|3:2,0:0:0:0:
34,94,18108,1,0,3:0:0:0:
34,94,18294,2,0,P|28:125|20:152,1,50,10|2,1:2|3:2,0:0:0:0:
33,227,18664,1,2,3:2:0:0:
148,362,19034,6,0,P|194:353|262:344,1,100,4|0,3:0|3:0,0:0:0:0:
312,290,19590,1,0,0:0:0:0:
312,290,19775,2,0,P|301:229|292:183,1,100,10|2,1:2|3:2,0:0:0:0:
196,49,20516,6,0,P|241:27|307:40,1,100,0|0,3:2|3:2,0:0:0:0:
371,68,21071,1,0,0:0:0:0:
371,68,21256,2,0,P|362:122|355:189,1,100,10|2,1:2|3:2,0:0:0:0:
455,305,21997,6,0,P|403:328|350:353,1,100,2|0,3:2|3:2,0:0:0:0:
287,308,22553,1,0,0:0:0:0:
287,308,22738,2,0,P|248:302|227:298,1,50,10|0,1:2|0:0,0:0:0:0:
176,358,23108,1,0,3:2:0:0:
26,277,23479,5,2,3:2:0:0:
26,277,23664,2,0,P|31:241|33:214,1,50,0|0,1:2|3:2,0:0:0:0:
87,163,24034,1,0,0:0:0:0:
18,112,24219,2,0,P|54:80|111:83,1,100,10|2,1:2|3:2,0:0:0:0:
342,151,24960,6,0,P|394:156|444:119,1,100,4|2,3:2|3:2,0:0:0:0:
506,286,25701,2,0,P|441:279|393:273,1,100,10|2,1:2|3:2,0:0:0:0:
354,342,26256,1,2,3:2:0:0:
354,342,26442,6,0,P|296:341|250:297,1,100,0|2,3:2|3:2,0:0:0:0:
216,252,26997,1,2,3:2:0:0:
216,252,27182,2,0,P|221:196|228:146,1,100,10|2,1:2|3:2,0:0:0:0:
147,6,27923,6,0,P|91:4|43:29,1,100,4|0,3:0|3:2,0:0:0:0:
17,188,28664,2,0,P|23:234|31:300,1,100,8|0,1:2|3:2,0:0:0:0:
103,340,29219,1,0,3:2:0:0:
103,340,29405,2,0,P|157:351|211:359,1,100,0|2,3:2|3:2,0:0:0:0:
371,361,30145,2,0,L|428:350,1,50,10|2,1:2|3:2,0:0:0:0:
482,293,30516,1,2,3:2:0:0:
426,224,30701,1,0,3:2:0:0:
426,224,30886,6,0,P|364:213|313:198,1,100,4|0,3:0|3:2,0:0:0:0:
159,177,31627,2,0,P|148:121|187:71,1,100,8|2,1:2|3:2,0:0:0:0:
196,5,32182,1,2,3:2:0:0:
278,26,32368,2,0,P|332:35|387:42,1,100,0|0,3:2|3:2,0:0:0:0:
472,181,33108,2,0,P|416:191|371:164,1,100,8|2,1:2|3:2,0:0:0:0:
278,26,33849,6,0,P|213:11|140:66,1,150,4|0,3:0|0:0,0:0:0:0:
70,92,34590,2,0,P|82:153|84:201,1,100,10|0,1:2|3:2,0:0:0:0:
146,338,35330,2,0,B|231:330|191:283|282:275,1,150,2|0,1:2|3:0,0:0:0:0:
360,314,36071,2,0,L|352:370,2,50,2|8|4,1:2|3:0|3:0,0:0:0:0:
429,264,36627,1,0,3:2:0:0:
495,197,36812,6,0,L|477:78,1,110.000003356934,4|2,3:1|3:2,0:0:0:0:
410,23,37368,1,2,3:2:0:0:
340,76,37553,2,0,L|271:65,1,55.0000016784668,4|0,3:0|0:0,0:0:0:0:
213,16,37923,1,2,3:2:0:0:
213,16,38108,1,2,3:2:0:0:
148,75,38294,6,0,P|161:144|167:198,1,110.000003356934,4|2,3:0|3:2,0:0:0:0:
258,332,39034,2,0,P|200:358|147:348,1,110.000003356934,8|2,1:3|3:2,0:0:0:0:
77,310,39590,1,0,3:2:0:0:
11,251,39775,6,0,L|20:181,1,55.0000016784668,4|0,3:0|0:0,0:0:0:0:
5,113,40145,1,2,3:2:0:0:
5,113,40331,1,2,3:2:0:0:
62,46,40516,2,0,P|125:40|176:82,1,110.000003356934,4|2,3:0|3:2,0:0:0:0:
233,224,41256,2,0,P|244:278|245:352,1,110.000003356934,4|2,3:0|3:2,0:0:0:0:
419,367,41997,1,8,1:3:0:0:
466,292,42182,1,8,1:3:0:0:
504,212,42367,2,0,L|512:150,1,55.0000016784668,4|4,3:0|3:0,0:0:0:0:
440,105,42738,6,0,P|382:99|336:136,1,110.000003356934,6|2,3:2|3:2,0:0:0:0:
295,202,43294,1,2,3:2:0:0:
245,272,43479,2,0,P|179:286|125:301,1,110.000003356934,4|2,3:0|3:2,0:0:0:0:
2,185,44219,2,0,P|11:127|3:60,1,110.000003356934,4|2,3:0|3:2,0:0:0:0:
59,5,44775,1,0,3:2:0:0:
130,56,44960,2,0,L|196:46,1,55.0000016784668,2|0,1:2|0:0,0:0:0:0:
236,119,45330,2,0,L|284:87,1,55.0000016784668,4|0,3:0|3:0,0:0:0:0:
356,41,45701,6,0,P|411:28|468:58,1,110.000003356934,6|8,3:2|3:0,0:0:0:0:
507,217,46442,2,0,L|501:288,1,55.0000016784668,4|0,3:0|0:0,0:0:0:0:
427,318,46812,2,0,L|362:312,1,55.0000016784668,8|0,1:3|0:0,0:0:0:0:
285,299,47182,2,0,L|297:371,2,55.0000016784668,2|0|4,1:2|1:2|3:0,0:0:0:0:
222,238,47738,1,0,0:0:0:0:
157,297,47923,2,0,L|147:362,2,55.0000016784668,8|8|4,1:3|1:3|3:0,0:0:0:0:
222,238,48479,1,4,3:0:0:0:
161,174,48664,6,0,P|101:184|39:197,1,110.000003356934,4|2,3:1|3:2,0:0:0:0:
7,118,49219,1,2,3:2:0:0:
56,44,49405,2,0,P|115:64|173:44,1,110.000003356934,4|2,3:0|3:2,0:0:0:0:
322,119,50145,2,0,P|313:181|308:241,1,110.000003356934,4|2,3:0|3:2,0:0:0:0:
229,266,50701,1,0,0:0:0:0:
284,334,50886,2,0,L|348:326,1,55.0000016784668,8|0,1:3|0:0,0:0:0:0:
422,367,51256,1,2,3:2:0:0:
422,367,51442,1,0,3:2:0:0:
477,298,51627,6,0,P|482:232|489:183,1,110.000003356934,4|2,3:0|3:2,0:0:0:0:
422,25,52368,2,0,P|364:21|315:66,1,110.000003356934,4|2,3:0|3:0,0:0:0:0:
271,121,52923,1,0,3:0:0:0:
212,185,53108,2,0,L|221:243,1,55.0000016784668,4|0,3:0|0:0,0:0:0:0:
299,278,53479,2,0,L|286:347,1,55.0000016784668,0|0,1:2|3:2,0:0:0:0:
206,362,53849,1,8,1:3:0:0:
120,340,54034,1,8,1:3:0:0:
34,319,54219,2,0,L|24:257,1,55.0000016784668,4|0,3:0|3:2,0:0:0:0:
8,178,54590,6,0,P|69:164|121:194,1,110.000003356934,6|0,3:2|3:2,0:0:0:0:
185,138,55145,1,0,0:0:0:0:
249,198,55331,2,0,P|260:259|266:323,1,110.000003356934,6|0,1:2|3:2,0:0:0:0:
352,298,55886,1,0,3:2:0:0:
418,355,56071,2,0,P|474:354|513:304,1,110.000003356934,6|0,1:2|3:2,0:0:0:0:
504,228,56627,1,0,0:0:0:0:
455,154,56812,2,0,B|397:140|416:121|354:107,1,110.000003356934,6|0,1:2|0:0,0:0:0:0:
202,21,57553,6,0,L|167:73,1,55.0000016784668,6|0,1:2|0:0,0:0:0:0:
84,50,57923,2,0,L|66:119,1,55.0000016784668,0|0,1:2|0:0,0:0:0:0:
7,166,58294,2,0,L|23:245,1,55.0000016784668,8|0,3:0|0:0,0:0:0:0:
8,307,58664,2,0,L|47:353,1,55.0000016784668,4|0,3:0|0:0,0:0:0:0:
113,295,59034,1,6,1:2:0:0:
178,353,59219,1,0,1:2:0:0:
242,293,59405,2,0,L|308:300,1,55.0000016784668,8|2,3:0|3:2,0:0:0:0:
381,320,59775,2,0,P|377:360|376:384,2,55.0000016784668,2|2|8,1:2|1:2|3:0,0:0:0:0:
459,279,60331,1,4,3:0:0:0:
506,181,60516,6,0,P|495:126|481:44,1,135.000000514984,4|0,3:1|3:2,0:0:0:0:
383,17,61071,1,0,0:0:0:0:
311,95,61256,2,0,P|269:86|236:78,1,67.5000002574921,10|0,1:2|0:0,0:0:0:0:
166,16,61627,2,0,P|132:27|98:34,1,67.5000002574921,2|0,3:2|1:2,0:0:0:0:
21,96,61997,1,2,3:2:0:0:
91,168,62182,1,0,1:2:0:0:
15,236,62368,2,0,P|20:273|24:324,1,67.5000002574921,2|0,3:2|0:0,0:0:0:0:
111,350,62738,6,0,P|181:363|237:327,1,135.000000514984,10|2,1:2|3:2,0:0:0:0:
297,253,63294,1,0,3:2:0:0:
226,182,63479,2,0,P|220:138|215:111,1,67.5000002574921,4|0,3:0|0:0,0:0:0:0:
282,39,63849,2,0,B|343:46|343:46|362:67|362:67|423:73,1,135.000000514984,0|10,3:2|1:2,0:0:0:0:
501,250,64590,2,0,P|495:287|492:329,1,67.5000002574921,2|0,3:2|1:2,0:0:0:0:
409,374,64960,6,0,P|333:356|307:300,1,135.000000514984,2|0,3:2|3:2,0:0:0:0:
342,213,65516,1,0,0:0:0:0:
243,234,65701,2,0,P|175:222|104:206,1,135.000000514984,10|4,1:2|3:0,0:0:0:0:
31,270,66256,1,4,3:0:0:0:
4,171,66442,6,0,P|15:105|22:31,1,135.000000514984,6|2,3:2|3:2,0:0:0:0:
111,6,66997,1,0,0:0:0:0:
188,70,67182,2,0,L|271:56,1,67.5000002574921,10|0,1:2|0:0,0:0:0:0:
344,106,67553,1,2,3:2:0:0:
421,41,67738,1,0,1:2:0:0:
493,111,67923,6,0,P|481:189|475:257,1,135.000000514984,2|2,3:2|3:2,0:0:0:0:
461,345,68479,1,0,0:0:0:0:
362,368,68664,2,0,P|337:304|368:245,1,135.000000514984,10|2,1:2|3:2,0:0:0:0:
162,235,69405,6,0,P|90:239|44:181,1,135.000000514984,4|0,3:1|3:2,0:0:0:0:
29,97,69960,1,0,0:0:0:0:
105,31,70145,2,0,L|176:44,1,67.5000002574921,10|0,1:2|0:0,0:0:0:0:
249,107,70516,1,0,3:2:0:0:
162,159,70701,5,0,3:2:0:0:
235,228,70886,1,6,1:2:0:0:
196,321,71071,2,0,P|230:331|266:322,1,67.5000002574921,0|0,1:2|3:2,0:0:0:0:
356,359,71442,2,0,P|350:315|350:276,1,67.5000002574921,4|10,3:0|1:2,0:0:0:0:
404,207,71812,1,0,1:2:0:0:
460,126,71997,2,0,P|499:119|538:109,1,67.5000002574921,8|4,3:0|3:0,0:0:0:0:
390,200,72367,6,0,B|316:184|345:158|267:132,1,135.000000514984,4|2,3:1|3:2,0:0:0:0:
71,136,73108,2,0,P|81:178|84:214,1,67.5000002574921,10|0,1:2|0:0,0:0:0:0:
176,244,73479,1,2,3:2:0:0:
105,316,73664,1,0,1:2:0:0:
190,370,73849,6,0,P|263:357|335:350,1,135.000000514984,2|2,3:2|3:2,0:0:0:0:
414,305,74405,1,0,0:0:0:0:
352,224,74590,2,0,P|361:183|367:152,1,67.5000002574921,10|0,1:2|0:0,0:0:0:0:
458,118,74960,2,0,P|445:74|441:44,1,67.5000002574921,2|0,3:2|0:0,0:0:0:0:
348,12,75331,6,0,P|276:6|227:59,1,135.000000514984,6|0,3:2|3:2,0:0:0:0:
161,117,75886,1,0,0:0:0:0:
239,180,76071,2,0,P|231:217|227:270,1,67.5000002574921,10|0,1:2|0:0,0:0:0:0:
156,318,76442,1,0,3:2:0:0:
156,318,76627,1,0,3:2:0:0:
68,267,76812,6,0,P|62:224|78:192,1,67.5000002574921,0|0,1:2|1:2,0:0:0:0:
15,126,77182,2,0,P|8:89|0:52,1,67.5000002574921,0|0,3:2|0:0,0:0:0:0:
90,10,77553,1,10,1:2:0:0:
161,76,77738,1,8,3:0:0:0:
231,148,77923,2,0,P|272:138|304:126,1,67.5000002574921,4|0,3:0|3:2,0:0:0:0:
372,196,78294,6,0,P|437:175|493:222,1,135.000000514984,6|2,3:2|3:2,0:0:0:0:
360,367,79034,2,0,P|318:360|278:355,1,67.5000002574921,10|0,1:2|0:0,0:0:0:0:
264,259,79405,2,0,P|218:269|184:273,1,67.5000002574921,2|0,3:2|1:2,0:0:0:0:
132,349,79775,6,0,P|59:344|21:280,1,135.000000514984,2|0,3:2|3:2,0:0:0:0:
76,103,80516,2,0,B|164:109|121:145|209:158,1,135.000000514984,6|0,1:2|1:2,0:0:0:0:
269,225,81071,1,0,3:2:0:0:
332,304,81257,6,0,P|400:320|467:278,1,135.000000514984,4|8,3:1|3:0,0:0:0:0:
506,204,81812,1,0,3:0:0:0:
428,138,81997,2,0,P|431:94|437:56,1,67.5000002574921,4|0,3:0|3:0,0:0:0:0:
351,11,82368,1,4,3:0:0:0:
271,73,82553,1,0,3:2:0:0:
184,20,82738,6,0,P|107:16|42:111,1,202.500000772476,4|0,3:2|0:0,0:0:0:0:
13,210,83479,2,0,P|27:278|35:358,1,135.000000514984,2|0,0:2|0:2,0:0:0:0:
164,269,84219,1,6,3:2:0:0:
449,362,84960,6,0,P|463:310|439:256,1,100,2|0,0:2|0:2,0:0:0:0:
357,235,85516,2,0,L|323:247,2,33.3333333333333,0|0|0,3:2|3:2|3:2,0:0:0:0:
470,23,86256,5,0,0:2:0:0:
386,8,86442,2,0,P|311:22|261:26,1,100,2|0,0:2|0:2,0:0:0:0:
194,18,86997,2,0,B|140:197|260:136|212:354,1,325,0|0,0:2|0:0,0:0:0:0:
