osu file format v14

[General]
AudioFilename: audio.mp3
AudioLeadIn: 0
PreviewTime: 1136
Countdown: 0
SampleSet: Soft
StackLeniency: 0.4
Mode: 0
LetterboxInBreaks: 0
EpilepsyWarning: 1
WidescreenStoryboard: 1

[Editor]
Bookmarks: 2155,25858,37710,49562,61414,73266,85117,96969,105858,117710,129562,141414,153266,165117,176969,188821,200673,215488,227340,240673,252524,264376,273358,278543
DistanceSpacing: 1.2
BeatDivisor: 8
GridSize: 32
TimelineZoom: 1.6

[Metadata]
Title:Yume Sekai
TitleUnicode:ユメセカイ
Artist:Tomatsu Haruka
ArtistUnicode:戸松遥
Creator:Left
Version:lit120's Hard
Source:ソードアート・オンライン
Tags:Sword Art Online SAO ED ending full version ver 結城 明日奈 Yuuki Asuna Anime japanese pop Byakugan249 YTYuyu lit120 -Hakurei-
BeatmapID:3431238
BeatmapSetID:1677784

[Difficulty]
HPDrainRate:5
CircleSize:4
OverallDifficulty:6
ApproachRate:7
SliderMultiplier:2.8
SliderTickRate:1

[Events]
//Background and Video events
0,0,"bggg.jpg",0,0
//Break Periods
2,215688,226440
//Storyboard Layer 0 (Background)
//Storyboard Layer 1 (Fail)
//Storyboard Layer 2 (Pass)
//Storyboard Layer 3 (Foreground)
//Storyboard Layer 4 (Overlay)
//Storyboard Sound Samples

[TimingPoints]
2155,740.740740740741,4,2,7,55,1,0
2155,-200,4,2,7,55,0,0
25117,-200,4,2,7,70,0,0
25858,-100,4,2,7,75,0,0
38080,-100,4,2,7,65,0,0
61414,-100,4,2,7,70,0,0
79192,-100,4,2,7,75,0,0
83266,-100,4,2,7,80,0,0
84006,-100,4,2,7,85,0,0
85117,-100,4,2,7,85,0,1
105858,-100,4,2,7,85,0,0
117710,-100,4,2,7,65,0,0
141414,-100,4,2,7,70,0,0
159192,-100,4,2,7,75,0,0
162155,-100,4,2,7,80,0,0
163636,-100,4,2,7,85,0,0
165117,-100,4,2,7,85,0,1
185858,-100,4,2,7,85,0,0
226969,-100,4,2,7,65,0,0
233266,-100,4,2,7,75,0,0
234747,-100,4,2,7,80,0,0
236229,-100,4,2,7,85,0,0
240673,740.740740740741,4,2,7,95,1,1
270302,-100,4,2,7,45,0,0

[Colours]
Combo1 : 116,116,116
Combo2 : 255,117,117
Combo3 : 255,192,115
Combo4 : 221,221,221
Combo5 : 174,159,255
Combo6 : 166,190,255
Combo7 : 255,77,77
Combo8 : 255,165,55

[HitObjects]
22,187,2155,38,0,P|85:170|103:166,1,70,2|0,0:0|0:0,0:0:0:0:
151,112,2895,2,0,P|197:158|209:171,1,70,2|0,0:0|0:0,0:0:0:0:
280,186,3636,2,0,P|263:249|257:266,2,70,2|0|2,0:0|0:0|0:0,0:0:0:0:
341,129,4747,1,0,0:0:0:0:
402,72,5117,22,0,P|410:37|420:4,2,70,2|0|2,0:0|0:0|0:0,0:0:0:0:
341,129,6229,1,2,0:0:0:0:
398,190,6599,2,0,P|461:207|478:213,1,70,2|0,0:0|0:0,0:0:0:0:
511,278,7340,2,0,P|494:341|488:358,1,70,2|0,0:0|0:0,0:0:0:0:
410,365,8080,86,0,P|359:340|339:335,1,70,2|0,0:0|0:0,0:0:0:0:
309,260,8821,2,0,P|269:300|258:318,1,70,2|0,0:0|0:0,0:0:0:0:
178,323,9562,2,0,P|204:373|217:389,2,70,2|0|2,0:0|0:0|0:0,0:0:0:0:
141,246,10673,1,2,0:0:0:0:
202,187,11043,22,0,P|205:140|207:93,2,70,2|0|2,0:0|0:0|0:0,0:0:0:0:
141,246,12155,1,0,0:0:0:0:
120,164,12525,2,0,P|121:129|124:94,1,70,2|0,0:0|0:0,0:0:0:0:
184,35,13266,2,0,P|248:47|280:49,1,70,2|2,0:0|0:0,0:0:0:0:
317,100,14006,86,0,P|381:88|413:86,2,70,2|0|2,0:0|0:0|0:0,0:0:0:0:
284,177,15117,1,0,0:0:0:0:
349,230,15488,2,0,P|344:279|340:327,1,70,2|0,0:0|0:0,0:0:0:0:
400,359,16229,2,0,P|434:355|469:352,1,70,2|0,0:0|0:0,0:0:0:0:
506,276,16969,22,0,P|480:194|510:136,1,140,2|2,0:0|0:0,0:0:0:0:
444,84,18080,1,0,0:0:0:0:
371,126,18451,2,0,P|330:117|288:110,1,70,2|0,0:0|0:0,0:0:0:0:
255,42,19192,2,0,P|214:51|172:58,1,70,2|0,0:0|0:0,0:0:0:0:
112,15,19932,85,2,0:0:0:0:
71,89,20303,1,0,0:0:0:0:
145,129,20673,2,0,P|146:192|139:227,1,70,2|0,0:0|0:0,0:0:0:0:
120,280,21414,2,0,P|177:225|123:296,1,280,2|2,0:0|0:0,0:0:0:0:
256,192,22988,12,4,25303,0:3:0:0:
475,242,25858,6,0,P|447:162|493:99,1,140,4|0,3:1|3:0,0:0:0:0:
410,57,26414,1,0,0:0:0:0:
335,95,26599,2,0,P|261:88|179:82,1,140,8|0,0:0|3:0,0:0:0:0:
38,22,27340,6,0,P|51:77|57:128,1,70,4|0,3:2|0:0,0:0:0:0:
118,143,27710,2,0,P|105:198|99:249,1,70,0|0,3:0|0:0,0:0:0:0:
47,274,28080,2,0,P|120:254|148:351,1,140,8|0,0:0|3:0,0:0:0:0:
221,352,28636,1,2,0:0:0:0:
221,352,28729,1,2,0:0:0:0:
221,352,28821,102,0,P|281:343|376:340,1,140,4|0,3:1|3:0,0:0:0:0:
458,202,29562,2,0,P|398:211|303:214,1,140,8|0,0:0|3:0,0:0:0:0:
220,77,30303,6,0,P|206:144|134:180,1,140,4|0,3:1|3:0,0:0:0:0:
79,129,30858,1,10,0:0:0:0:
79,129,30951,1,10,0:0:0:0:
79,129,31043,2,0,P|105:106|138:94,2,70,8|8|4,0:0|0:3|0:3,0:0:0:0:
70,214,31599,1,8,0:0:0:0:
70,214,31692,1,8,0:0:0:0:
70,214,31784,102,0,B|85:356|85:356|101:323|134:301,1,210,4|0,3:1|3:0,0:0:0:0:
201,262,32525,2,0,P|251:283|287:293,1,70,8|0,0:0|0:0,0:0:0:0:
332,338,32895,6,0,P|370:275|503:298,1,210,4|8,3:1|0:0,0:0:0:0:
511,203,33636,2,0,P|498:148|488:108,1,70,0|0,3:0|3:0,0:0:0:0:
457,59,34006,2,8,P|404:84|378:93,1,70
362,167,34377,1,4,0:3:0:0:
281,188,34562,1,2,0:0:0:0:
281,188,34655,1,2,0:0:0:0:
281,188,34747,102,0,P|226:180|135:173,1,140,4|0,3:1|0:0,0:0:0:0:
71,219,35303,1,0,3:0:0:0:
25,148,35488,2,0,P|32:101|38:39,1,70,8|0,0:0|0:0,0:0:0:0:
97,23,35858,6,0,B|212:-3|163:111|279:84,1,210.000008010865,4|0,3:1|0:0,0:0:0:0:
351,38,36599,2,0,P|399:50|431:78,1,70,8|0,0:0|0:0,0:0:0:0:
470,125,36969,2,0,P|457:184|453:229,1,70,8|0,0:0|0:0,0:0:0:0:
386,242,37340,2,0,P|399:301|403:346,1,70,8|0,0:0|0:0,0:0:0:0:
337,366,37710,102,0,P|261:356|184:347,1,140,4|0,3:1|0:0,0:0:0:0:
82,226,38451,2,0,P|151:217|220:208,1,140,8|0,0:0|0:0,0:0:0:0:
285,154,39006,1,0,0:0:0:0:
285,154,39192,6,0,P|271:100|266:68,1,70,0|0,3:0|0:0,0:0:0:0:
202,34,39562,2,0,P|168:43|134:50,1,70,0|0,3:0|0:0,0:0:0:0:
60,91,39932,2,0,P|85:156|82:225,1,140,8|0,0:0|0:0,0:0:0:0:
21,284,40488,1,8,0:0:0:0:
21,284,40580,1,8,0:0:0:0:
21,284,40673,102,0,P|75:260|118:338,1,140,4|0,3:2|0:0,0:0:0:0:
280,371,41414,2,0,P|336:359|436:344,1,140,8|0,0:0|0:0,0:0:0:0:
464,184,42155,6,0,P|411:208|369:215,1,70,0|0,3:0|0:0,0:0:0:0:
345,274,42525,2,0,P|297:240|270:207,1,70,0|0,3:0|0:0,0:0:0:0:
207,215,42895,2,0,P|212:157|227:117,2,70,8|0|0,0:0|0:0|0:0,0:0:0:0:
140,60,43636,102,0,B|246:42|246:42|289:88|289:88|396:71,1,280,4|8,3:2|0:0,0:0:0:0:
503,202,44747,2,0,P|496:255|494:305,1,70
440,335,45117,2,0,P|384:323|284:308,2,140,0|0|8,3:0|3:0|0:0,0:0:0:0:
411,168,46229,1,0,0:0:0:0:
335,205,46414,1,2,0:0:0:0:
335,205,46506,1,2,0:0:0:0:
335,205,46599,6,0,P|280:199|243:205,1,70,0|0,3:2|0:0,0:0:0:0:
221,128,46969,2,0,P|188:172|175:207,1,70,2|0,0:0|0:0,0:0:0:0:
97,188,47340,2,0,P|104:271|109:357,1,140,12|0,0:0|0:0,0:0:0:0:
1,197,48080,102,0,P|5:127|11:57,1,140,4|2,3:2|3:2,0:0:0:0:
173,11,48821,1,14,0:0:0:0:
300,121,49192,1,0,0:0:0:0:
369,74,49377,1,2,0:0:0:0:
369,74,49469,1,2,0:0:0:0:
369,74,49562,6,0,P|432:91|512:108,1,140,4|0,3:1|0:0,0:0:0:0:
412,247,50303,2,0,P|343:261|275:279,1,140,8|0,0:0|0:0,0:0:0:0:
212,334,50858,1,0,0:0:0:0:
212,334,51043,102,0,L|127:327,1,70,0|0,3:0|0:0,0:0:0:0:
127,245,51414,2,0,L|197:251,1,70,0|0,3:0|0:0,0:0:0:0:
260,196,51784,2,0,P|256:146|250:44,1,140,8|0,0:0|0:0,0:0:0:0:
175,18,52340,1,8,0:0:0:0:
175,18,52432,1,8,0:0:0:0:
175,18,52525,6,0,P|132:74|53:45,1,140,0|0,3:2|0:0,0:0:0:0:
1,218,53266,2,0,P|3:283|2:374,1,140,8|0,0:0|0:0,0:0:0:0:
127,245,54006,102,0,P|176:271|203:277,1,70,4|0,3:2|0:0,0:0:0:0:
233,346,54377,2,0,P|280:316|298:296,1,70,0|0,3:0|0:0,0:0:0:0:
373,304,54747,2,0,P|371:248|362:222,2,70,8|0|0,0:0|0:0|0:0,0:0:0:0:
487,180,55488,6,0,B|440:109|471:14|471:14|446:66|386:77,1,280,4|8,3:2|0:0,0:0:0:0:
224,111,56599,2,0,P|171:99|130:92,1,70
92,40,56969,2,0,P|113:144|119:219,2,140,0|0|8,3:2|3:2|0:0,0:0:0:0:
4,183,58080,1,2,0:0:0:0:
63,242,58266,1,8,0:0:0:0:
63,242,58358,1,8,0:0:0:0:
63,242,58451,102,0,P|59:295|57:323,1,70,4|0,3:2|0:0,0:0:0:0:
127,358,58821,2,0,P|161:355|196:352,1,70
255,292,59192,2,0,P|294:343|374:341,1,140,8|0,0:0|0:0,0:0:0:0:
454,203,59932,6,0,P|446:138|435:41,1,140,4|0,3:1|3:0,0:0:0:0:
369,13,60488,1,8,0:0:0:0:
369,13,60580,1,8,0:0:0:0:
369,13,60673,1,12,0:2:0:0:
299,62,60858,1,8,0:3:0:0:
304,146,61043,2,0,P|282:173|252:192,1,70,4|0,0:3|3:2,0:0:0:0:
184,140,61414,102,0,P|170:214|221:274,1,140,4|2,3:1|0:0,0:0:0:0:
333,371,62155,2,0,P|233:362|181:357,1,140,0|2,3:2|0:0,0:0:0:0:
111,376,62710,1,2,0:0:0:0:
50,317,62895,6,0,P|59:234|67:117,1,140,0|0,3:2|0:0,0:0:0:0:
22,104,63451,1,10,0:0:0:0:
22,104,63543,1,8,0:0:0:0:
22,104,63636,2,0,P|15:61|13:27,1,70,4|8,3:2|0:3,0:0:0:0:
98,37,64006,2,0,P|104:71|106:106,1,70,4|0,0:3|0:0,0:0:0:0:
184,140,64377,102,0,P|246:127|351:116,1,140,4|2,3:1|0:0,0:0:0:0:
481,64,65117,2,0,P|439:120|470:215,1,140,0|2,3:0|0:0,0:0:0:0:
497,253,65673,1,2,0:0:0:0:
431,305,65858,6,0,P|347:295|282:289,1,140,8|2,3:0|0:0,0:0:0:0:
218,330,66414,2,0,P|253:261|233:187,1,140,8|8,0:3|0:3,0:0:0:0:
184,140,66969,2,0,P|192:97|210:68,1,70,2|0,3:2|0:0,0:0:0:0:
255,6,67340,102,0,P|155:41|82:42,1,140,4|2,3:1|0:0,0:0:0:0:
7,166,68080,2,0,P|61:222|36:298,1,140,0|2,3:1|0:0,0:0:0:0:
5,348,68636,1,2,0:0:0:0:
88,354,68821,6,0,P|161:340|248:335,1,140,0|2,3:1|0:0,0:0:0:0:
383,272,69562,2,0,P|375:326|373:352,2,70,8|8|4,3:0|0:3|0:3,0:0:0:0:
325,211,70117,1,8,0:0:0:0:
325,211,70210,1,8,0:0:0:0:
325,211,70303,102,0,P|377:229|415:158,1,140,4|0,3:1|0:0,0:0:0:0:
491,16,71043,2,0,P|407:57|344:46,1,140,0|2,3:0|0:0,0:0:0:0:
290,10,71599,1,0,0:0:0:0:
232,70,71784,6,0,P|237:120|239:166,1,70,0|0,3:0|0:0,0:0:0:0:
181,201,72155,2,0,P|176:251|174:297,1,70,10|8,0:0|0:0,0:0:0:0:
233,330,72525,2,0,P|283:325|329:323,2,70,8|8|4,3:3|0:3|0:3,0:0:0:0:
153,351,73080,1,0,3:0:0:0:
153,351,73173,1,0,3:0:0:0:
153,351,73266,102,0,P|80:338|-3:330,1,140,4|2,3:1|0:0,0:0:0:0:
87,179,74006,2,0,P|80:139|56:29,1,140,0|2,3:1|0:0,0:0:0:0:
134,4,74562,1,2,0:0:0:0:
198,57,74747,6,0,P|257:39|341:37,1,140,0|2,3:1|0:0,0:0:0:0:
463,145,75488,2,0,P|461:199|460:235,1,70,8|8,3:3|0:3,0:0:0:0:
380,239,75858,2,0,P|382:185|383:149,1,70,4|0,0:3|0:0,0:0:0:0:
308,129,76229,102,0,P|254:167|165:159,1,140,4|2,3:2|0:0,0:0:0:0:
95,310,76969,2,0,P|149:272|238:280,1,140,0|2,3:2|0:0,0:0:0:0:
289,321,77525,1,2,0:0:0:0:
358,370,77710,6,0,P|426:371|483:332,1,140,4|8,3:2|0:3,0:0:0:0:
508,251,78266,1,8,0:0:0:0:
508,251,78358,1,8,0:0:0:0:
508,251,78451,2,0,P|501:204|496:168,1,70,8|8,0:0|0:0,0:0:0:0:
420,149,78821,2,0,P|427:102|432:66,1,70,8|0,0:3|3:0,0:0:0:0:
371,18,79192,102,0,P|321:52|231:48,1,140,4|0,3:1|3:0,0:0:0:0:
108,152,79932,2,0,P|176:150|235:186,1,140,8|0,0:0|0:0,0:0:0:0:
284,255,80488,1,2,0:0:0:0:
284,255,80580,1,2,0:0:0:0:
284,255,80673,6,0,P|276:309|273:334,1,70,4|0,3:1|0:0,0:0:0:0:
198,360,81043,2,0,P|193:325|188:290,1,70,0|0,3:0|0:0,0:0:0:0:
120,239,81414,2,0,P|68:283|0:277,1,140,12|0,0:0|0:0,0:0:0:0:
44,115,82155,54,0,P|39:75|31:29,1,70,4|0,3:1|0:0,0:0:0:0:
114,20,82525,2,0,P|119:60|127:106,1,70,0|0,3:0|0:0,0:0:0:0:
201,120,82895,2,0,P|235:114|270:110,1,70,12|0,0:0|0:0,0:0:0:0:
319,41,83266,2,0,P|353:46|388:50,1,70,8|0,0:0|0:0,0:0:0:0:
469,31,83636,6,0,P|423:101|452:174,1,140,12|8,0:1|0:3,0:0:0:0:
496,208,84192,1,0,0:0:0:0:
462,284,84377,1,8,0:0:0:0:
378,276,84562,1,8,0:0:0:0:
359,194,84747,2,0,P|320:203|269:217,1,70,4|0,0:3|0:0,0:0:0:0:
225,262,85117,102,0,P|231:324|232:367,1,70,4|0,3:1|0:0,0:0:0:0:
154,367,85488,2,0,P|148:305|147:262,1,70,0|0,3:0|0:0,0:0:0:0:
94,232,85858,2,0,P|118:166|96:73,1,140,12|0,0:0|3:0,0:0:0:0:
248,3,86599,6,0,P|242:67|242:90,1,70,0|0,3:2|0:0,0:0:0:0:
313,116,86969,2,0,P|377:110|400:110,1,70,0|0,3:0|3:0,0:0:0:0:
450,60,87340,2,0,P|417:148|441:205,1,140,12|0,0:0|3:0,0:0:0:0:
485,250,87895,1,8,0:0:0:0:
429,312,88080,102,0,P|341:291|241:284,2,140,4|0|12,3:1|3:1|0:0,0:0:0:0:
308,193,89192,1,0,3:0:0:0:
308,193,89377,6,0,P|251:218|218:223,1,70,10|0,0:0|3:0,0:0:0:0:
177,270,89747,1,8,0:0:0:0:
177,270,89932,2,0,P|135:223|120:193,1,70,0|0,3:0|0:0,0:0:0:0:
63,169,90303,2,0,P|74:92|82:5,1,140,8|0,0:0|3:0,0:0:0:0:
245,1,91043,102,0,P|233:49|233:87,1,70,4|0,3:1|0:0,0:0:0:0:
294,124,91414,2,0,P|304:158|308:193,1,70,0|0,3:1|0:0,0:0:0:0:
362,257,91784,2,0,P|286:248|285:349,1,140,12|0,0:0|3:0,0:0:0:0:
403,381,92525,6,0,P|464:372|494:369,1,70,0|0,3:0|0:0,0:0:0:0:
510,296,92895,2,0,P|501:235|498:205,1,70,0|0,3:0|3:0,0:0:0:0:
446,161,93266,2,0,P|477:93|445:35,1,140,12|0,0:0|3:0,0:0:0:0:
370,11,93821,1,8,0:0:0:0:
295,49,94006,102,0,P|208:42|140:37,2,140,4|0|12,3:2|3:0|0:1,0:0:0:0:
202,189,95117,1,0,3:0:0:0:
202,189,95303,2,0,P|167:177|112:173,1,70,8|0,0:0|3:0,0:0:0:0:
60,212,95673,2,0,P|48:247|44:302,1,70,12|0,0:1|0:0,0:0:0:0:
83,354,96043,1,0,3:0:0:0:
83,354,96136,1,0,3:0:0:0:
83,354,96229,2,0,P|118:366|173:370,1,70,12|8,0:2|0:3,0:0:0:0:
225,331,96599,2,0,P|260:319|315:315,1,70,4|0,0:3|3:0,0:0:0:0:
364,357,96969,6,0,P|334:283|355:229,2,140,4|0|12,3:1|3:0|0:0,0:0:0:0:
466,223,98080,2,0,P|459:168|456:121,1,70,0|0,0:0|3:0,0:0:0:0:
380,120,98451,102,0,P|387:65|390:18,1,70,4|0,3:2|0:0,0:0:0:0:
317,5,98821,2,0,P|282:8|247:13,1,70,0|0,3:0|0:0,0:0:0:0:
176,58,99192,2,0,P|116:15|36:36,1,140,8|0,0:0|0:0,0:0:0:0:
3,183,99932,6,0,B|20:261|20:261|64:278|64:278|82:357,1,210,4|0,3:1|3:0,0:0:0:0:
155,316,100673,2,0,P|207:333|255:339,1,70,12|0,0:0|0:0,0:0:0:0:
283,278,101043,1,0,3:0:0:0:
231,211,101229,1,10,0:0:0:0:
231,211,101321,1,2,0:0:0:0:
231,211,101414,102,0,P|236:164|245:131,1,70,0|8,3:0|0:0,0:0:0:0:
316,104,101784,2,0,P|311:57|302:24,1,70,0|0,3:0|0:0,0:0:0:0:
384,5,102155,1,12,0:0:0:0:
492,132,102525,1,0,3:0:0:0:
440,198,102710,1,8,0:0:0:0:
440,198,102803,1,8,0:0:0:0:
440,198,102895,6,0,P|449:268|454:347,1,140,4|0,3:1|3:0,0:0:0:0:
291,382,103636,2,0,B|238:370|238:370|227:341|227:341|174:329,1,140,12|0,0:2|3:0,0:0:0:0:
101,371,104192,1,10,0:0:0:0:
59,297,104377,102,0,P|33:320|17:359,2,70,0|12|0,3:0|0:0|3:0,0:0:0:0:
133,256,104932,1,8,0:0:0:0:
133,256,105025,1,8,0:0:0:0:
133,256,105117,1,12,0:0:0:0:
116,172,105303,1,8,0:0:0:0:
30,162,105488,1,8,0:0:0:0:
13,78,105673,1,8,0:0:0:0:
87,37,105858,38,0,P|154:52|235:61,1,140,4|0,3:1|0:0,0:0:0:0:
292,9,106414,1,0,0:0:0:0:
336,80,106599,2,0,P|326:149|321:235,1,140,8|0,0:0|0:0,0:0:0:0:
419,355,107340,6,0,P|409:314|396:274,1,70,0|0,3:0|0:0,0:0:0:0:
466,234,107710,2,0,P|476:193|489:153,1,70,0|0,3:0|0:0,0:0:0:0:
460,86,108080,2,0,P|397:110|336:80,1,140,8|0,0:0|0:0,0:0:0:0:
292,9,108636,1,2,0:0:0:0:
292,9,108729,1,2,0:0:0:0:
292,9,108821,102,0,P|295:77|247:125,1,140,4|0,3:2|0:0,0:0:0:0:
282,290,109562,2,0,P|221:258|202:193,1,140,8|0,0:0|0:0,0:0:0:0:
43,140,110303,5,0,3:0:0:0:
113,83,110488,1,8,0:0:0:0:
122,166,110673,2,0,P|113:229|111:256,1,70,0|0,3:0|0:0,0:0:0:0:
67,306,111043,2,0,P|34:320|2:332,2,70,8|0|0,0:0|0:0|0:0,0:0:0:0:
150,310,111599,1,2,0:0:0:0:
151,309,111692,1,2,0:0:0:0:
151,309,111784,102,0,B|266:283|217:397|333:370,1,210.000008010865,4|0,3:1|3:0,0:0:0:0:
378,297,112525,2,0,P|370:247|366:214,1,70,8|0,0:0|0:0,0:0:0:0:
311,165,112895,6,0,P|398:186|404:59,1,210,4|8,3:2|0:0,0:0:0:0:
366,37,113636,2,0,P|306:57|275:62,1,70,0|0,3:0|0:0,0:0:0:0:
227,101,114006,2,0,P|166:84|134:80,1,70,8|8,0:0|0:0,0:0:0:0:
91,133,114377,1,4,0:3:0:0:
105,216,114562,1,2,0:0:0:0:
105,216,114655,1,2,0:0:0:0:
105,216,114747,102,0,P|110:294|112:368,1,140,4|0,3:1|0:0,0:0:0:0:
31,382,115303,1,0,3:0:0:0:
14,299,115488,2,0,P|19:264|22:229,1,70,8|0,0:0|0:0,0:0:0:0:
8,147,115858,6,0,P|10:112|15:77,1,70,4|0,3:2|0:0,0:0:0:0:
90,37,116229,1,8,0:0:0:0:
256,58,116599,1,8,0:3:0:0:
422,37,116969,1,0,3:0:0:0:
342,8,117155,1,4,0:3:0:0:
357,90,117340,2,0,P|355:147|351:175,1,70,4|0,0:3|0:0,0:0:0:0:
293,219,117710,102,0,P|362:184|446:254,1,140,4|0,3:2|0:2,0:0:0:0:
509,344,118451,2,0,P|440:379|356:309,1,140,8|0,0:0|0:0,0:0:0:0:
314,312,119006,1,2,0:0:0:0:
314,312,119192,6,0,P|253:337|222:343,1,70,0|0,3:2|0:0,0:0:0:0:
178,382,119562,2,0,P|125:341|105:317,1,70,0|0,3:0|0:0,0:0:0:0:
49,299,119932,2,0,P|58:229|83:164,1,140,8|0,0:0|0:0,0:0:0:0:
158,124,120488,1,10,0:0:0:0:
158,124,120580,1,8,0:0:0:0:
158,124,120673,102,0,P|225:158|302:173,1,140,0|0,3:2|0:0,0:0:0:0:
423,271,121414,2,0,P|418:195|393:121,1,140,8|0,0:0|0:0,0:0:0:0:
277,18,122155,6,0,P|219:31|188:36,1,70,4|0,3:2|0:0,0:0:0:0:
153,95,122525,2,0,P|95:82|64:77,1,70,0|0,3:0|0:0,0:0:0:0:
23,138,122895,2,0,P|31:201|33:229,2,70,8|2|0,0:0|0:0|0:0,0:0:0:0:
166,226,123636,102,0,B|210:310|148:381|148:381|192:338|254:347,1,280,4|8,3:2|0:0,0:0:0:0:
415,381,124747,2,0,P|454:371|486:364,1,70,0|2,0:0|0:0,0:0:0:0:
509,284,125117,2,0,P|491:210|477:144,2,140,0|0|8,3:2|3:0|0:0,0:0:0:0:
354,216,126229,1,2,0:0:0:0:
393,141,126414,1,8,0:0:0:0:
393,141,126506,1,8,0:0:0:0:
393,141,126599,6,0,P|384:97|370:44,1,70,4|0,3:2|0:0,0:0:0:0:
308,24,126969,2,0,P|264:33|211:47,1,70
200,113,127340,2,0,P|208:193|213:274,1,140,8|0,0:0|0:0,0:0:0:0:
79,355,128080,102,0,P|83:285|90:215,1,140,0|0,3:0|3:0,0:0:0:0:
71,48,128821,1,8,0:0:0:0:
239,38,129192,1,0,0:0:0:0:
284,110,129377,1,2,0:0:0:0:
284,110,129469,1,2,0:0:0:0:
284,110,129562,6,0,P|288:179|295:249,1,140,4|0,3:1|0:0,0:0:0:0:
189,380,130303,2,0,P|254:331|319:361,1,140,8|2,0:0|0:0,0:0:0:0:
382,377,130858,1,0,0:0:0:0:
382,377,131043,102,0,L|461:364,1,70,0|2,3:0|0:0,0:0:0:0:
490,291,131414,2,0,P|478:239|458:202,1,70,0|0,3:0|0:0,0:0:0:0:
419,158,131784,2,0,P|471:96|418:30,1,140,14|0,0:0|0:0,0:0:0:0:
373,17,132340,1,2,0:0:0:0:
373,17,132432,1,2,0:0:0:0:
373,17,132525,6,0,P|300:33|223:46,1,140,4|2,3:1|0:0,0:0:0:0:
96,139,133266,2,0,P|164:151|233:166,1,140,8|0,0:0|0:0,0:0:0:0:
346,289,134006,102,0,P|294:305|272:323,1,70,0|2,3:0|0:0,0:0:0:0:
227,378,134377,2,0,P|195:333|171:318,1,70,0|0,3:0|0:0,0:0:0:0:
105,292,134747,2,0,P|137:248|144:220,2,70,14|0|2,0:0|0:0|0:0,0:0:0:0:
0,160,135488,6,0,B|46:99|6:7|6:7|40:65|113:52,1,280,4|8,3:1|0:1,0:0:0:0:
267,3,136599,2,0,P|249:56|245:77,1,70,2|0,0:0|0:0,0:0:0:0:
293,138,136969,2,0,P|217:112|180:180,2,140,0|0|8,3:2|3:2|0:0,0:0:0:0:
313,305,138080,1,2,0:0:0:0:
370,367,138266,1,8,0:2:0:0:
370,367,138358,1,8,0:0:0:0:
370,367,138451,102,0,P|410:354|447:348,1,70,4|0,3:2|0:0,0:0:0:0:
490,284,138821,2,0,P|477:244|471:207,1,70
407,164,139192,2,0,P|481:169|497:99,1,140,8|0,0:2|0:0,0:0:0:0:
371,11,139932,6,0,P|318:30|281:35,1,70,4|0,3:1|0:0,0:0:0:0:
251,98,140303,2,0,P|198:79|161:74,1,70,0|8,3:1|0:0,0:0:0:0:
127,15,140673,2,0,P|84:51|61:80,1,70,8|8,0:0|0:3,0:0:0:0:
65,145,141043,1,4,0:3:0:0:
149,154,141229,1,0,3:0:0:0:
149,154,141321,1,0,3:0:0:0:
149,154,141414,102,0,P|141:237|136:303,1,140,4|2,3:1|0:0,0:0:0:0:
281,378,142155,2,0,P|275:308|268:238,1,140,0|2,3:0|0:0,0:0:0:0:
314,168,142710,1,2,0:0:0:0:
382,215,142895,6,0,P|441:182|509:192,1,140,0|2,3:0|0:0,0:0:0:0:
511,24,143636,2,0,P|461:58|427:64,1,70,12|0,0:0|0:0,0:0:0:0:
387,113,144006,2,0,P|332:86|310:60,1,70
247,50,144377,102,0,P|166:80|89:97,1,140,4|2,3:1|0:0,0:0:0:0:
196,238,145117,2,0,P|263:255|329:280,1,140,0|2,3:0|0:0,0:0:0:0:
384,345,145673,1,2,0:0:0:0:
301,359,145858,6,0,P|233:342|167:317,1,140,0|2,3:0|0:0,0:0:0:0:
10,377,146599,2,0,P|20:323|23:298,1,70,8|8,3:0|0:3,0:0:0:0:
90,259,146969,2,0,P|80:205|77:180,1,70,4|4,0:3|0:3,0:0:0:0:
1,152,147340,102,0,P|69:144|113:92,1,140,4|2,3:1|0:0,0:0:0:0:
260,13,148080,2,0,P|219:72|238:143,1,140,0|2,3:0|0:0,0:0:0:0:
301,87,148636,1,2,0:0:0:0:
370,39,148821,6,0,P|382:106|341:161,1,140,0|2,3:0|0:0,0:0:0:0:
270,208,149377,1,10,0:0:0:0:
270,208,149469,1,8,0:0:0:0:
270,208,149562,2,0,P|278:284|286:378,1,140,4|0,3:2|3:2,0:0:0:0:
448,379,150303,102,0,P|454:309|461:239,1,140,4|0,3:1|0:0,0:0:0:0:
505,77,151043,2,0,P|438:117|364:70,1,140,0|8,3:0|0:0,0:0:0:0:
322,40,151599,1,0,0:0:0:0:
260,97,151784,6,0,P|268:147|272:176,1,70,8|8,0:0|0:3,0:0:0:0:
221,234,152155,2,0,P|186:228|151:223,1,70,4|0,0:3|0:0,0:0:0:0:
97,159,152525,2,0,P|62:164|27:169,1,70,8|8,3:0|0:3,0:0:0:0:
2,249,152895,2,0,P|7:283|12:318,1,70,4|0,0:3|3:2,0:0:0:0:
74,376,153266,102,0,P|147:337|223:357,1,140,4|2,3:1|0:0,0:0:0:0:
348,265,154006,2,0,P|279:270|221:234,1,140,0|2,3:0|0:0,0:0:0:0:
195,153,154562,1,2,0:0:0:0:
253,92,154747,6,0,P|321:86|380:123,1,140,4|2,3:2|0:0,0:0:0:0:
483,255,155488,2,0,P|476:308|474:353,1,70,8|0,0:0|0:0,0:0:0:0:
407,374,155858,2,0,P|354:367|309:365,1,70,0|0,3:0|0:0,0:0:0:0:
276,306,156229,102,0,P|229:356|160:360,1,140,4|2,3:1|0:0,0:0:0:0:
20,268,156969,2,0,P|31:190|38:87,1,140,0|12,3:0|0:0,0:0:0:0:
103,78,157525,1,0,0:0:0:0:
159,139,157710,6,0,P|239:129|272:54,1,140,0|8,3:0|0:0,0:0:0:0:
331,26,158266,1,0,3:2:0:0:
389,85,158451,2,0,P|443:76|467:73,1,70,8|8,0:0|0:3,0:0:0:0:
492,150,158821,2,0,P|457:156|422:160,1,70,4|4,0:3|0:3,0:0:0:0:
367,224,159192,102,0,P|382:304|394:383,1,140,4|0,3:1|3:2,0:0:0:0:
264,251,159932,2,0,P|274:181|288:113,1,140,12|0,0:0|3:2,0:0:0:0:
227,54,160488,1,8,0:0:0:0:
227,54,160580,1,8,0:0:0:0:
227,54,160673,6,0,P|181:72|138:78,1,70,4|0,3:1|0:0,0:0:0:0:
126,152,161043,2,0,P|80:134|37:128,1,70,0|0,3:0|0:0,0:0:0:0:
8,196,161414,2,0,P|17:278|24:355,1,140,12|0,0:0|3:0,0:0:0:0:
184,379,162155,53,12,0:1:0:0:
303,261,162525,1,0,3:0:0:0:
261,99,162895,1,4,3:2:0:0:
100,55,163266,1,0,3:0:0:0:
142,217,163636,6,0,P|200:202|223:201,1,70,12|8,0:1|0:0,0:0:0:0:
266,139,164006,2,0,P|298:189|306:211,1,70,8|4,0:3|0:3,0:0:0:0:
378,232,164377,2,0,P|339:278|321:292,1,70,4|4,3:2|0:3,0:0:0:0:
323,367,164747,2,0,P|267:345|248:332,1,70,0|0,3:0|3:0,0:0:0:0:
178,358,165117,102,0,P|177:323|183:288,1,70,4|0,3:1|0:0,0:0:0:0:
142,217,165488,2,0,P|142:182|136:147,1,70,0|0,3:1|0:0,0:0:0:0:
67,99,165858,2,0,P|145:98|170:42,1,140,12|0,0:0|3:0,0:0:0:0:
333,7,166599,6,0,P|324:58|320:104,1,70,0|8,3:0|0:0,0:0:0:0:
266,139,166969,2,0,P|275:190|279:236,1,70,0|0,3:0|0:0,0:0:0:0:
353,242,167340,2,0,P|406:201|475:215,1,140,12|0,0:2|0:0,0:0:0:0:
426,283,167895,1,0,3:0:0:0:
378,352,168080,102,0,P|445:364|499:323,2,140,4|0|8,3:1|3:0|0:0,0:0:0:0:
255,237,169192,1,0,0:0:0:0:
255,237,169377,2,0,P|206:263|184:280,1,70,10|0,0:0|3:1,0:0:0:0:
148,341,169747,1,8,0:0:0:0:
148,341,169932,2,0,P|108:302|85:286,1,70,0|0,3:0|0:0,0:0:0:0:
17,271,170303,2,0,P|24:188|28:117,1,140,8|0,0:0|3:0,0:0:0:0:
151,18,171043,6,0,P|144:101|141:155,1,70,4|0,3:1|0:0,0:0:0:0:
209,142,171414,2,0,P|243:139|278:135,1,70,0|0,3:1|0:0,0:0:0:0:
344,83,171784,2,0,P|313:162|333:220,1,140,12|0,0:0|3:0,0:0:0:0:
422,351,172525,102,0,P|417:304|411:265,1,70,0|8,3:0|0:0,0:0:0:0:
488,241,172895,2,0,P|492:194|498:155,1,70,0|0,3:0|3:0,0:0:0:0:
467,92,173266,2,0,P|403:115|344:83,1,140,8|0,0:0|3:0,0:0:0:0:
274,35,173821,1,8,0:0:0:0:
216,95,174006,6,0,P|223:172|228:261,2,140,4|0|12,3:2|3:0|0:1,0:0:0:0:
66,18,175117,1,0,3:0:0:0:
66,18,175303,2,0,P|76:75|78:122,1,70,8|0,0:0|3:0,0:0:0:0:
131,151,175673,2,0,P|47:138|26:189,1,140,12|0,0:1|3:0,0:0:0:0:
46,257,176229,2,0,P|36:313|22:346,1,70,8|8,0:0|0:3,0:0:0:0:
94,380,176599,2,0,P|127:369|162:365,1,70,4|0,0:3|3:0,0:0:0:0:
225,310,176969,102,0,P|304:354|368:348,2,140,4|0|12,3:1|3:0|0:0,0:0:0:0:
208,142,178080,2,0,P|215:95|218:44,1,70,0|10,0:0|0:0,0:0:0:0:
296,44,178451,6,0,P|299:78|304:113,1,70,4|0,3:2|0:0,0:0:0:0:
376,157,178821,2,0,L|457:147,1,70,0|0,3:0|0:0,0:0:0:0:
510,94,179192,2,0,P|478:176|515:237,1,140,8|0,0:0|0:0,0:0:0:0:
359,316,179932,102,0,B|242:335|297:224|180:245,1,210.000008010865,4|0,3:1|3:0,0:0:0:0:
112,298,180673,2,0,P|58:287|28:267,1,70,12|0,0:0|0:0,0:0:0:0:
11,203,181043,1,0,3:0:0:0:
74,147,181229,6,0,L|61:77,1,70,10|0,0:0|3:0,0:0:0:0:
135,39,181599,1,8,0:0:0:0:
135,39,181784,2,0,L|147:107,1,70,0|0,3:0|0:0,0:0:0:0:
222,146,182155,1,12,0:0:0:0:
338,25,182525,1,0,3:0:0:0:
393,87,182710,1,2,0:0:0:0:
393,87,182803,1,2,0:0:0:0:
393,87,182895,102,0,P|387:140|378:233,1,140,4|0,3:1|3:1,0:0:0:0:
470,367,183636,2,0,P|411:317|343:347,1,140,12|0,0:1|3:0,0:0:0:0:
280,370,184192,1,8,0:0:0:0:
280,370,184284,1,8,0:0:0:0:
280,370,184377,6,0,P|228:358|206:354,1,70,12|8,0:0|0:0,0:0:0:0:
167,283,184747,2,0,P|115:295|93:299,1,70,8|8,0:0|0:0,0:0:0:0:
35,242,185117,1,12,0:0:0:0:
69,165,185303,1,8,0:3:0:0:
152,173,185488,1,4,0:3:0:0:
186,96,185673,1,0,3:3:0:0:
122,40,185858,86,0,P|151:19|184:11,2,70,12|0|0,0:1|3:2|3:0,0:0:0:0:
186,96,186414,2,0,P|214:117|234:154,2,70,12|0|0,0:2|3:2|3:0,0:0:0:0:
152,173,186969,2,0,P|140:207|111:237,2,70,12|0|0,0:1|3:2|3:0,0:0:0:0:
69,165,187525,2,0,P|33:164|-4:145,2,70,12|0|0,0:2|3:2|3:0,0:0:0:0:
51,84,188080,37,8,0:0:0:0:
69,165,188266,1,8,0:0:0:0:
152,173,188451,1,8,0:0:0:0:
186,96,188636,1,8,0:0:0:0:
122,40,188821,70,0,P|184:11|247:38,1,140,4|0,3:1|0:0,0:0:0:0:
349,169,189562,2,0,L|334:308,1,140,8|8,0:0|0:1,0:0:0:0:
284,375,190117,38,0,P|365:351|435:389,1,140,4|8,3:1|0:1,0:0:0:0:
482,321,190673,2,0,P|490:261|490:222,1,70,4|2,3:1|0:0,0:0:0:0:
429,193,191043,2,0,P|421:133|421:94,2,70,8|2|0,0:0|0:0|0:0,0:0:0:0:
510,170,191599,1,2,0:0:0:0:
510,170,191692,1,2,0:0:0:0:
510,170,191784,70,0,P|500:100|485:27,1,140,4|0,3:2|0:0,0:0:0:0:
319,10,192525,2,0,P|259:59|182:49,1,140,8|8,0:2|0:1,0:0:0:0:
121,26,193080,38,0,P|170:86|160:163,1,140,4|8,3:1|0:0,0:0:0:0:
137,224,193636,2,0,P|197:175|274:185,1,140,4|8,3:1|0:0,0:0:0:0:
335,208,194192,1,8,0:3:0:0:
297,283,194377,2,0,P|302:337|308:368,1,70,2|0,3:2|3:2,0:0:0:0:
226,382,194747,70,0,P|152:367|72:363,1,140,4|0,3:1|0:0,0:0:0:0:
5,215,195488,2,0,P|20:141|24:61,1,140,8|8,0:0|0:1,0:0:0:0:
92,27,196043,38,0,P|140:94|229:57,1,140,4|8,3:2|0:0,0:0:0:0:
259,43,196599,2,0,P|319:38|376:36,1,70,4|2,3:1|0:0,0:0:0:0:
383,100,196969,1,8,0:0:0:0:
454,55,197155,1,2,0:0:0:0:
509,118,197340,2,0,P|501:176|499:211,1,70,8|2,0:3|0:0,0:0:0:0:
428,231,197710,70,0,P|497:261|447:339,1,140,4|8,3:2|0:0,0:0:0:0:
420,361,198266,1,0,3:3:0:0:
367,295,198451,2,0,P|309:296|256:293,2,70,8|8|4,0:0|0:3|0:3,0:3:0:0:
337,374,199006,38,0,P|267:376|197:379,1,140,4|0,3:1|3:0,0:0:0:0:
138,318,199562,2,0,P|147:276|158:237,1,70,4|8,0:3|0:3,0:0:0:0:
228,210,199932,1,8,0:0:0:0:
231,127,200117,1,8,0:3:0:0:
160,83,200303,1,4,0:3:0:0:
87,121,200488,1,0,3:0:0:0:
85,204,200673,70,0,P|18:166|9:94,1,140,4|0,3:1|3:0,0:0:0:0:
56,43,201229,1,0,0:0:0:0:
87,121,201414,1,8,0:0:0:0:
87,121,201599,2,0,P|148:109|184:108,1,70
213,47,201969,38,0,P|253:93|272:124,1,70,4|0,3:2|0:0,0:0:0:0:
340,118,202340,2,0,P|330:152|316:184,1,70,0|0,0:0|3:0,0:0:0:0:
341,264,202710,1,0,3:0:0:0:
284,326,202895,2,0,P|376:302|429:323,1,140,8|0,0:0|3:0,0:0:0:0:
482,160,203636,70,0,P|476:102|462:-8,1,140,4|0,3:1|3:0,0:0:0:0:
300,44,204377,2,0,P|306:114|315:184,1,140,8|0,0:0|0:0,0:0:0:0:
246,230,204932,38,0,P|185:173|117:213,1,140,4|0,3:2|0:0,0:0:0:0:
92,257,205488,2,0,L|99:348,1,70,0|0,3:0|3:0,0:0:0:0:
23,367,205858,2,0,L|12:227,1,140,8|0,0:0|0:0,0:0:0:0:
57,156,206414,1,2,0:0:0:0:
57,156,206506,1,2,0:0:0:0:
57,156,206599,70,0,P|45:93|38:74,1,70,4|0,3:1|0:0,0:0:0:0:
101,27,206969,2,0,P|134:36|169:40,1,70,0|0,3:0|0:0,0:0:0:0:
225,103,207340,2,0,P|258:93|293:89,1,70,8|0,0:0|0:0,0:0:0:0:
348,152,207710,2,0,P|343:186|334:220,1,70,12|0,0:0|0:0,0:0:0:0:
273,278,208080,37,0,3:0:0:0:
312,352,208266,2,0,P|394:318|472:332,1,140,8|0,0:0|3:0,0:0:0:0:
500,260,208821,1,8,0:0:0:0:
500,260,209006,2,0,L|509:190,2,70,2|0|0,0:0|3:0|0:0,0:0:0:0:
418,242,209562,70,0,L|436:103,1,140,4|0,3:1|3:0,0:0:0:0:
370,51,210117,2,0,P|320:69|272:81,1,70,2|12,0:0|0:0,0:0:0:0:
250,139,210488,2,0,P|200:121|152:109,1,70,2|0,0:0|0:0,0:0:0:0:
118,63,210858,38,0,P|138:155|138:227,1,140,4|8,3:1|0:0,0:0:0:0:
70,249,211414,1,8,0:3:0:0:
78,333,211599,1,8,0:0:0:0:
78,333,211692,1,8,0:0:0:0:
78,333,211784,1,8,0:0:0:0:
156,368,211969,1,8,0:3:0:0:
225,319,212155,1,4,0:3:0:0:
217,234,212340,1,0,3:0:0:0:
148,284,212525,69,4,3:1:0:0:
256,192,212617,12,2,215488,0:0:0:0:
54,359,227340,38,0,P|148:355|168:309,1,140,6|0,3:2|0:0,0:0:0:0:
253,180,228080,2,0,P|347:184|367:230,1,140,2|0,3:2|0:0,0:0:0:0:
421,278,228636,1,0,0:0:0:0:
481,219,228821,22,0,P|475:156|466:62,1,140,2|0,3:2|0:0,0:0:0:0:
313,11,229562,2,0,P|264:59|176:41,1,140,10|2,3:2|0:0,0:0:0:0:
125,11,230117,1,2,0:0:0:0:
125,11,230210,1,2,0:0:0:0:
125,11,230303,86,0,P|152:80|126:148,1,140,4|0,3:2|0:0,0:0:0:0:
225,279,231043,2,0,P|151:267|105:211,1,140,2|2,3:2|0:0,0:0:0:0:
51,161,231599,1,2,0:0:0:0:
28,241,231784,22,0,P|40:334|46:391,1,140,0|0,3:2|0:0,0:0:0:0:
211,355,232525,1,10,3:2:0:0:
377,381,232895,2,0,P|385:311|394:247,1,70,0|2,0:0|0:0,0:0:0:0:
447,255,233266,102,0,P|367:256|369:191,1,140,4|0,3:1|0:0,0:0:0:0:
221,113,234006,2,0,P|142:133|45:151,1,140,4|0,3:2|0:0,0:0:0:0:
4,117,234562,1,2,0:0:0:0:
68,61,234747,6,0,P|147:41|244:23,1,140,4|2,3:1|0:0,0:0:0:0:
285,57,235303,1,8,0:0:0:0:
285,57,235395,1,8,0:0:0:0:
285,57,235488,2,0,P|330:70|369:76,2,70,12|8|4,0:0|0:3|0:3,0:0:0:0:
221,113,236043,1,8,0:0:0:0:
221,113,236136,1,8,0:0:0:0:
221,113,236229,54,0,P|232:146|240:180,1,70,4|0,3:1|3:0,0:0:0:0:
313,220,236599,2,0,P|301:253|293:287,1,70,8|2,0:1|3:2,0:0:0:0:
277,369,236969,1,8,0:0:0:0:
195,352,237155,1,8,0:3:0:0:
211,270,237340,1,4,0:3:0:0:
293,287,237525,6,0,P|352:279|446:283,1,140,4|0,3:2|3:0,0:0:0:0:
482,213,238080,2,0,P|470:163|466:127,1,70,8|8,0:3|0:0,0:0:0:0:
512,73,238451,1,8,0:0:0:0:
459,9,238636,1,8,0:0:0:0:
382,40,238821,1,8,0:0:0:0:
387,122,239006,1,8,0:0:0:0:
387,122,239932,54,0,L|378:190,2,46.6666666666667,8|8|8,0:0|0:3|0:3,0:0:0:0:
344,84,240303,2,0,L|335:16,2,46.6666666666667,4|4|0,0:3|0:3|3:0,0:0:0:0:
295,112,240673,6,0,P|240:109|135:70,1,140,4|0,3:1|0:0,0:0:0:0:
57,216,241413,2,0,P|123:193|192:187,1,140,12|0,0:1|0:0,0:0:0:0:
269,221,241969,1,8,0:0:0:0:
231,296,242154,102,0,P|234:343|235:376,1,70,4|8,3:2|0:0,0:0:0:0:
318,361,242524,2,0,P|316:326|315:292,1,70,0|0,3:0|0:0,0:0:0:0:
352,216,242895,2,0,P|431:238|481:181,1,140,12|4,0:0|0:3,0:0:0:0:
494,124,243450,1,0,3:0:0:0:
432,67,243635,6,0,P|339:84|253:93,2,140,4|0|12,3:1|3:0|0:0,0:0:0:0:
352,216,244747,1,0,3:0:0:0:
352,216,244932,2,0,P|306:193|276:185,1,70,10|0,0:0|3:0,0:0:0:0:
223,134,245302,1,8,0:0:0:0:
223,134,245487,2,0,P|186:170|170:196,1,70,0|0,3:0|0:0,0:0:0:0:
105,231,245858,2,0,P|112:320|113:383,1,140,8|0,0:0|3:0,0:0:0:0:
0,246,246598,102,0,P|2:176|8:106,1,140,4|0,3:1|3:1,0:0:0:0:
153,21,247339,2,0,P|209:70|297:52,1,140,8|0,0:0|3:0,0:0:0:0:
340,19,247895,1,10,0:0:0:0:
399,78,248080,6,0,P|391:131|386:184,1,70,0|8,3:1|0:0,0:0:0:0:
314,186,248450,2,0,P|322:239|327:292,1,70,0|0,3:1|0:0,0:0:0:0:
303,337,248821,2,0,P|379:287|445:342,1,140,8|0,0:0|3:0,0:0:0:0:
479,358,249376,1,8,0:0:0:0:
498,277,249561,102,0,P|490:185|485:115,1,140,6|2,3:1|3:1,0:0:0:0:
480,54,250117,1,0,3:0:0:0:
399,78,250302,1,14,0:1:0:0:
247,5,250673,1,0,3:0:0:0:
247,5,250858,2,0,P|254:57|256:90,1,70,10|0,0:0|3:0,0:0:0:0:
208,143,251228,2,0,P|281:133|276:223,1,140,14|0,0:1|3:0,0:0:0:0:
311,268,251784,2,0,P|302:301|295:336,1,70,14|4,0:1|0:3,0:0:0:0:
222,377,252154,2,0,P|188:368|153:361,1,70,4|0,0:3|3:0,0:0:0:0:
71,379,252524,6,0,P|117:288|81:231,1,140,4|0,3:1|3:1,0:0:0:0:
54,192,253080,1,0,3:2:0:0:
106,125,253265,2,0,P|104:97|97:51,1,70,12|0,0:0|0:0,0:0:0:0:
179,35,253635,2,0,P|181:63|188:109,1,70,0|8,0:0|0:0,0:0:0:0:
247,164,254006,102,0,P|316:126|382:138,1,140,0|0,3:0|3:0,0:0:0:0:
495,18,254747,2,0,P|493:96|450:147,1,140,8|0,0:0|0:0,0:0:0:0:
407,210,255302,1,2,3:2:0:0:
407,210,255395,1,2,0:2:0:0:
407,210,255487,6,0,B|386:280|417:349|417:349|389:322|341:313,1,210,4|0,3:1|3:0,0:0:0:0:
279,287,256228,2,0,P|221:320|184:328,1,70,12|0,0:0|0:0,0:0:0:0:
147,275,256598,1,0,3:0:0:0:
199,209,256784,102,0,P|204:160|212:103,1,70,10|4,0:0|3:1,0:0:0:0:
137,91,257154,1,0,3:2:0:0:
137,91,257339,2,0,P|132:42|124:-15,1,70,0|0,3:1|3:2,0:0:0:0:
47,1,257710,2,0,P|42:35|39:70,1,70,10|8,0:1|0:3,0:0:0:0:
3,146,258080,1,4,0:3:0:0:
71,194,258265,1,2,3:1:0:0:
35,270,258450,6,0,P|81:247|82:347,1,140,4|0,3:2|3:0,0:0:0:0:
185,367,259006,1,0,3:0:0:0:
245,308,259191,2,0,P|326:318|391:324,1,140,14|0,0:1|3:0,0:0:0:0:
455,368,259747,1,10,0:1:0:0:
488,291,259932,102,0,P|477:239|472:192,1,70,4|10,3:1|0:1,0:0:0:0:
410,168,260302,2,0,P|421:116|426:69,1,70,0|0,3:1|3:0,0:0:0:0:
367,36,260673,2,0,P|300:82|216:68,1,140,14|0,0:1|3:0,0:0:0:0:
184,20,261228,1,0,0:1:0:0:
161,102,261413,6,0,L|170:251,1,140,4|10,3:1|0:1,0:0:0:0:
90,272,261969,2,0,L|82:132,1,140,4|10,3:2|0:1,0:0:0:0:
3,162,262524,2,0,L|10:301,1,140,4|14,3:2|0:1,0:0:0:0:
75,356,263080,2,0,P|134:340|176:334,1,70,2|0,3:1|3:0,0:0:0:0:
223,314,263450,1,8,0:0:0:0:
223,314,263543,1,8,0:0:0:0:
223,314,263635,101,10,0:1:0:0:
272,383,263821,1,8,0:0:0:0:
352,358,264006,1,8,0:3:0:0:
353,274,264191,1,0,3:1:0:0:
274,248,264376,6,2,P|278:173|280:63,1,140,6|2,3:1|0:1,0:1:0:0:
221,47,264932,1,0,3:0:0:0:
290,0,265117,2,0,P|375:32|429:46,1,140,14|0,0:1|3:0,0:0:0:0:
481,105,265673,1,10,0:1:0:0:
416,158,265858,102,0,P|425:208|430:237,1,70,4|0,3:2|0:0,0:0:0:0:
500,269,266228,2,0,P|491:319|486:348,1,70,0|0,3:0|3:1,0:0:0:0:
409,368,266598,2,0,P|351:319|243:335,1,140,14|0,0:1|3:1,0:0:0:0:
218,359,267154,1,10,0:1:0:0:
155,303,267339,6,0,P|161:263|166:225,1,70,4|0,3:1|0:0,0:0:0:0:
230,180,267710,2,0,P|224:145|220:110,1,70,8|0,0:3|3:0,0:0:0:0:
211,27,268080,1,8,3:3:0:0:
130,9,268265,1,8,0:3:0:0:
88,81,268450,1,4,0:3:0:0:
143,144,268635,1,4,0:3:0:0:
220,111,268821,22,0,B|374:76|308:229|464:193|464:193|373:173|364:59|441:5|511:33,1,560,4|2,3:1|0:0,0:0:0:0:
511,33,271784,5,2,0:0:0:0:
256,192,273358,12,2,278543,0:0:0:0:
