osu file format v14

[General]
AudioFilename: audio.mp3
AudioLeadIn: 0
PreviewTime: 1136
Countdown: 0
SampleSet: Soft
StackLeniency: 0.7
Mode: 0
LetterboxInBreaks: 0
EpilepsyWarning: 1
WidescreenStoryboard: 1

[Editor]
Bookmarks: 105858,117710,215488,227340
DistanceSpacing: 0.8
BeatDivisor: 8
GridSize: 32
TimelineZoom: 1

[Metadata]
Title:Yume Sekai
TitleUnicode:ユメセカイ
Artist:Tomatsu Haruka
ArtistUnicode:戸松遥
Creator:Left
Version:Aria of a Starless Night
Source:ソードアート・オンライン
Tags:Sword Art Online SAO ED ending full version ver 結城 明日奈 Yuuki Asuna Anime japanese pop Byakugan249 YTYuyu lit120 -Hakurei-
BeatmapID:3427810
BeatmapSetID:1677784

[Difficulty]
HPDrainRate:6.5
CircleSize:4
OverallDifficulty:8
ApproachRate:8
SliderMultiplier:2.2
SliderTickRate:1

[Events]
//Background and Video events
0,0,"bggg.jpg",0,0
//Break Periods
2,23095,24182
2,109021,116960
2,215687,226219
//Storyboard Layer 0 (Background)
//Storyboard Layer 1 (Fail)
//Storyboard Layer 2 (Pass)
//Storyboard Layer 3 (Foreground)
//Storyboard Layer 4 (Overlay)
//Storyboard Sound Samples

[TimingPoints]
2155,740.740740740741,4,2,7,55,1,0
2155,-125,4,2,7,55,0,0
24932,-62.5,4,2,7,70,0,0
25303,-142.857142857143,4,2,7,70,0,0
25766,-142.857142857143,4,2,7,5,0,0
25858,-62.5,4,2,7,75,0,0
32895,-93.4579439252336,4,2,7,75,0,0
33636,-62.5,4,2,7,75,0,0
36784,-62.5,4,2,7,5,0,0
36969,-71.4285714285714,4,2,7,75,0,0
37155,-71.4285714285714,4,2,7,5,0,0
37340,-83.3333333333333,4,2,7,75,0,0
37525,-83.3333333333333,4,2,7,5,0,0
37710,-100,4,2,7,75,0,0
38080,-100,4,2,7,65,0,0
56599,-76.9230769230769,4,2,7,65,0,0
58451,-66.6666666666667,4,2,7,65,0,0
61414,-76.9230769230769,4,2,7,70,0,0
79192,-76.9230769230769,4,2,7,75,0,0
82155,-76.9230769230769,4,2,7,75,0,0
82710,-76.9230769230769,4,2,7,5,0,0
82895,-76.9230769230769,4,2,7,75,0,0
83080,-76.9230769230769,4,2,7,5,0,0
83266,-64.5161290322581,4,2,7,80,0,0
83451,-64.5161290322581,4,2,7,5,0,0
83636,-64.5161290322581,4,2,7,80,0,0
83821,-64.5161290322581,4,2,7,5,0,0
84006,-55.5555555555556,4,2,7,85,0,0
84192,-55.5555555555556,4,2,7,5,0,0
84377,-55.5555555555556,4,2,7,85,0,0
84932,-55.5555555555556,4,2,7,5,0,0
85117,-55.5555555555556,4,2,7,85,0,0
86136,-55.5555555555556,4,2,7,5,0,0
86229,-55.5555555555556,4,2,7,85,0,0
89099,-55.5555555555556,4,2,7,5,0,0
89192,-55.5555555555556,4,2,7,85,0,0
100951,-55.5555555555556,4,2,7,5,0,0
101043,-55.5555555555556,4,2,7,85,0,0
102432,-55.5555555555556,4,2,7,5,0,0
102525,-55.5555555555556,4,2,7,85,0,0
105858,-55.5555555555556,4,2,7,85,0,0
117710,-100,4,2,7,65,0,0
141414,-76.9230769230769,4,2,7,70,0,0
159192,-76.9230769230769,4,2,7,75,0,0
162155,-76.9230769230769,4,2,7,80,0,0
163636,-76.9230769230769,4,2,7,85,0,0
165117,-55.5555555555556,4,2,7,85,0,0
166136,-55.5555555555556,4,2,7,5,0,0
166229,-55.5555555555556,4,2,7,85,0,0
180951,-55.5555555555556,4,2,7,5,0,0
181043,-55.5555555555556,4,2,7,85,0,0
182432,-55.5555555555556,4,2,7,5,0,0
182525,-55.5555555555556,4,2,7,85,0,0
185858,-55.5555555555556,4,2,7,85,0,0
207895,-47.6190476190476,4,2,7,85,0,0
211784,-55.5555555555556,4,2,7,85,0,0
212525,-104.166666666667,4,2,7,85,0,0
226969,-125,4,2,7,65,0,0
227247,-125,4,2,7,5,0,0
227340,-125,4,2,7,65,0,0
233266,-90.9090909090909,4,2,7,75,0,0
234747,-71.4285714285714,4,2,7,80,0,0
235117,-62.5,4,2,7,80,0,0
235858,-55.5555555555556,4,2,7,80,0,0
236136,-55.5555555555556,4,2,7,5,0,0
236229,-55.5555555555556,4,2,7,85,0,0
239932,-47.6190476190476,4,2,7,85,0,0
240673,740.740740740741,4,2,7,95,1,1
240673,-47.6190476190476,4,2,7,95,0,1
256506,-47.6190476190476,4,2,7,5,0,1
256598,-47.6190476190476,4,2,7,95,0,1
258450,-43.4782608695652,4,2,7,95,0,1
261413,-40,4,2,7,95,0,1
262247,-40,4,2,7,5,0,1
262339,-40,4,2,7,95,0,1
262802,-40,4,2,7,5,0,1
262895,-40,4,2,7,95,0,1
264376,-37.037037037037,4,2,7,95,0,1
265858,-34.4827586206897,4,2,7,95,0,1
267339,-32.258064516129,4,2,7,95,0,1
268080,-50,4,2,7,95,0,1
268821,-250,4,2,7,95,0,1
270302,-47.6190476190476,4,2,7,45,0,0

[Colours]
Combo1 : 116,116,116
Combo2 : 255,117,117
Combo3 : 255,192,115
Combo4 : 221,221,221
Combo5 : 174,159,255
Combo6 : 166,190,255
Combo7 : 255,77,77
Combo8 : 255,165,55

[HitObjects]
39,320,2155,38,0,P|82:316|130:313,1,88,2|0,0:0|0:0,0:0:0:0:
206,325,2895,1,2,0:0:0:0:
272,276,3266,1,0,0:0:0:0:
277,199,3636,2,0,P|274:155|270:111,1,88,2|0,0:0|0:0,0:0:0:0:
355,191,4377,2,0,P|351:147|349:104,1,88,2|0,0:0|0:0,0:0:0:0:
303,36,4932,1,2,0:0:0:0:
303,36,5117,22,0,P|246:30|200:23,2,88,2|0|2,0:0|0:0|0:0,0:0:0:0:
161,88,6229,1,2,0:0:0:0:
161,88,6414,1,0,0:0:0:0:
189,164,6599,2,0,P|255:170|373:188,1,176,2|2,0:0|0:0,0:0:0:0:
443,171,7710,1,0,0:0:0:0:
394,22,8080,86,0,P|392:65|389:109,1,88,2|0,0:0|0:0,0:0:0:0:
363,186,8821,2,0,P|360:230|358:279,1,88,2|0,0:0|0:0,0:0:0:0:
296,328,9562,2,0,P|224:328|116:339,1,176,2|2,0:0|0:0,0:0:0:0:
95,260,10673,1,2,0:0:0:0:
95,260,10858,1,0,0:0:0:0:
119,181,11043,22,0,P|106:98|93:-2,1,176,2|2,0:0|0:0,0:0:0:0:
393,203,12525,2,0,P|406:286|419:386,1,176,2|2,0:0|0:0,0:0:0:0:
337,364,13636,1,2,0:0:0:0:
258,355,14006,86,0,P|211:357|165:364,1,88,2|0,0:0|0:0,0:0:0:0:
164,279,14747,2,0,P|211:277|257:270,1,88,2|0,0:0|0:0,0:0:0:0:
325,241,15488,1,2,0:0:0:0:
352,163,15858,1,0,0:0:0:0:
320,90,16229,2,0,P|316:47|314:-3,1,88,2|0,0:0|0:0,0:0:0:0:
237,31,16969,22,0,P|174:23|69:178,1,264,2|0,0:0|0:0,0:0:0:0:
101,243,18266,1,2,0:0:0:0:
101,243,18451,2,0,P|159:247|206:254,1,88,2|0,0:0|0:0,0:0:0:0:
179,333,19192,2,0,P|121:329|74:322,1,88,2|0,0:0|0:0,0:0:0:0:
256,299,19932,86,0,P|324:293|393:368,2,176,2|2|2,0:0|0:0|0:0,0:0:0:0:
189,343,22895,1,2,0:0:0:0:
189,343,24932,22,0,P|188:323|183:298,2,44,8|8|12,0:0|0:0|0:0,0:0:0:0:
259,262,25303,2,0,P|268:309|273:356,1,96.2499970626832,4|0,0:3|0:0,0:0:0:0:
274,357,25858,101,4,3:1:0:0:
472,160,26229,1,0,3:0:0:0:
241,0,26599,6,0,P|294:8|345:12,1,88,8|0,0:0|0:0,0:0:0:0:
506,254,26969,2,0,P|453:246|402:242,1,88,0|0,3:0|0:0,0:0:0:0:
197,384,27340,102,0,P|204:312|211:275,1,88,4|0,3:2|0:0,0:0:0:0:
54,99,27710,2,0,P|47:171|40:208,1,88,0|0,3:0|0:0,0:0:0:0:
0,343,28080,5,8,0:0:0:0:
239,202,28451,1,0,3:0:0:0:
6,28,28821,101,4,3:1:0:0:
146,221,29192,1,0,3:0:0:0:
389,43,29562,6,0,P|331:55|283:60,1,88,8|0,0:0|0:0,0:0:0:0:
120,312,29932,2,0,P|178:300|226:295,1,88,0|0,3:0|0:0,0:0:0:0:
476,365,30303,102,0,P|464:297|458:246,1,88,4|0,3:1|0:0,0:0:0:0:
211,35,30673,2,0,P|223:103|229:154,1,88,0|2,3:0|0:0,0:0:0:0:
291,177,30951,1,10,0:0:0:0:
291,177,31043,6,0,P|337:171|387:160,1,88,8|8,0:0|0:3,0:0:0:0:
128,370,31414,2,0,P|82:376|32:387,1,88,4|0,0:3|3:0,0:0:0:0:
491,353,31784,102,0,P|440:272|353:268,1,176,4|0,3:1|0:0,0:0:0:0:
219,313,32340,1,0,3:0:0:0:
250,167,32525,1,8,0:0:0:0:
491,353,32895,102,0,P|440:272|352:267,1,176.549994612122,4|8,3:1|0:0,0:0:0:0:
219,313,33636,21,0,3:0:0:0:
116,216,33821,2,0,P|106:150|97:101,1,88,0|8,3:0|0:0,0:0:0:0:
280,4,34192,2,0,P|290:70|299:119,1,88,8|4,0:0|0:3,0:0:0:0:
293,90,34469,1,2,0:0:0:0:
293,90,34562,1,2,0:0:0:0:
293,90,34655,1,2,0:0:0:0:
293,90,34747,102,0,P|388:80|481:67,1,176,4|0,3:1|0:0,0:0:0:0:
226,176,35303,1,0,3:0:0:0:
344,278,35488,2,0,P|336:234|332:190,1,88,8|0,0:0|0:0,0:0:0:0:
101,0,35858,2,0,P|110:83|127:197,1,176,4|4,3:1|0:3,0:0:0:0:
28,178,36414,5,0,0:0:0:0:
159,271,36599,2,0,P|107:266|52:265,1,88,8|0,0:0|0:0,0:0:0:0:
316,143,36969,102,0,P|368:148|427:150,1,76.9999976501466,8|0,0:0|0:0,0:0:0:0:
308,375,37340,6,0,P|256:370|221:369,1,65.9999979858399,8|0,0:0|0:0,0:0:0:0:
166,52,37710,102,0,P|223:57|285:58,1,110,4|0,3:1|0:0,0:0:0:0:
393,293,38451,2,0,P|335:287|273:286,1,110,8|0,0:0|0:0,0:0:0:0:
200,326,39006,5,0,0:0:0:0:
200,326,39192,2,0,P|194:292|186:246,1,55,0|0,3:0|0:0,0:0:0:0:
238,142,39562,2,0,P|244:176|252:222,1,55,0|0,3:0|0:0,0:0:0:0:
280,377,39932,1,8,0:0:0:0:
49,273,40303,102,0,P|89:263|124:255,1,55
155,188,40673,5,0,3:2:0:0:
0,64,41043,1,0,0:0:0:0:
193,108,41414,1,8,0:0:0:0:
0,152,41784,1,0,0:0:0:0:
155,29,42155,1,0,3:0:0:0:
69,207,42525,1,0,3:0:0:0:
69,9,42895,102,0,P|75:56|81:85,1,55,8|0,0:0|0:0,0:0:0:0:
155,188,43266,2,0,P|159:215|162:242,1,55
13,356,43636,6,0,P|105:336|256:327,1,220,4|8,3:2|0:0,0:0:0:0:
315,363,44747,2,0,P|319:335|322:308,1,55
257,236,45117,102,0,P|185:226|130:216,1,110,0|0,3:0|3:0,0:0:0:0:
404,56,45858,2,0,P|476:66|531:76,1,110,8|0,0:0|0:0,0:0:0:0:
332,167,46414,5,2,0:0:0:0:
332,167,46506,1,2,0:0:0:0:
332,167,46599,2,0,P|328:140|322:113,1,55,0|0,3:2|0:0,0:0:0:0:
233,308,46969,1,2,0:0:0:0:
482,292,47340,102,0,P|401:275|319:265,1,165,12|2,0:0|0:0,0:0:0:0:
233,308,48080,1,4,3:2:0:0:
233,308,48451,2,0,P|221:238|221:204,1,55,2|0,3:2|0:0,0:0:0:0:
238,138,48821,5,14,0:0:0:0:
222,254,49006,1,2,0:0:0:0:
101,236,49192,1,0,0:0:0:0:
116,119,49377,1,2,0:0:0:0:
0,28,49562,101,4,3:1:0:0:
0,28,50303,2,0,P|19:99|38:162,1,110,8|0,0:0|0:0,0:0:0:0:
118,102,50858,1,0,0:0:0:0:
158,204,51043,6,0,P|116:197|81:196,1,55,0|0,3:0|0:0,0:0:0:0:
7,328,51414,2,0,P|48:334|83:335,1,55,0|0,3:0|0:0,0:0:0:0:
226,348,51784,1,8,0:0:0:0:
468,204,52155,101,0,0:0:0:0:
468,204,52340,1,0,0:0:0:0:
382,25,52525,1,0,3:2:0:0:
382,223,52895,1,0,0:0:0:0:
468,45,53266,1,8,0:0:0:0:
313,168,53636,1,0,0:0:0:0:
313,168,53821,1,0,0:0:0:0:
506,124,54006,1,0,3:2:0:0:
313,80,54378,1,0,3:0:0:0:
468,204,54747,6,0,P|474:245|480:276,1,55,8|0,0:0|0:0,0:0:0:0:
320,378,55117,2,0,P|313:336|307:305,1,55
120,116,55488,102,0,P|98:244|76:343,1,220,4|8,3:2|0:0,0:0:0:0:
166,384,56599,1,0,0:0:0:0:
166,384,56784,1,0,0:0:0:0:
166,384,56969,2,0,P|200:240|222:98,1,285.99998690796,0|8,3:2|0:0,0:0:0:0:
299,46,58080,1,2,0:0:0:0:
355,127,58451,2,0,P|488:190|449:349,2,330.000012588501,4|8|4,3:2|0:0|3:1,0:0:0:0:
278,233,60117,1,2,0:0:0:0:
153,192,60303,1,0,3:0:0:0:
278,233,60673,5,12,0:2:0:0:
355,126,60858,1,8,0:3:0:0:
277,21,61043,1,4,0:3:0:0:
153,60,61229,1,0,3:2:0:0:
153,192,61414,102,0,P|143:253|135:344,1,142.99999345398,4|2,3:1|0:0,0:0:0:0:
138,339,61969,1,2,0:0:0:0:
142,345,62155,2,0,P|199:323|282:284,1,142.99999345398,0|2,3:2|0:0,0:0:0:0:
276,294,62710,1,2,0:0:0:0:
279,300,62895,2,0,P|231:260|156:208,1,142.99999345398,0|0,3:2|0:0,0:0:0:0:
168,219,63451,1,2,0:0:0:0:
171,225,63636,6,0,P|122:237|93:246,1,71.4999967269899,4|4,3:2|0:3,0:0:0:0:
137,114,64006,2,0,P|102:123|67:130,1,71.4999967269899,2|0,3:2|0:0,0:0:0:0:
318,0,64377,102,0,P|300:70|273:150,1,142.99999345398,4|2,3:1|0:0,0:0:0:0:
281,142,64932,1,2,0:0:0:0:
284,147,65117,2,0,P|353:127|436:110,1,142.99999345398,0|2,3:0|0:0,0:0:0:0:
425,118,65673,1,2,0:0:0:0:
427,124,65858,2,0,P|409:194|382:274,1,142.99999345398,4|2,3:2|0:0,0:0:0:0:
391,265,66414,1,8,0:3:0:0:
394,270,66599,6,0,P|440:258|474:253,1,71.4999967269899,4|8,3:1|0:3,0:0:0:0:
308,198,66969,1,2,3:2:0:0:
207,384,67340,102,0,P|195:315|179:242,1,142.99999345398,4|2,3:1|0:0,0:0:0:0:
183,250,67895,1,2,0:0:0:0:
186,256,68080,2,0,P|120:231|49:209,1,142.99999345398,0|2,3:1|0:0,0:0:0:0:
53,216,68636,1,2,0:0:0:0:
55,222,68821,2,0,P|43:153|27:80,1,142.99999345398,0|2,3:1|0:0,0:0:0:0:
30,87,69377,1,2,0:0:0:0:
33,93,69562,6,0,P|55:61|81:27,1,71.4999967269899,4|4,3:2|0:3,0:0:0:0:
134,160,69932,2,0,P|155:131|175:101,1,71.4999967269899,0|0,3:2|0:0,0:0:0:0:
483,14,70303,102,0,P|399:27|324:43,1,142.99999345398,4|0,3:1|0:0,0:0:0:0:
253,72,70858,1,2,0:0:0:0:
253,72,71043,1,0,3:0:0:0:
332,140,71414,1,2,0:0:0:0:
294,233,71784,1,0,3:0:0:0:
371,300,72155,2,0,P|409:305|455:315,1,71.4999967269899,10|8,0:0|0:0,0:0:0:0:
294,233,72525,5,8,0:0:0:0:
328,381,72710,1,8,0:3:0:0:
472,349,72895,1,4,0:3:0:0:
438,201,73080,1,0,3:0:0:0:
248,321,73266,102,0,P|172:303|95:295,1,142.99999345398,4|2,3:1|0:0,0:0:0:0:
110,301,73821,1,2,0:0:0:0:
112,307,74006,2,0,P|89:232|58:161,1,142.99999345398,0|2,3:1|0:0,0:0:0:0:
67,178,74562,1,2,0:0:0:0:
70,183,74747,2,0,P|123:126|169:63,1,142.99999345398,0|2,3:1|0:0,0:0:0:0:
165,80,75303,1,2,0:0:0:0:
167,86,75488,6,0,P|204:93|256:99,1,71.4999967269899,0|4,3:0|0:3,0:0:0:0:
148,199,75858,2,0,P|183:203|218:210,1,71.4999967269899,0|0,3:0|0:0,0:0:0:0:
438,0,76229,102,0,P|420:49|391:158,1,142.99999345398,4|2,3:2|0:0,0:0:0:0:
400,141,76784,1,2,0:0:0:0:
403,145,76969,2,0,P|436:184|516:263,1,142.99999345398,0|2,3:2|0:0,0:0:0:0:
506,247,77525,1,2,0:0:0:0:
512,248,77710,2,0,P|494:297|465:406,1,142.99999345398,0|10,3:2|0:0,0:0:0:0:
470,384,78173,1,10,0:0:0:0:
470,384,78266,1,8,0:0:0:0:
292,225,78451,1,8,0:0:0:0:
391,336,78636,6,0,P|382:283|376:256,1,71.4999967269899,8|8,0:0|0:3,0:0:0:0:
296,318,79006,1,0,3:0:0:0:
54,301,79192,102,0,P|38:223|20:152,1,142.99999345398,4|0,3:1|3:0,0:0:0:0:
117,169,79747,1,0,0:0:0:0:
60,15,79932,6,0,P|68:49|85:103,1,71.4999967269899,8|0,0:0|0:0,0:0:0:0:
226,248,80303,2,0,P|218:214|201:160,1,71.4999967269899
316,66,80673,101,4,3:1:0:0:
387,202,80858,1,0,0:0:0:0:
468,88,81043,2,0,P|428:101|377:115,1,71.4999967269899,0|0,3:0|0:0,0:0:0:0:
176,351,81414,2,0,P|253:327|326:313,1,142.99999345398,12|0,0:0|0:0,0:0:0:0:
374,241,81969,1,0,0:0:0:0:
151,142,82155,1,4,3:1:0:0:
151,142,82525,70,0,P|154:106|160:71,1,71.4999967269899,0|0,3:0|0:0,0:0:0:0:
65,178,82895,2,0,P|61:213|55:248,1,71.4999967269899,12|0,0:0|0:0,0:0:0:0:
11,1,83266,6,0,P|7:44|0:86,1,85.2500006504059,8|0,0:0|0:0,0:0:0:0:
199,384,83636,2,0,P|203:341|211:300,1,85.2500006504059,12|0,0:1|0:0,0:0:0:0:
452,114,84006,102,0,P|445:163|440:213,1,98.9999969787599,8|0,0:3|0:0,0:0:0:0:
297,282,84377,1,12,0:0:0:0:
168,173,84562,1,8,0:0:0:0:
12,229,84747,2,0,P|3:304|-9:368,1,98.9999969787599,4|0,0:3|0:0,0:0:0:0:
247,139,85117,6,0,P|256:54|256:-10,1,98.9999969787599,4|0,3:1|0:0,0:0:0:0:
386,272,85488,2,0,P|377:357|377:421,1,98.9999969787599,0|0,3:0|0:0,0:0:0:0:
55,294,85858,2,0,P|65:187|68:105,1,148.49999546814,12|0,0:0|0:0,0:0:0:0:
67,146,86229,101,0,3:0:0:0:
203,235,86414,1,8,0:0:0:0:
311,57,86599,2,0,P|220:70|174:75,1,98.9999969787599,0|0,3:2|0:0,0:0:0:0:
161,149,86969,5,0,3:0:0:0:
293,248,87155,1,0,3:0:0:0:
43,358,87340,2,0,P|177:331|282:325,1,197.99999395752,12|0,0:2|3:0,0:0:0:0:
332,337,87895,101,8,0:0:0:0:
384,89,88080,2,0,P|433:82|482:75,1,98.9999969787599,4|0,3:1|0:0,0:0:0:0:
467,273,88451,6,0,P|451:191|444:138,1,98.9999969787599,0|0,3:1|0:0,0:0:0:0:
224,12,88821,2,0,P|239:93|251:164,1,148.49999546814,12|0,0:0|0:0,0:0:0:0:
250,158,89192,1,0,3:0:0:0:
236,334,89377,101,10,0:0:0:0:
236,334,89469,1,2,0:0:0:0:
236,334,89562,2,0,P|188:327|118:320,1,98.9999969787599,0|8,3:0|0:0,0:0:0:0:
93,221,89932,2,0,P|148:228|217:234,1,98.9999969787599,0|0,3:0|0:0,0:0:0:0:
283,247,90303,5,8,0:0:0:0:
45,308,90673,1,0,3:0:0:0:
50,26,91043,102,0,P|66:103|74:155,1,98.9999969787599,4|0,3:1|0:0,0:0:0:0:
178,164,91414,2,0,P|162:87|154:35,1,98.9999969787599,0|0,3:1|0:0,0:0:0:0:
38,296,91784,2,0,P|127:276|248:262,1,197.99999395752,12|0,0:0|3:0,0:0:0:0:
264,170,92340,5,8,0:0:0:0:
406,354,92525,2,0,P|342:343|283:338,1,98.9999969787599,0|0,3:0|0:0,0:0:0:0:
232,262,92895,101,0,3:0:0:0:
326,245,93080,1,0,3:0:0:0:
264,170,93266,1,12,0:0:0:0:
147,279,93451,5,4,0:3:0:0:
352,345,93636,1,0,3:0:0:0:
413,138,93821,1,8,0:0:0:0:
205,75,94006,2,0,P|18:126|24:338,1,395.999987915039,4|12,3:2|0:1,0:0:0:0:
0,303,95117,101,0,3:0:0:0:
206,372,95303,1,8,0:0:0:0:
279,175,95488,1,0,3:0:0:0:
101,351,95673,6,0,P|82:261|46:136,1,197.99999395752,12|0,0:1|3:0,0:0:0:0:
53,158,96136,1,0,3:0:0:0:
53,158,96229,1,12,0:2:0:0:
262,0,96414,2,0,P|283:81|301:135,1,98.9999969787599,8|4,0:3|0:3,0:0:0:0:
384,138,96784,1,0,3:0:0:0:
476,42,96969,102,0,P|413:37|341:28,1,98.9999969787599,4|0,3:1|0:0,0:0:0:0:
146,178,97340,2,0,P|209:183|281:192,1,98.9999969787599,0|0,3:0|0:0,0:0:0:0:
389,384,97710,2,0,P|313:371|185:365,1,197.99999395752,12|0,0:0|0:0,0:0:0:0:
93,372,98266,1,0,3:0:0:0:
25,297,98451,6,0,P|14:181|0:81,2,197.99999395752,4|0|8,3:2|3:0|0:0,0:0:0:0:
100,133,99377,2,0,P|107:74|109:5,1,98.9999969787599,0|0,3:0|0:0,0:0:0:0:
198,92,99747,1,0,3:0:0:0:
469,29,99932,102,0,P|419:35|371:44,1,98.9999969787599,4|0,3:1|0:0,0:0:0:0:
198,92,100303,1,0,3:0:0:0:
272,16,100488,1,0,3:0:0:0:
299,119,100673,2,0,P|308:196|326:307,1,148.49999546814,12|0,0:0|0:0,0:0:0:0:
318,266,101043,1,0,3:0:0:0:
489,384,101229,1,10,0:0:0:0:
489,384,101321,1,2,0:0:0:0:
489,384,101414,2,0,P|478:318|473:265,1,98.9999969787599,0|8,3:0|0:0,0:0:0:0:
507,181,101784,6,0,P|441:192|388:197,1,98.9999969787599,0|0,3:0|0:0,0:0:0:0:
244,377,102155,2,0,P|346:356|399:351,1,148.49999546814,12|0,0:0|0:0,0:0:0:0:
390,351,102525,1,0,3:0:0:0:
245,200,102710,1,8,0:0:0:0:
51,285,102895,102,0,P|68:190|87:54,1,197.99999395752,4|0,3:1|3:0,0:0:0:0:
489,1,103636,2,0,P|472:96|453:232,1,197.99999395752,12|0,0:2|3:0,0:0:0:0:
434,384,104192,1,10,0:0:0:0:
434,384,104284,1,2,0:0:0:0:
434,384,104377,1,0,3:0:0:0:
253,312,104562,6,0,P|266:231|270:191,1,98.9999969787599,12|0,0:0|3:0,0:0:0:0:
360,181,104932,1,0,3:0:0:0:
202,0,105117,101,12,0:0:0:0:
360,181,105303,1,8,0:0:0:0:
125,127,105488,1,8,0:0:0:0:
347,33,105673,1,8,0:0:0:0:
223,240,105858,1,4,3:1:0:0:
256,192,105951,12,4,108821,3:2:0:0:
258,354,117710,37,4,3:2:0:0:
258,354,118080,2,0,P|260:299|257:244,1,110,0|8,0:2|0:0,0:0:0:0:
114,195,118821,2,0,P|141:193|168:190,1,55,0|2,0:0|0:0,0:0:0:0:
255,140,119192,2,0,P|253:59|258:-3,2,110,0|0|8,3:2|3:0|0:0,0:0:0:0:
343,190,120117,2,0,P|370:193|398:195,1,55,2|0,0:0|0:0,0:0:0:0:
493,165,120488,1,2,0:0:0:0:
474,264,120673,6,0,P|231:223|42:262,1,440,0|4,3:2|3:2,0:0:0:0:
256,131,122525,1,0,3:0:0:0:
158,133,122895,102,0,P|157:105|154:78,1,55,8|2,0:0|0:0,0:0:0:0:
358,78,123266,2,0,P|355:105|355:133,1,55,0|2,0:0|0:0,0:0:0:0:
434,197,123636,6,0,P|287:150|203:279,1,330,4|0,3:2|0:0,0:0:0:0:
256,365,124932,1,2,0:0:0:0:
309,279,125117,2,0,P|225:150|78:196,1,330,0|2,3:2|0:0,0:0:0:0:
149,33,126599,102,0,P|253:56|386:22,2,220,4|8|0,3:2|0:0|3:0,0:0:0:0:
256,149,128266,2,0,P|257:185|255:219,1,55,10|0,0:0|3:0,0:0:0:0:
255,302,128636,1,2,0:0:0:0:
171,352,128821,2,0,P|250:345|340:355,1,165,12|2,0:0|0:0,0:0:0:0:
334,353,129469,1,2,0:0:0:0:
334,353,129562,5,4,3:1:0:0:
420,309,129747,1,2,0:0:0:0:
341,258,129932,2,0,P|340:218|337:190,1,55
397,132,130303,2,0,P|395:105|396:78,1,55,8|0,0:0|0:0,0:0:0:0:
320,27,130673,1,2,0:0:0:0:
130,55,130858,2,0,P|132:82|132:109,1,55,0|0,0:0|3:0,0:0:0:0:
157,199,131229,1,2,0:0:0:0:
310,175,131414,2,0,P|308:147|308:120,1,55,0|0,3:0|0:0,0:0:0:0:
218,79,131784,2,0,P|220:106|220:133,1,55,14|0,0:0|0:0,0:0:0:0:
198,321,132155,1,0,0:0:0:0:
106,302,132340,101,2,0:0:0:0:
106,302,132432,1,2,0:0:0:0:
106,302,132525,2,0,P|103:273|103:239,1,55,4|0,3:1|0:0,0:0:0:0:
219,133,132895,2,0,P|221:160|221:187,1,55,2|0,0:0|0:0,0:0:0:0:
350,331,133266,2,0,P|348:303|348:276,1,55,8|2,0:0|0:0,0:0:0:0:
385,138,133636,1,0,0:0:0:0:
470,169,133821,2,0,P|472:196|472:223,1,55,2|0,0:0|3:0,0:0:0:0:
433,307,134192,1,2,0:0:0:0:
348,276,134377,2,0,P|346:248|346:221,1,55,0|0,3:0|0:0,0:0:0:0:
385,138,134747,2,0,P|384:110|382:83,1,55,14|0,0:0|0:0,0:0:0:0:
343,0,135117,1,2,0:0:0:0:
10,55,135488,6,0,P|54:56|89:54,1,55,4|2,3:1|0:0,0:0:0:0:
150,33,135858,1,2,0:0:0:0:
106,205,136043,1,0,0:0:0:0:
183,122,136229,2,0,P|138:120|103:122,1,55,8|2,0:1|0:0,0:0:0:0:
42,142,136599,1,2,0:0:0:0:
81,292,136784,2,0,P|125:293|160:291,1,55,0|0,0:0|3:2,0:0:0:0:
253,368,137155,2,0,P|208:366|173:368,1,55,2|0,0:0|3:2,0:0:0:0:
112,382,137525,1,2,0:0:0:0:
225,277,137710,2,0,P|253:278|280:277,1,55,8|0,0:0|0:2,0:0:0:0:
76,186,138080,2,0,P|31:184|-4:186,1,55,2|0,0:0|0:2,0:0:0:0:
232,0,138451,102,0,P|220:69|202:146,1,110,4|0,3:2|0:0,0:0:0:0:
278,247,139006,1,0,0:0:0:0:
278,247,139192,2,0,P|288:169|307:91,1,110,8|0,0:2|0:0,0:0:0:0:
366,56,139747,5,2,0:0:0:0:
366,56,139840,1,2,0:0:0:0:
366,56,139932,2,0,P|324:50|292:46,1,55,4|0,3:1|0:0,0:0:0:0:
143,181,140303,2,0,P|183:184|214:188,1,55,0|0,3:1|0:0,0:0:0:0:
342,178,140673,101,8,0:0:0:0:
253,118,140858,1,8,0:3:0:0:
171,55,141043,2,0,P|173:26|176:-1,1,55,4|0,0:3|3:0,0:0:0:0:
28,337,141414,5,4,3:1:0:0:
28,337,141784,101,2,0:0:0:0:
28,337,141969,1,2,0:0:0:0:
148,296,142155,1,0,3:0:0:0:
148,296,142525,5,2,0:0:0:0:
148,296,142710,1,2,0:0:0:0:
248,371,142895,1,0,3:0:0:0:
248,371,143266,101,2,0:0:0:0:
248,371,143451,1,2,0:0:0:0:
360,322,143636,2,0,P|365:278|371:239,1,71.4999967269899,12|0,0:0|0:0,0:0:0:0:
448,335,144006,2,0,P|451:299|456:264,1,71.4999967269899
511,50,144377,5,4,3:1:0:0:
511,50,144747,101,2,0:0:0:0:
511,50,144932,1,2,0:0:0:0:
388,20,145117,1,0,3:0:0:0:
388,20,145488,5,2,0:0:0:0:
388,20,145673,1,2,0:0:0:0:
358,143,145858,1,0,3:0:0:0:
358,143,146229,101,2,0:0:0:0:
358,143,146414,1,2,0:0:0:0:
478,172,146599,2,0,P|481:210|488:254,2,71.4999967269899,4|0|0,3:2|0:0|3:0,0:0:0:0:
231,376,147340,5,4,3:1:0:0:
231,376,147710,101,2,0:0:0:0:
231,376,147895,1,2,0:0:0:0:
145,286,148080,1,0,3:0:0:0:
145,286,148451,5,2,0:0:0:0:
145,286,148636,1,2,0:0:0:0:
179,172,148821,1,0,3:0:0:0:
179,172,149192,101,2,0:0:0:0:
179,172,149377,1,2,0:0:0:0:
87,93,149562,2,0,P|39:86|-7:78,1,71.4999967269899,4|0,3:2|0:0,0:0:0:0:
100,10,149932,2,0,P|64:4|29:-1,1,71.4999967269899,0|0,3:2|0:0,0:0:0:0:
213,202,150303,6,0,P|229:109|243:57,1,142.99999345398,4|0,3:1|0:0,0:0:0:0:
331,20,151043,1,0,3:0:0:0:
425,55,151414,102,0,P|434:105|449:155,1,71.4999967269899,8|0,0:0|0:0,0:0:0:0:
308,260,151784,2,0,P|299:210|284:160,1,71.4999967269899,8|4,0:0|0:3,0:0:0:0:
259,97,152155,1,0,3:0:0:0:
472,219,152525,6,0,P|422:228|372:243,1,71.4999967269899,4|0,3:2|0:0,0:0:0:0:
259,97,152895,2,0,P|309:88|359:73,1,71.4999967269899,0|0,3:2|0:0,0:0:0:0:
425,55,153266,1,4,3:1:0:0:
425,55,153636,101,2,0:0:0:0:
425,55,153821,1,2,0:0:0:0:
462,166,154006,1,0,3:0:0:0:
462,166,154377,5,2,0:0:0:0:
462,166,154562,1,2,0:0:0:0:
381,255,154747,1,4,3:2:0:0:
381,255,155117,101,2,0:0:0:0:
381,255,155302,1,2,0:0:0:0:
418,366,155488,2,0,P|363:358|328:357,1,71.4999967269899,8|0,0:0|0:0,0:0:0:0:
275,283,155858,2,0,P|239:280|204:274,1,71.4999967269899,0|0,3:0|0:0,0:0:0:0:
43,368,156229,5,4,3:1:0:0:
43,368,156599,101,2,0:0:0:0:
43,368,156784,1,2,0:0:0:0:
6,257,156969,1,0,3:0:0:0:
6,257,157340,6,0,P|19:172|30:57,1,142.99999345398,12|0,0:0|3:0,0:0:0:0:
32,17,157895,1,0,0:0:0:0:
228,69,158080,2,0,P|219:118|213:182,1,71.4999967269899,8|0,0:0|3:0,0:0:0:0:
111,173,158451,2,0,P|120:124|126:60,1,71.4999967269899,8|4,0:0|0:3,0:0:0:0:
122,102,158821,1,0,3:0:0:0:
196,238,159006,1,0,3:0:0:0:
315,136,159192,102,0,P|392:120|486:97,1,142.99999345398,4|0,3:1|3:0,0:0:0:0:
303,293,159747,1,2,0:0:0:0:
303,293,159840,1,2,0:0:0:0:
303,293,159932,2,0,P|291:242|282:209,1,71.4999967269899,12|0,0:0|0:0,0:0:0:0:
177,134,160303,2,0,P|189:185|198:218,1,71.4999967269899,0|0,3:0|0:0,0:0:0:0:
331,384,160673,5,4,3:1:0:0:
371,224,160858,1,0,0:0:0:0:
464,326,161043,2,0,P|413:315|369:310,1,71.4999967269899,0|0,3:0|0:0,0:0:0:0:
177,134,161414,2,0,P|212:142|248:147,1,71.4999967269899,12|0,0:0|0:0,0:0:0:0:
433,12,161784,2,0,P|397:3|361:0,1,71.4999967269899,0|0,3:0|0:0,0:0:0:0:
23,207,162155,53,12,0:1:0:0:
429,349,162525,5,0,3:0:0:0:
246,9,162895,101,4,3:2:0:0:
91,304,163266,5,0,3:0:0:0:
432,227,163636,101,12,0:1:0:0:
173,98,163821,1,8,0:0:0:0:
216,346,164006,5,8,0:3:0:0:
359,157,164192,1,4,0:3:0:0:
164,201,164377,101,4,3:2:0:0:
314,330,164562,1,4,0:3:0:0:
257,155,164747,5,0,3:0:0:0:
251,253,164932,1,0,3:0:0:0:
336,211,165117,102,0,P|381:205|473:201,1,98.9999969787599,4|0,3:1|0:0,0:0:0:0:
228,71,165488,2,0,P|183:77|91:81,1,98.9999969787599,0|0,3:1|0:0,0:0:0:0:
108,373,165858,2,0,P|218:356|293:354,1,148.49999546814,12|0,0:0|0:0,0:0:0:0:
255,354,166229,1,0,3:0:0:0:
75,240,166414,1,8,0:0:0:0:
234,118,166599,1,0,3:0:0:0:
129,80,166784,6,0,P|139:129|149:178,1,98.9999969787599,8|0,0:0|3:0,0:0:0:0:
50,147,167155,1,0,3:0:0:0:
275,312,167340,2,0,P|255:214|228:91,1,197.99999395752,12|0,0:2|3:0,0:0:0:0:
313,53,167895,1,0,3:0:0:0:
428,158,168080,102,0,P|370:151|308:149,1,98.9999969787599,4|0,3:1|0:0,0:0:0:0:
118,14,168451,2,0,P|176:21|238:23,1,98.9999969787599,0|0,3:0|0:0,0:0:0:0:
313,53,168821,1,8,0:0:0:0:
277,236,169006,2,0,P|268:299|263:356,1,98.9999969787599,0|0,3:0|0:0,0:0:0:0:
450,380,169377,5,10,0:0:0:0:
450,380,169469,1,2,0:0:0:0:
450,380,169562,1,4,3:1:0:0:
383,207,169747,1,8,0:0:0:0:
264,334,169932,2,0,P|326:320|391:315,1,98.9999969787599,0|0,3:0|0:0,0:0:0:0:
512,93,170303,101,8,0:0:0:0:
383,207,170488,1,0,3:0:0:0:
317,46,170673,1,0,3:0:0:0:
192,329,171043,6,0,P|182:260|171:203,1,98.9999969787599,4|0,3:1|0:0,0:0:0:0:
89,186,171414,1,0,3:0:0:0:
16,254,171599,1,0,3:0:0:0:
0,110,171784,2,0,P|84:98|212:70,1,197.99999395752,12|0,0:0|3:0,0:0:0:0:
290,41,172340,101,8,0:0:0:0:
339,204,172525,2,0,P|386:194|436:188,1,98.9999969787599,0|8,3:0|0:0,0:0:0:0:
501,324,172895,5,0,3:0:0:0:
408,288,173080,1,0,3:0:0:0:
347,364,173266,101,8,0:0:0:0:
501,324,173451,1,4,0:3:0:0:
512,167,173636,1,0,3:0:0:0:
365,107,173821,1,8,0:0:0:0:
262,229,174006,2,0,P|133:260|69:6,1,395.999987915039,4|12,3:2|0:1,0:0:0:0:
31,57,175117,5,0,3:0:0:0:
245,174,175303,1,8,0:0:0:0:
0,252,175488,1,0,3:0:0:0:
225,366,175673,2,0,P|366:345|475:341,1,197.99999395752,12|0,0:1|3:0,0:0:0:0:
421,341,176136,1,0,3:0:0:0:
421,341,176229,101,8,0:0:0:0:
512,274,176414,1,8,0:3:0:0:
407,234,176599,1,4,0:3:0:0:
497,166,176784,1,0,3:0:0:0:
394,124,176969,2,0,P|400:59|403:-3,1,98.9999969787599,4|0,3:1|0:0,0:0:0:0:
212,190,177340,2,0,P|206:255|203:317,1,98.9999969787599,0|0,3:0|0:0,0:0:0:0:
477,362,177710,2,0,P|485:255|503:130,1,197.99999395752,12|0,0:0|0:0,0:0:0:0:
512,65,178266,5,10,0:0:0:0:
512,65,178358,1,2,0:0:0:0:
512,65,178451,2,0,P|403:64|271:43,2,197.99999395752,4|0|8,3:2|3:0|0:0,0:0:0:0:
269,151,179377,2,0,P|208:141|124:145,1,98.9999969787599,0|0,3:0|0:0,0:0:0:0:
87,68,179747,1,0,3:0:0:0:
0,224,179932,102,0,P|6:273|10:322,1,98.9999969787599,4|0,3:1|0:0,0:0:0:0:
111,367,180303,1,0,3:0:0:0:
171,141,180488,1,0,3:0:0:0:
283,306,180673,2,0,P|268:215|264:137,1,148.49999546814,12|0,0:0|0:0,0:0:0:0:
264,158,181043,1,0,3:0:0:0:
404,204,181229,5,10,0:0:0:0:
404,204,181321,1,2,0:0:0:0:
404,204,181414,1,0,3:0:0:0:
316,52,181599,1,8,0:0:0:0:
171,141,181784,2,0,P|114:138|45:131,1,98.9999969787599,0|0,3:0|0:0,0:0:0:0:
350,295,182155,2,0,P|407:298|535:313,1,148.49999546814,12|0,0:0|0:0,0:0:0:0:
497,307,182525,1,0,3:0:0:0:
263,357,182710,101,2,0:0:0:0:
263,357,182803,1,2,0:0:0:0:
263,357,182895,2,0,P|257:292|252:251,1,98.9999969787599,4|0,3:1|0:0,0:0:0:0:
215,162,183266,2,0,P|209:112|204:63,1,98.9999969787599,0|2,3:1|0:0,0:0:0:0:
204,63,183543,1,2,0:0:0:0:
204,63,183636,6,0,P|76:48|11:218,1,296.99999093628,12|8,0:1|0:0,0:0:0:0:
0,178,184284,1,8,0:0:0:0:
0,178,184377,1,12,0:0:0:0:
83,159,184562,1,8,0:0:0:0:
161,194,184747,1,8,0:0:0:0:
188,274,184932,1,8,0:0:0:0:
163,355,185117,2,0,P|106:348|53:346,1,98.9999969787599,12|8,0:0|0:3,0:3:0:0:
244,211,185488,2,0,P|301:218|354:220,1,98.9999969787599,4|0,0:3|3:3,0:3:0:0:
34,40,185858,85,12,0:1:0:0:
60,185,186043,1,4,0:3:0:0:
176,87,186229,1,0,3:0:0:0:
93,106,186414,37,12,0:2:0:0:
119,251,186599,1,4,0:3:0:0:
235,153,186785,1,0,3:0:0:0:
150,170,186969,69,12,0:1:0:0:
176,315,187154,1,4,0:3:0:0:
292,217,187340,1,0,3:0:0:0:
208,233,187525,37,12,0:2:0:0:
234,378,187710,1,4,0:3:0:0:
350,280,187896,1,0,3:0:0:0:
266,299,188080,69,10,0:0:0:0:
251,265,188173,1,2,0:0:0:0:
249,228,188266,1,10,0:0:0:0:
259,192,188358,1,2,0:0:0:0:
282,163,188451,1,10,0:0:0:0:
313,143,188543,1,2,0:0:0:0:
349,136,188636,1,10,0:0:0:0:
386,141,188729,1,2,0:0:0:0:
416,162,188821,37,4,3:1:0:0:
505,124,189006,1,0,0:0:0:0:
429,62,189192,2,0,P|358:54|310:45,1,98.9999969787599
407,259,189562,2,0,P|478:267|526:276,1,98.9999969787599,8|0,0:0|0:0,0:0:0:0:
416,162,189932,85,8,0:1:0:0:
416,162,190117,1,0,3:1:0:0:
33,344,190488,1,8,0:1:0:0:
33,344,190673,1,4,3:1:0:0:
126,378,190858,102,0,P|116:318|109:275,1,98.9999969787599,2|8,0:0|0:0,0:0:0:0:
22,247,191229,2,0,P|12:187|5:144,1,98.9999969787599,2|0,0:0|0:0,0:0:0:0:
33,0,191599,37,2,0:0:0:0:
33,0,191692,1,2,0:0:0:0:
33,0,191784,2,0,P|110:10|168:12,1,98.9999969787599,4|0,3:2|0:0,0:0:0:0:
165,190,192155,1,0,0:0:0:0:
216,38,192340,1,0,0:0:0:0:
331,139,192525,2,0,P|254:129|196:127,1,98.9999969787599,8|0,0:2|0:0,0:0:0:0:
148,99,192895,85,8,0:1:0:0:
148,99,193080,1,0,3:0:0:0:
411,357,193451,1,8,0:0:0:0:
411,357,193636,1,4,3:1:0:0:
479,290,193821,102,0,P|474:240|471:191,1,98.9999969787599,2|8,0:0|0:0,0:0:0:0:
310,202,194192,1,8,0:3:0:0:
377,49,194377,2,0,P|381:98|384:147,1,98.9999969787599,2|0,3:2|0:0,0:0:0:0:
280,353,194747,37,4,3:1:0:0:
209,222,194932,1,0,0:0:0:0:
100,317,195117,2,0,P|34:323|-18:332,1,98.9999969787599
135,137,195488,2,0,P|201:131|253:122,1,98.9999969787599,8|0,0:0|0:0,0:0:0:0:
117,227,195858,85,8,0:1:0:0:
117,227,196043,1,0,3:0:0:0:
438,23,196414,1,8,0:0:0:0:
438,23,196599,1,4,3:1:0:0:
512,85,196784,102,0,P|506:157|505:200,1,98.9999969787599,2|8,0:0|0:0,0:0:0:0:
327,332,197155,2,0,P|333:260|334:217,1,98.9999969787599,2|8,0:0|0:3,0:0:0:0:
247,273,197525,37,2,0:0:0:0:
247,273,197617,1,2,0:0:0:0:
247,273,197710,1,4,3:2:0:0:
347,144,197895,1,0,0:0:0:0:
414,291,198080,2,0,P|473:294|520:302,1,98.9999969787599,8|0,0:0|0:3,0:3:0:0:
266,182,198451,2,0,P|207:179|160:171,1,98.9999969787599,8|8,0:0|0:3,0:3:0:0:
92,328,198821,85,4,0:3:0:0:
92,328,199006,1,4,3:1:0:0:
0,15,199377,1,0,3:0:0:0:
0,15,199562,1,4,0:3:0:0:
92,42,199747,102,0,P|82:113|77:162,1,98.9999969787599,8|8,0:3|0:0,0:0:0:0:
0,235,200117,1,8,0:3:0:0:
92,328,200303,2,0,P|152:324|211:324,1,98.9999969787599,4|0,0:3|3:0,0:0:0:0:
279,355,200673,37,4,3:1:0:0:
279,355,201043,1,0,3:0:0:0:
279,355,201414,2,0,P|390:346|505:348,1,197.99999395752,8|0,0:0|0:0,0:0:0:0:
512,262,201969,2,0,P|501:182|360:143,1,197.99999395752,4|0,3:2|0:0,0:0:0:0:
321,158,202525,1,0,3:0:0:0:
276,41,202710,1,0,3:0:0:0:
201,140,202895,2,0,P|133:148|83:155,1,98.9999969787599,8|0,0:0|0:0,0:0:0:0:
52,64,203266,2,0,P|120:56|170:49,1,98.9999969787599,0|0,3:0|0:0,0:0:0:0:
58,237,203636,69,4,3:1:0:0:
200,384,204006,1,0,3:0:0:0:
405,322,204377,2,0,P|415:223|431:125,1,197.99999395752,8|0,0:0|0:0,0:0:0:0:
252,4,204932,2,0,P|241:102|225:200,1,197.99999395752,4|0,3:2|0:0,0:0:0:0:
266,383,205488,38,0,P|271:333|279:284,1,98.9999969787599,0|2,3:0|0:0,0:0:0:0:
324,197,205858,2,0,P|334:131|340:58,1,98.9999969787599,12|2,0:0|0:0,0:0:0:0:
338,99,206136,1,2,0:0:0:0:
338,99,206229,1,0,0:0:0:0:
323,0,206414,1,0,0:0:0:0:
512,26,206599,1,4,3:1:0:0:
512,26,206969,70,0,P|446:35|373:38,1,98.9999969787599,0|0,3:0|0:0,0:0:0:0:
338,236,207340,2,0,P|404:227|477:224,1,98.9999969787599,8|0,0:0|0:0,0:0:0:0:
424,131,207710,1,12,0:0:0:0:
258,367,208080,38,0,P|249:301|245:224,1,115.49999647522,0|8,3:0|0:0,0:0:0:0:
2,156,208451,2,0,P|11:222|15:299,1,115.49999647522,0|0,0:0|3:0,0:0:0:0:
131,261,208821,1,8,0:0:0:0:
24,384,209006,70,0,P|81:376|138:371,1,115.49999647522,0|0,0:0|3:0,0:0:0:0:
256,189,209377,1,0,0:0:0:0:
256,189,209469,1,0,0:0:0:0:
256,189,209562,1,4,3:1:0:0:
205,62,209747,1,2,0:0:0:0:
307,322,209932,1,0,3:0:0:0:
386,141,210117,1,2,0:0:0:0:
126,243,210303,1,12,0:0:0:0:
256,189,210488,85,2,0:0:0:0:
489,353,210858,1,4,3:1:0:0:
23,31,211229,1,8,0:0:0:0:
65,118,211414,69,8,0:3:0:0:
8,195,211599,1,0,3:0:0:0:
8,195,211692,1,0,3:0:0:0:
8,195,211784,2,0,P|3:265|-3:313,1,98.9999969787599,8|8,0:0|0:3,0:0:0:0:
92,303,212155,2,0,P|96:232|103:184,1,98.9999969787599,4|0,0:3|3:0,0:0:0:0:
135,120,212525,70,0,B|101:103|82:42|127:16|161:11|179:-3|256:20|217:95|297:129|246:170|152:199|112:206|94:307|174:364|247:447|348:433|413:373|437:264|410:202|365:174|329:149|270:151,1,844.800020625001,4|2,3:1|0:0,0:0:0:0:
348,119,226969,38,0,P|341:74|337:42,1,66,2|0,0:0|0:0,0:0:0:0:
338,53,227340,22,0,P|411:48|527:29,2,176,6|2|2,3:2|3:2|3:2,0:0:0:0:
255,56,229192,1,0,0:0:0:0:
191,110,229562,1,2,3:2:0:0:
179,192,229932,1,2,0:0:0:0:
179,192,230303,86,0,P|191:264|197:294,1,88,4|0,3:2|0:0,0:0:0:0:
218,356,231043,1,2,3:2:0:0:
65,384,231414,1,2,0:0:0:0:
65,384,231599,1,2,0:0:0:0:
65,384,231785,2,0,P|53:312|47:282,1,88,0|0,3:2|0:0,0:0:0:0:
26,220,232525,1,2,3:2:0:0:
49,141,232895,2,0,P|90:136|111:132,1,44,0|2,0:0|0:0,0:0:0:0:
246,44,233266,6,0,P|186:52|119:58,1,121.000003692627,4|0,3:1|0:0,0:0:0:0:
40,57,233821,1,2,0:0:0:0:
177,137,234006,2,0,P|183:178|189:213,1,60.5000018463135,4|0,3:2|0:0,0:0:0:0:
201,295,234377,5,0,0:0:0:0:
281,232,234562,1,2,0:0:0:0:
293,329,234747,2,0,P|340:325|383:322,1,76.9999976501466,4|0,3:1|0:0,0:0:0:0:
499,157,235117,102,0,P|440:163|397:166,1,88,2|0,0:0|0:0,0:0:0:0:
412,165,235395,1,8,0:0:0:0:
412,165,235488,1,12,0:0:0:0:
221,155,235673,5,8,0:3:0:0:
227,38,235858,2,0,P|307:33|389:22,1,148.49999546814,4|0,0:3|0:0,0:0:0:0:
374,24,236229,53,4,3:1:0:0:
463,59,236414,1,0,3:0:0:0:
457,153,236599,1,8,0:1:0:0:
369,175,236784,1,2,0:0:0:0:
369,175,236877,1,0,0:0:0:0:
369,175,236969,1,8,0:0:0:0:
313,96,237155,1,8,0:3:0:0:
225,117,237340,1,4,0:3:0:0:
215,210,237525,1,0,3:0:0:0:
48,293,237895,5,0,3:0:0:0:
184,366,238080,1,8,0:0:0:0:
294,257,238266,1,8,0:0:0:0:
225,117,238451,1,8,0:0:0:0:
336,12,238636,1,8,0:0:0:0:
471,83,238821,1,8,0:0:0:0:
445,234,239006,1,8,0:0:0:0:
445,234,239932,53,8,0:0:0:0:
391,224,240056,5,8,0:3:0:0:
348,254,240179,101,8,0:3:0:0:
336,305,240303,5,4,0:3:0:0:
361,351,240426,101,4,0:3:0:0:
411,364,240550,5,0,3:0:0:0:
456,341,240673,102,0,P|474:225|511:72,1,230.99999295044,4|0,3:1|0:0,0:0:0:0:
256,192,241228,1,0,3:0:0:0:
56,43,241413,2,0,P|38:159|1:312,1,230.99999295044,12|0,0:1|0:0,0:0:0:0:
256,192,241969,1,8,0:0:0:0:
285,333,242154,5,4,3:2:0:0:
227,51,242339,1,8,0:0:0:0:
351,248,242524,2,0,P|420:236|500:231,1,115.49999647522,0|0,3:0|0:0,0:0:0:0:
161,136,242895,2,0,P|92:148|12:153,1,115.49999647522,12|0,0:0|0:0,0:0:0:0:
131,378,243265,101,4,0:3:0:0:
256,192,243450,1,0,3:0:0:0:
481,346,243635,6,0,P|470:278|462:204,1,115.49999647522,4|0,3:1|0:0,0:0:0:0:
322,134,244006,1,0,3:0:0:0:
190,250,244191,1,0,3:0:0:0:
30,37,244376,2,0,P|41:105|49:179,1,115.49999647522,12|0,0:0|0:0,0:0:0:0:
227,351,244747,101,0,3:0:0:0:
256,192,244932,1,10,0:0:0:0:
256,192,245024,1,2,0:0:0:0:
256,192,245117,1,0,3:0:0:0:
285,33,245302,1,8,0:0:0:0:
440,87,245487,6,0,P|423:163|416:224,1,115.49999647522,0|0,3:0|0:0,0:0:0:0:
72,297,245858,2,0,P|89:221|96:160,1,115.49999647522,8|0,0:0|0:0,0:0:0:0:
256,192,246228,1,0,3:0:0:0:
441,284,246598,102,0,P|350:273|287:268,1,115.49999647522,4|0,3:1|0:0,0:0:0:0:
71,100,246969,2,0,P|162:111|225:116,1,115.49999647522,0|0,3:1|0:0,0:0:0:0:
277,61,247339,1,8,0:0:0:0:
235,323,247524,1,0,3:0:0:0:
256,192,247710,5,0,3:0:0:0:
130,243,247895,1,10,0:0:0:0:
130,243,247987,1,2,0:0:0:0:
130,243,248080,2,0,P|124:300|116:357,1,115.49999647522,0|8,3:1|0:0,0:0:0:0:
382,141,248450,2,0,P|387:83|395:26,1,115.49999647522,0|0,3:1|0:0,0:0:0:0:
205,66,248821,101,8,0:0:0:0:
130,243,249006,1,4,0:3:0:0:
307,318,249191,1,0,3:0:0:0:
382,141,249376,1,8,0:0:0:0:
86,119,249561,5,6,3:1:0:0:
189,369,249747,1,0,3:0:0:0:
439,266,249932,1,2,3:1:0:0:
336,15,250118,1,0,3:0:0:0:
257,191,250302,101,14,0:1:0:0:
257,191,250673,1,0,3:0:0:0:
321,372,250858,5,10,0:0:0:0:
321,372,250950,1,2,0:0:0:0:
321,372,251043,1,0,3:0:0:0:
445,225,251228,1,14,0:1:0:0:
66,158,251413,101,4,0:3:0:0:
132,339,251598,1,0,3:0:0:0:
379,44,251784,5,14,0:1:0:0:
190,11,251968,1,4,0:3:0:0:
257,191,252154,101,4,0:3:0:0:
257,191,252339,1,0,3:0:0:0:
257,191,252524,2,0,P|346:181|421:178,1,115.49999647522,4|0,3:1|0:0,0:0:0:0:
192,55,252895,2,0,P|103:65|28:68,1,115.49999647522,0|0,3:1|0:0,0:0:0:0:
13,373,253265,2,0,P|142:353|260:346,1,230.99999295044,12|0,0:0|0:0,0:0:0:0:
318,276,253821,1,8,0:0:0:0:
460,383,254006,6,0,P|470:301|481:245,1,115.49999647522,0|0,3:0|0:0,0:0:0:0:
238,134,254376,2,0,P|228:216|217:272,1,115.49999647522,0|0,3:0|0:0,0:0:0:0:
218,2,254747,101,8,0:0:0:0:
345,48,254932,2,0,P|422:63|498:75,1,115.49999647522,0|0,3:0|0:0,0:0:0:0:
108,226,255302,1,2,3:2:0:0:
108,226,255395,1,2,0:2:0:0:
108,226,255487,2,0,P|165:236|222:248,1,115.49999647522,4|0,3:1|0:0,0:0:0:0:
422,314,255858,1,0,3:0:0:0:
302,348,256043,1,0,3:0:0:0:
340,226,256228,2,0,P|354:138|378:24,1,173.24999471283,8|0,0:0|0:0,0:0:0:0:
370,55,256598,1,0,3:0:0:0:
63,143,256784,5,10,0:0:0:0:
63,143,256876,1,2,0:0:0:0:
63,143,256969,1,4,3:1:0:0:
236,222,257154,1,0,3:2:0:0:
221,35,257339,101,0,3:1:0:0:
143,207,257524,1,0,3:2:0:0:
331,193,257710,5,10,0:1:0:0:
159,114,257895,1,8,0:3:0:0:
174,304,258080,101,4,0:3:0:0:
254,130,258265,1,2,3:1:0:0:
44,17,258450,6,0,P|58:107|66:178,1,126.500002412796,4|0,3:2|0:0,0:0:0:0:
272,255,258821,2,0,P|258:165|250:94,1,126.500002412796,0|0,3:2|0:0,0:0:0:0:
0,367,259191,2,0,P|54:254|187:228,1,253.000004825592,14|0,0:1|0:0,0:0:0:0:
462,55,259747,101,10,0:1:0:0:
462,55,259839,1,2,0:0:0:0:
462,55,259932,2,0,P|376:74|330:80,1,126.500002412796,4|10,3:1|0:1,0:0:0:0:
156,50,260302,1,0,3:1:0:0:
256,230,260487,1,0,3:0:0:0:
19,318,260673,6,0,P|32:230|38:174,1,126.500002412796,14|0,0:1|0:1,0:0:0:0:
257,2,261043,2,0,P|244:90|238:146,1,126.500002412796,0|0,3:0|0:1,0:0:0:0:
239,127,261321,1,2,0:0:0:0:
239,127,261413,101,4,3:1:0:0:
285,293,261598,1,0,3:0:0:0:
439,203,261784,1,10,0:1:0:0:
174,367,261969,6,0,P|159:267|136:150,1,206.25,4|0,3:2|0:0,0:0:0:0:
139,163,262339,1,10,0:1:0:0:
405,0,262524,2,0,P|420:100|443:217,1,206.25,4|0,3:2|0:0,0:0:0:0:
440,204,262895,1,14,0:1:0:0:
289,196,263080,1,2,3:1:0:0:
200,298,263265,1,0,3:0:0:0:
382,73,263450,101,4,0:3:0:0:
382,73,263543,1,8,0:0:0:0:
382,73,263635,1,10,0:1:0:0:
236,46,263821,1,8,0:0:0:0:
139,163,264006,2,0,P|70:154|3:142,1,137.5,8|0,0:3|3:1,0:0:0:0:
263,314,264376,6,2,P|406:206|377:62,1,297.000001132965,6|2,3:1|0:1,0:1:0:0:
354,0,264932,1,0,3:0:0:0:
0,41,265117,102,0,P|136:67|309:93,1,297.000001132965,14|0,0:1|3:0,0:0:0:0:
354,0,265673,1,10,0:1:0:0:
512,316,265858,6,0,P|340:271|167:239,1,319.000009735108,4|0,3:2|3:0,0:0:0:0:
99,229,266413,1,0,3:1:0:0:
372,0,266598,102,0,P|397:109|430:202,1,159.500004867554,14|0,0:1|0:0,0:0:0:0:
139,383,266969,2,0,P|113:273|80:180,1,159.500004867554,0|10,3:1|0:1,0:0:0:0:
512,155,267339,6,0,P|453:40|258:29,1,341.000002601624,4|8,3:1|0:0,0:0:0:0:
313,112,267895,1,0,3:0:0:0:
84,278,268080,102,0,P|149:190|274:201,1,220,4|0,3:2|3:0,0:0:0:0:
222,268,268635,1,0,3:0:0:0:
431,370,268821,54,0,P|378:311|282:329,1,176,4|2,3:1|0:0,0:0:0:0:
289,323,271784,1,2,0:0:0:0:
256,192,273358,12,2,278543,0:0:0:0:
