osu file format v14

[General]
AudioFilename: audio.mp3
AudioLeadIn: 0
PreviewTime: 59293
Countdown: 0
SampleSet: Soft
StackLeniency: 0.7
Mode: 2
LetterboxInBreaks: 0
WidescreenStoryboard: 0

[Editor]
DistanceSpacing: 1.3
BeatDivisor: 4
GridSize: 32
TimelineZoom: 1

[Metadata]
Title:Yume Sekai
TitleUnicode:ユメセカイ
Artist:Tomatsu Haruka
ArtistUnicode:戸松 遥
Creator:Ascendance
Version:Salad
Source:ソードアート・オンライン
Tags:ending sao ed SWORD ART ONLINE fii -wwwww kaitlin -plus- chara osu_gangster ster
BeatmapID:1526887
BeatmapSetID:723341

[Difficulty]
HPDrainRate:4
CircleSize:2.7
OverallDifficulty:6.7
ApproachRate:6.7
SliderMultiplier:2
SliderTickRate:4

[Events]
//Background and Video events
0,0,"cropped-1920-1080-314574.png",0,0
//Break Periods
//Storyboard Layer 0 (Background)
//Storyboard Layer 1 (Fail)
//Storyboard Layer 2 (Pass)
//Storyboard Layer 3 (Foreground)
//Storyboard Sound Samples

[TimingPoints]
1145,740.740740740741,4,2,1,55,1,0
12996,-100,4,2,1,45,0,0
24848,-100,4,2,1,50,0,0
36700,-100,4,2,2,43,0,0
46700,-100,4,2,2,47,0,0
47070,-100,4,2,2,45,0,0
48552,-100,4,2,2,43,0,0
52626,-100,4,2,2,50,0,0
52996,-100,4,2,2,45,0,0
60404,-100,4,2,1,55,0,1
84107,-100,4,2,0,25,0,0
89293,-100,4,3,0,5,0,0

[Colours]
Combo1 : 217,72,202
Combo2 : 0,128,255
Combo3 : 255,102,179
Combo4 : 128,255,128

[HitObjects]
124,153,404,6,0,L|49:140,2,50,8|0|0,0:0|1:0|0:0,0:0:0:0:
418,328,1145,6,0,P|468:247|391:175,1,200,4|8,0:0|0:0,0:0:0:0:
260,177,2256,1,0,0:0:0:0:
405,151,2626,2,0,L|302:151,1,100,0|0,1:0|1:0,0:0:0:0:
116,187,3367,2,0,L|125:85,1,100,8|0,0:0|0:0,0:0:0:0:
376,330,4107,6,0,P|424:257|341:176,1,200,0|8,1:0|0:0,0:0:0:0:
212,183,5219,1,0,0:0:0:0:
340,187,5589,2,0,L|447:187,1,100,0|0,1:0|0:0,0:0:0:0:
381,162,6145,1,0,3:0:0:0:
173,158,6330,2,0,L|54:159,1,100,8|0,0:0|1:0,0:0:0:0:
346,322,7070,6,0,P|401:259|325:157,1,200,4|8,0:0|0:0,0:0:0:0:
128,217,8182,2,0,P|94:128|186:60,1,200,4|0,0:0|1:0,0:0:0:0:
316,42,9293,2,0,L|434:49,1,100,8|0,0:0|1:0,0:0:0:0:
155,142,10033,6,0,L|37:155,2,100,4|0|8,0:0|0:0|0:0,0:0:0:0:
305,270,11145,2,0,L|88:248,1,200,4|8,0:0|0:0,0:0:0:0:
231,354,12256,2,0,L|346:343,1,100,8|8,0:0|0:0,0:0:0:0:
122,278,12996,6,0,L|102:154,1,100,4|0,0:0|0:0,0:0:0:0:
244,193,13737,2,0,L|371:177,1,100,8|0,0:0|0:0,0:0:0:0:
407,169,14293,1,0,3:0:0:0:
470,156,14478,1,0,1:0:0:0:
289,98,14848,1,0,1:0:0:0:
446,285,15219,2,0,L|449:176,1,100,8|0,0:0|0:0,0:0:0:0:
273,97,15959,6,0,L|52:115,1,200,0|8,1:0|0:0,0:0:0:0:
242,233,17070,2,0,L|247:119,1,100,0|0,0:0|1:0,0:0:0:0:
121,73,17811,1,0,1:0:0:0:
322,117,18182,2,0,L|408:108,2,50,8|0|0,0:0|0:0|0:0,0:0:0:0:
24,199,18922,6,0,L|236:218,1,200,0|8,1:0|0:0,0:0:0:0:
385,310,20033,2,0,L|402:198,1,100,0|0,0:0|1:0,0:0:0:0:
255,181,20774,1,0,1:0:0:0:
420,95,21145,2,0,L|305:101,1,100,8|0,0:0|0:0,0:0:0:0:
38,259,21885,6,0,L|141:244,1,100,0|0,1:0|1:0,0:0:0:0:
305,310,22626,2,0,L|315:199,1,100,8|0,0:0|0:0,0:0:0:0:
150,105,23367,2,0,L|359:126,1,200,0|8,1:0|0:0,0:0:0:0:
482,145,24478,1,4,0:0:0:0:
171,251,24848,5,0,1:0:0:0:
339,343,25219,2,0,L|344:224,1,100,0|8,1:0|0:0,0:0:0:0:
198,209,25959,2,0,L|115:215,2,50,0|0|0,0:0|3:0|1:0,0:0:0:0:
356,188,26700,1,0,1:0:0:0:
183,203,27070,2,0,L|168:77,1,100,8|0,0:0|0:0,0:0:0:0:
454,68,27811,6,0,L|240:57,1,200,0|8,1:0|0:0,0:0:0:0:
101,132,28922,2,0,L|89:57,2,50,0|0|0,0:0|3:0|1:0,0:0:0:0:
251,48,29663,1,0,1:0:0:0:
92,137,30033,2,0,L|111:253,1,100,8|0,0:0|0:0,0:0:0:0:
401,344,30774,6,0,P|451:265|357:190,1,200,0|8,1:0|0:0,0:0:0:0:
248,179,31885,2,0,L|197:187,2,50,0|0|0,0:0|3:0|1:0,0:0:0:0:
411,152,32626,2,0,L|276:143,2,100,0|8|0,1:0|0:0|0:0,0:0:0:0:
255,91,33737,6,0,L|135:107,1,100,0|0,1:0|1:0,0:0:0:0:
298,189,34478,2,0,L|416:155,1,100,8|0,0:0|0:0,0:0:0:0:
129,117,35219,2,0,L|16:102,1,100,0|4,1:0|1:2,0:0:0:0:
350,244,35959,2,0,L|469:221,1,100,8|0,0:0|1:0,0:0:0:0:
176,341,36700,6,0,L|165:204,1,100,4|2,0:0|0:1,0:0:0:0:
251,214,37256,1,0,0:0:0:0:
339,194,37441,1,8,0:0:0:0:
130,134,37811,1,0,0:0:0:0:
238,149,38182,2,0,L|384:161,1,100,0|2,1:0|0:1,0:0:0:0:
478,246,38922,2,0,L|355:266,1,100,8|2,0:0|0:0,0:0:0:0:
47,335,39663,6,0,P|29:243|118:170,1,200,0|8,1:0|0:0,0:0:0:0:
242,231,40774,2,0,L|253:114,1,100,0|0,0:0|1:0,0:0:0:0:
103,165,41515,1,2,0:1:0:0:
259,240,41885,2,0,L|374:230,1,100,8|2,0:0|0:0,0:0:0:0:
58,48,42626,6,0,L|61:171,1,100,4|2,0:0|0:1,0:0:0:0:
124,158,43182,1,0,0:0:0:0:
188,168,43367,1,8,0:0:0:0:
346,198,43737,1,0,0:0:0:0:
164,311,44107,2,0,L|161:199,1,100,0|2,1:0|0:1,0:0:0:0:
328,182,44848,2,0,L|441:162,1,100,8|2,0:0|0:0,0:0:0:0:
139,56,45589,6,0,P|68:117|135:201,1,200,0|8,1:0|0:0,0:0:0:0:
245,210,46700,1,8,0:0:0:0:
93,303,47070,2,0,L|230:303,1,100,8|4,0:0|3:0,0:0:0:0:
41,202,47811,2,0,L|163:203,1,100,8|2,1:3|0:0,0:0:0:0:
434,271,48552,6,0,L|442:162,1,100,4|2,0:0|0:1,0:0:0:0:
377,160,49107,1,0,0:0:0:0:
312,148,49293,1,8,0:0:0:0:
135,121,49663,1,0,0:0:0:0:
294,245,50033,2,0,L|416:230,1,100,0|2,1:0|0:1,0:0:0:0:
91,224,50774,2,0,L|85:116,1,100,8|2,0:0|0:0,0:0:0:0:
310,122,51515,6,0,L|445:110,1,100,0|2,1:0|0:1,0:0:0:0:
474,105,52070,2,0,L|391:115,1,50,0|8,0:0|0:0,0:0:0:0:
168,133,52626,1,4,0:0:0:0:
326,276,52996,2,0,L|338:137,1,100,0|8,1:0|0:0,0:0:0:0:
125,192,53737,2,0,L|44:197,2,50,8|8|0,0:0|0:0|1:0,0:0:0:0:
441,321,54478,6,0,L|465:191,1,100,4|2,0:0|0:1,0:0:0:0:
267,203,55219,2,0,L|236:97,1,100,12|0,0:0|1:0,0:0:0:0:
85,320,55959,2,0,L|210:308,1,100,4|2,0:0|0:1,0:0:0:0:
381,352,56700,2,0,L|488:344,1,100,12|2,0:0|0:0,0:0:0:0:
158,263,57441,6,0,L|40:249,2,100,4|8|8,0:0|0:0|0:0,0:0:0:0:
315,212,58552,2,0,L|428:195,2,100,8|8|0,0:0|0:0|1:0,0:0:0:0:
133,183,59663,2,0,L|122:69,1,100,8|0,0:0|1:0,0:0:0:0:
444,47,60404,6,0,L|452:167,1,100,6|0,0:0|0:0,0:0:0:0:
290,192,61145,2,0,L|169:205,1,100,10|0,0:0|0:0,0:0:0:0:
357,285,61885,2,0,L|475:300,1,100,2|0,1:2|1:0,0:0:0:0:
126,350,62626,2,0,P|101:269|169:219,1,150,10|0,0:0|0:0,0:0:0:0:
225,220,63367,6,0,L|84:205,1,100,2|0,0:0|0:0,0:0:0:0:
266,318,64107,2,0,L|379:310,1,100,10|0,0:0|0:0,0:0:0:0:
430,304,64663,1,8,0:0:0:0:
494,299,64848,1,2,1:2:0:0:
309,219,65219,1,0,1:0:0:0:
476,202,65589,2,0,L|460:91,1,100,10|0,0:0|0:0,0:0:0:0:
216,145,66330,6,0,L|101:132,1,100,2|0,0:0|0:0,0:0:0:0:
444,328,67070,2,0,L|459:217,1,100,10|0,0:0|0:0,0:0:0:0:
279,267,67811,2,0,L|167:252,1,100,2|0,1:2|1:0,0:0:0:0:
34,202,68552,2,0,L|218:188,1,150,10|0,0:0|0:0,0:0:0:0:
290,184,69293,6,0,L|407:174,1,100,6|0,0:0|1:0,0:0:0:0:
172,113,70033,1,10,0:0:0:0:
340,116,70404,1,0,0:0:0:0:
172,113,70589,2,0,L|34:113,2,100,4|8|0,1:2|0:0|1:0,0:0:0:0:
278,199,71515,2,0,L|291:122,1,50,6|8,0:0|1:3,0:0:0:0:
173,286,71885,2,0,L|163:218,1,50,0|0,1:0|1:0,0:0:0:0:
380,315,72256,6,0,L|513:302,2,100,6|0|10,0:0|0:0|0:0,0:0:0:0:
219,277,73367,2,0,L|101:288,2,100,0|2|0,0:0|1:2|1:0,0:0:0:0:
401,325,74478,2,0,L|410:215,1,100,10|0,0:0|0:0,0:0:0:0:
114,230,75219,6,0,P|65:146|145:64,1,200,2|10,0:0|0:0,0:0:0:0:
284,74,76330,2,0,L|362:61,1,50,0|8,0:0|0:0,0:0:0:0:
204,173,76885,2,0,L|133:163,1,50,8|0,0:0|1:0,0:0:0:0:
311,275,77441,2,0,L|440:258,1,100,10|0,0:0|1:0,0:0:0:0:
94,349,78182,6,0,L|76:236,1,100,6|0,0:0|0:0,0:0:0:0:
242,170,78922,2,0,L|127:160,1,100,10|0,0:0|0:0,0:0:0:0:
461,276,79663,2,0,L|477:167,1,100,2|0,1:2|1:0,0:0:0:0:
328,98,80404,2,0,L|436:87,1,100,10|0,0:0|0:0,0:0:0:0:
101,63,81145,5,6,0:0:0:0:
246,107,81515,1,8,1:2:0:0:
101,63,81885,1,10,0:0:0:0:
246,107,82256,2,0,L|327:95,1,50,0|0,1:0|1:0,0:0:0:0:
469,72,82626,5,4,1:2:0:0:
240,36,83367,2,0,L|132:43,1,100,0|0,0:0|0:0,0:0:0:0:
326,108,84107,5,2,0:0:0:0:
152,289,84848,2,0,L|148:185,1,100,0|0,0:0|0:0,0:0:0:0:
286,133,85589,1,2,0:0:0:0:
119,90,86145,6,0,L|54:83,1,50,0|0,0:0|0:0,0:0:0:0:
251,210,86700,2,0,L|329:199,1,50,0|0,0:0|0:0,0:0:0:0:
256,192,87256,12,0,89293,0:0:0:0:
