osu file format v14

[General]
AudioFilename: audio.mp3
AudioLeadIn: 0
PreviewTime: 59293
Countdown: 0
SampleSet: Soft
StackLeniency: 0.7
Mode: 2
LetterboxInBreaks: 0
WidescreenStoryboard: 0

[Editor]
Bookmarks: 12974,36678,60382,72234
DistanceSpacing: 1.4
BeatDivisor: 4
GridSize: 32
TimelineZoom: 1

[Metadata]
Title:Yume Sekai
TitleUnicode:ユメセカイ
Artist:Tomatsu Haruka
ArtistUnicode:戸松 遥
Creator:Ascendance
Version:Fiance's Dream World
Source:ソードアート・オンライン
Tags:ending sao ed SWORD ART ONLINE fii -wwwww kaitlin -plus- chara osu_gangster ster
BeatmapID:1526886
BeatmapSetID:723341

[Difficulty]
HPDrainRate:5
CircleSize:3.3
OverallDifficulty:7.6
ApproachRate:7.6
SliderMultiplier:2.3
SliderTickRate:4

[Events]
//Background and Video events
0,0,"cropped-1920-1080-632051.png",0,0
//Break Periods
//Storyboard Layer 0 (Background)
//Storyboard Layer 1 (Fail)
//Storyboard Layer 2 (Pass)
//Storyboard Layer 3 (Foreground)
//Storyboard Sound Samples

[TimingPoints]
1145,740.740740740741,4,2,1,55,1,0
12996,-100,4,2,1,45,0,0
24848,-100,4,2,1,50,0,0
36700,-100,4,2,2,43,0,0
46700,-100,4,2,2,47,0,0
47070,-100,4,2,2,45,0,0
48552,-100,4,2,2,43,0,0
52626,-100,4,2,2,50,0,0
52996,-100,4,2,2,45,0,0
60404,-100,4,2,1,55,0,1
84107,-100,4,2,0,25,0,0
86885,-89.2857142857143,4,2,0,35,0,0
89293,-100,4,3,0,5,0,0

[Colours]
Combo1 : 113,159,255
Combo2 : 158,62,255
Combo3 : 255,177,100
Combo4 : 126,126,126

[HitObjects]
368,330,219,6,0,L|411:318,2,28.75,0|0|8,3:0|3:0|0:0,0:0:0:0:
168,361,589,2,0,L|105:352,1,57.5,0|0,1:0|0:0,0:0:0:0:
393,79,1145,6,0,P|408:128|329:221,1,172.5,4|0,0:0|0:0,0:0:0:0:
243,241,1885,1,8,0:0:0:0:
405,318,2256,1,0,0:0:0:0:
114,320,2626,2,0,L|100:189,1,115,0|0,1:0|1:0,0:0:0:0:
304,69,3367,2,0,L|166:61,1,115,8|0,0:0|0:0,0:0:0:0:
119,125,3922,1,0,0:0:0:0:
458,12,4107,6,0,P|504:45|451:132,1,172.5,0|0,1:0|0:0,0:0:0:0:
360,147,4848,1,8,0:0:0:0:
195,102,5219,1,0,0:0:0:0:
484,352,5589,2,0,L|351:339,1,115,0|0,1:0|0:0,0:0:0:0:
192,256,6330,1,8,0:0:0:0:
281,245,6515,1,0,1:0:0:0:
383,165,6700,1,0,1:0:0:0:
307,150,6885,1,0,0:0:0:0:
30,59,7070,6,0,P|3:122|68:205,1,172.5,4|0,0:0|1:0,0:0:0:0:
143,192,7811,1,8,0:0:0:0:
230,175,7996,1,0,0:0:0:0:
479,142,8182,2,0,P|494:223|422:273,1,172.5,4|8,0:0|0:0,0:0:0:0:
348,300,8922,1,0,1:0:0:0:
86,332,9293,2,0,L|74:270,1,57.5,8|8,0:0|0:0,0:0:0:0:
165,231,9663,1,0,1:0:0:0:
415,134,10033,6,0,L|286:120,1,115,4|0,0:0|0:0,0:0:0:0:
98,34,10774,2,0,L|120:111,1,57.5,8|0,0:0|0:0,0:0:0:0:
376,335,11145,1,4,0:0:0:0:
83,265,11885,1,8,0:0:0:0:
226,278,12256,1,8,0:0:0:0:
25,258,12626,1,8,0:0:0:0:
469,159,12996,6,0,L|478:21,1,115,4|0,0:0|0:0,0:0:0:0:
207,207,13737,2,0,L|342:221,1,115,8|0,0:0|0:0,0:0:0:0:
416,292,14293,2,0,L|267:308,1,115,0|0,3:0|0:0,0:0:0:0:
211,316,14848,1,0,1:0:0:0:
337,233,15219,2,0,L|468:253,1,115,8|0,0:0|0:0,0:0:0:0:
186,293,15959,6,0,L|181:162,1,115,0|0,1:0|1:0,0:0:0:0:
384,122,16700,2,0,L|249:103,1,115,8|0,0:0|0:0,0:0:0:0:
186,92,17256,1,0,3:0:0:0:
286,95,17441,2,0,L|407:81,1,115,0|0,1:0|1:0,0:0:0:0:
143,111,18182,2,0,L|85:98,1,57.5,8|0,0:0|0:0,0:0:0:0:
215,202,18552,2,0,L|288:192,1,57.5,0|0,0:0|3:0,0:0:0:0:
483,299,18922,6,0,L|346:283,1,115,0|0,1:0|1:0,0:0:0:0:
151,346,19663,2,0,L|141:212,1,115,8|0,0:0|0:0,0:0:0:0:
238,208,20219,1,0,3:0:0:0:
329,193,20404,1,0,1:0:0:0:
151,106,20774,1,0,1:0:0:0:
277,42,21145,2,0,L|420:57,1,115,8|0,0:0|0:0,0:0:0:0:
448,61,21700,1,0,3:0:0:0:
239,151,21885,6,0,L|111:115,1,115,0|0,1:0|1:0,0:0:0:0:
307,277,22626,2,0,L|430:255,1,115,8|0,0:0|0:0,0:0:0:0:
349,228,23182,1,0,3:0:0:0:
179,222,23367,2,0,L|106:222,1,57.5,0|8,1:0|0:0,0:0:0:0:
315,116,23737,2,0,L|459:116,1,115,0|8,1:0|0:0,0:0:0:0:
185,58,24478,1,4,0:0:0:0:
430,62,24848,5,0,1:0:0:0:
254,61,25219,1,0,1:0:0:0:
457,173,25589,2,0,L|320:202,1,115,8|0,0:0|0:0,0:0:0:0:
261,230,26145,2,0,L|405:262,1,115,0|0,3:0|0:0,0:0:0:0:
451,281,26700,1,0,1:0:0:0:
258,223,27070,2,0,L|111:235,1,115,8|0,0:0|0:0,0:0:0:0:
59,239,27626,1,0,3:0:0:0:
253,127,27811,6,0,L|374:143,1,115,0|0,1:0|1:0,0:0:0:0:
89,304,28552,2,0,L|107:175,1,115,8|0,0:0|0:0,0:0:0:0:
198,217,29107,1,0,3:0:0:0:
302,225,29293,2,0,L|323:92,1,115,0|0,1:0|1:0,0:0:0:0:
157,134,30033,2,0,L|85:120,1,57.5,8|0,0:0|0:0,0:0:0:0:
222,221,30404,2,0,L|297:208,1,57.5,0|0,0:0|3:0,0:0:0:0:
89,347,30774,6,0,L|77:224,1,115,0|0,1:0|1:0,0:0:0:0:
268,193,31515,2,0,L|134:172,1,115,8|0,0:0|0:0,0:0:0:0:
71,156,32070,1,0,3:0:0:0:
253,305,32256,2,0,L|375:291,1,115,0|0,1:0|1:0,0:0:0:0:
148,223,32996,2,0,L|126:99,1,115,8|0,0:0|0:0,0:0:0:0:
209,56,33552,1,0,3:0:0:0:
456,29,33737,6,0,L|466:160,1,115,0|0,1:0|1:0,0:0:0:0:
232,143,34478,2,0,L|84:151,1,115,8|0,0:0|0:0,0:0:0:0:
368,222,35219,2,0,L|497:213,1,115,0|4,1:0|1:2,0:0:0:0:
38,337,35959,2,0,L|27:247,1,57.5,8|0,0:0|0:0,0:0:0:0:
161,230,36330,2,0,L|185:153,1,57.5,0|0,1:0|1:0,0:0:0:0:
450,21,36700,5,4,0:0:0:0:
284,45,37070,2,0,L|273:119,1,57.5,2|0,0:1|0:0,0:0:0:0:
420,143,37441,1,8,0:0:0:0:
190,175,37811,2,0,L|179:249,1,57.5,0|2,0:0|0:0,0:0:0:0:
326,273,38182,1,0,1:0:0:0:
40,76,38552,2,0,L|181:61,2,115,2|8|2,0:1|0:0|0:0,0:0:0:0:
329,279,39663,6,0,L|443:291,1,115,0|2,1:0|0:1,0:0:0:0:
220,179,40404,2,0,L|105:191,1,115,8|0,0:0|0:0,0:0:0:0:
162,185,40959,1,2,0:0:0:0:
220,179,41144,1,0,1:0:0:0:
66,199,41515,1,2,0:1:0:0:
356,356,41885,5,8,0:0:0:0:
390,312,42070,1,8,3:0:0:0:
377,258,42255,1,2,0:0:0:0:
326,235,42440,1,0,0:0:0:0:
65,25,42626,5,4,0:0:0:0:
231,49,42996,2,0,L|242:123,1,57.5,2|0,0:1|0:0,0:0:0:0:
95,147,43367,1,8,0:0:0:0:
325,179,43737,2,0,L|336:253,1,57.5,0|2,0:0|0:0,0:0:0:0:
189,277,44108,1,0,1:0:0:0:
471,78,44478,2,0,L|330:63,2,115,2|8|2,0:1|0:0|0:0,0:0:0:0:
175,349,45589,6,0,L|155:218,1,115,0|2,1:0|0:1,0:0:0:0:
371,331,46330,1,8,0:0:0:0:
93,132,46700,2,0,L|251:115,1,115,8|8,0:0|0:0,0:0:0:0:
149,112,47256,1,8,3:0:0:0:
92,106,47441,1,4,3:0:0:0:
380,294,47811,2,0,L|538:277,1,115,8|2,1:3|0:0,0:0:0:0:
412,263,48367,1,0,1:0:0:0:
62,21,48552,5,4,0:0:0:0:
228,45,48922,2,0,L|239:119,1,57.5,2|0,0:1|0:0,0:0:0:0:
92,143,49293,1,8,0:0:0:0:
322,175,49663,2,0,L|333:249,1,57.5,0|2,0:0|0:0,0:0:0:0:
186,273,50034,1,0,1:0:0:0:
471,78,50404,2,0,L|330:63,2,115,2|8|2,0:1|0:0|0:0,0:0:0:0:
216,351,51515,6,0,L|86:337,1,115,0|2,1:0|0:1,0:0:0:0:
274,321,52256,1,8,0:0:0:0:
42,329,52626,1,4,0:0:0:0:
215,203,52996,2,0,L|85:189,1,115,0|8,1:0|0:0,0:0:0:0:
332,360,53737,5,8,0:0:0:0:
366,316,53922,1,8,0:0:0:0:
353,262,54107,1,0,1:0:0:0:
302,239,54292,1,0,1:0:0:0:
41,29,54478,6,0,L|26:145,1,115,4|2,0:0|0:1,0:0:0:0:
314,124,55219,2,0,L|452:112,1,115,12|0,0:0|1:0,0:0:0:0:
142,299,55959,2,0,L|4:287,1,115,4|2,0:0|0:1,0:0:0:0:
315,259,56700,2,0,L|330:375,1,115,12|2,0:0|0:0,0:0:0:0:
36,159,57441,5,4,0:0:0:0:
209,140,57811,1,8,0:0:0:0:
36,159,58182,1,8,0:0:0:0:
321,69,58552,1,8,0:0:0:0:
59,142,58922,1,8,0:0:0:0:
25,186,59107,1,8,0:0:0:0:
38,240,59292,1,0,1:0:0:0:
89,263,59477,1,0,1:0:0:0:
207,256,59663,6,0,L|215:151,1,57.5,8|0,0:0|1:0,0:0:0:0:
91,150,60033,2,0,L|59:55,1,57.5,0|0,1:0|1:0,0:0:0:0:
348,176,60404,6,0,L|495:165,1,115,6|0,0:0|0:0,0:0:0:0:
282,264,61145,2,0,L|159:252,1,115,10|0,0:0|0:0,0:0:0:0:
379,345,61885,2,0,L|395:269,1,57.5,2|8,1:2|0:0,0:0:0:0:
258,230,62256,2,0,L|274:162,1,57.5,0|0,1:0|0:0,0:0:0:0:
460,184,62626,2,0,L|486:61,1,115,10|0,0:0|0:0,0:0:0:0:
363,60,63182,1,0,0:0:0:0:
52,264,63367,6,0,P|21:185|132:97,1,230,2|10,0:0|0:0,0:0:0:0:
290,51,64478,2,0,L|276:131,1,57.5,0|8,0:0|0:0,0:0:0:0:
162,146,64848,1,2,1:2:0:0:
327,229,65219,2,0,L|459:214,1,115,0|10,1:0|0:0,0:0:0:0:
255,313,65959,2,0,L|183:300,1,57.5,0|0,0:0|0:0,0:0:0:0:
448,360,66330,6,0,L|471:236,1,115,2|0,0:0|0:0,0:0:0:0:
285,247,67070,2,0,L|165:227,1,115,10|0,0:0|0:0,0:0:0:0:
388,178,67811,2,0,L|397:113,1,57.5,2|0,1:2|0:0,0:0:0:0:
269,126,68182,2,0,L|189:113,1,57.5,0|0,1:0|0:0,0:0:0:0:
26,243,68552,2,0,L|12:102,1,115,10|0,0:0|0:0,0:0:0:0:
126,81,69107,1,0,0:0:0:0:
382,49,69293,6,0,P|456:126|359:215,1,230,6|10,0:0|0:0,0:0:0:0:
186,214,70404,1,0,0:0:0:0:
463,333,70589,2,0,L|476:215,1,115,4|8,1:2|0:0,0:0:0:0:
360,190,71145,1,0,0:0:0:0:
243,223,71330,2,0,L|234:143,1,57.5,0|6,1:0|0:0,0:0:0:0:
372,142,71700,2,0,L|386:58,1,57.5,8|0,1:3|1:0,0:0:0:0:
283,41,72070,1,0,1:0:0:0:
32,27,72256,6,0,P|24:85|94:138,1,115,6|0,0:0|0:0,0:0:0:0:
230,354,72996,2,0,L|74:340,1,115,10|0,0:0|0:0,0:0:0:0:
208,331,73552,1,8,0:0:0:0:
476,359,73737,2,0,L|501:203,1,115,2|0,1:2|1:0,0:0:0:0:
275,252,74478,1,10,0:0:0:0:
486,216,74848,2,0,L|429:202,1,57.5,0|0,0:0|0:0,0:0:0:0:
97,32,75219,6,0,P|49:118|171:187,1,230,2|10,0:0|0:0,0:0:0:0:
366,276,76330,2,0,L|380:204,1,57.5,0|8,0:0|0:0,0:0:0:0:
260,153,76700,2,0,L|246:81,1,57.5,2|8,1:2|0:0,0:0:0:0:
362,60,77070,1,0,1:0:0:0:
109,346,77441,2,0,P|32:295|25:264,1,115,10|0,0:0|1:0,0:0:0:0:
132,216,77996,1,4,1:2:0:0:
395,335,78182,6,0,L|551:321,1,115,6|0,0:0|0:0,0:0:0:0:
312,247,78922,2,0,L|468:233,1,115,10|0,0:0|0:0,0:0:0:0:
327,213,79478,1,8,0:0:0:0:
58,276,79663,2,0,P|31:210|61:121,1,115,2|0,1:2|1:0,0:0:0:0:
125,126,80219,1,0,0:0:0:0:
385,152,80404,2,0,L|510:132,1,115,10|0,0:0|0:0,0:0:0:0:
387,110,80959,1,0,0:0:0:0:
122,75,81145,5,6,0:0:0:0:
296,15,81515,2,0,L|305:99,1,57.5,8|0,1:2|0:0,0:0:0:0:
157,107,81885,2,0,L|148:191,1,57.5,10|8,0:0|1:3,0:0:0:0:
302,239,82256,2,0,L|351:308,1,57.5,0|0,1:0|1:0,0:0:0:0:
80,358,82626,6,0,P|14:314|104:206,1,230,4|0,1:2|0:0,0:0:0:0:
321,255,83737,1,0,0:0:0:0:
228,293,84107,1,2,0:0:0:0:
417,106,84848,6,0,L|299:95,1,115
185,85,85589,1,2,0:0:0:0:
467,364,86145,6,0,L|375:326,1,57.5
178,351,86700,1,0,0:0:0:0:
256,365,86885,6,0,B|256:299|319:270|407:268|377:208|407:177|407:147|377:116|346:86|316:86|285:116|256:124|256:124|225:116|194:86|164:86|133:116|103:147|103:177|133:208|103:268|192:270|256:299|256:365,1,837.200010219726
