osu file format v14

[General]
AudioFilename: audio.mp3
AudioLeadIn: 0
PreviewTime: 213411
Countdown: 0
SampleSet: Soft
StackLeniency: 0.8
Mode: 0
LetterboxInBreaks: 0
WidescreenStoryboard: 1

[Editor]
Bookmarks: 282103,285795
DistanceSpacing: 0.9
BeatDivisor: 4
GridSize: 32
TimelineZoom: 1.7

[Metadata]
Title:Resolution
TitleUnicode:Resolution
Artist:Tomatsu Haruka
ArtistUnicode:戸松遥
Creator:iljaaz
Version:Reform's Insane
Source:ソードアート・オンライン アリシゼーション War of Underworld
Tags:Reform full size ver sword art online sao alicization season 3 alice opening japanese anime
BeatmapID:2203868
BeatmapSetID:1050963

[Difficulty]
HPDrainRate:5
CircleSize:3.8
OverallDifficulty:7.5
ApproachRate:9
SliderMultiplier:1.64
SliderTickRate:1

[Events]
//Background and Video events
0,0,"cropped-2560-1440-1004744.jpg",0,0
//Break Periods
2,214918,220888
//Storyboard Layer 0 (Background)
//Storyboard Layer 1 (Fail)
//Storyboard Layer 2 (Pass)
//Storyboard Layer 3 (Foreground)
//Storyboard Layer 4 (Overlay)
//Storyboard Sound Samples

[TimingPoints]
565,307.692307692308,4,2,2,64,1,0
565,-133.333333333333,4,2,2,64,0,0
4103,-95.2380952380951,4,2,2,64,0,0
13795,-222.222222222222,4,2,2,74,0,0
15334,-153.846153846154,4,2,2,54,0,0
23949,-117.64705882353,4,2,2,54,0,0
25180,-117.64705882353,4,2,2,64,0,0
30102,-117.64705882353,4,2,2,74,0,0
30103,-117.64705882353,4,2,2,74,0,0
32565,-117.64705882353,4,2,2,64,0,0
34872,-117.64705882353,4,2,2,54,0,0
43641,-117.64705882353,4,2,2,74,0,0
44718,-117.64705882353,4,2,2,64,0,0
48565,-117.64705882353,4,2,2,74,0,0
49795,-181.818181818183,4,2,2,54,0,0
52257,-105.263157894737,4,2,2,54,0,0
52872,-105.263157894737,4,2,2,59,0,0
53025,-105.263157894737,4,2,2,64,0,0
53026,-105.263157894737,4,2,2,64,0,0
53180,-105.263157894737,4,2,2,69,0,0
53333,-105.263157894737,4,2,2,74,0,0
53334,-105.263157894737,4,2,2,74,0,0
53488,-105.263157894737,4,2,2,84,0,0
54718,-95.2380952380952,4,2,2,84,0,0
69488,-95.2380952380952,4,2,2,74,0,0
71949,-95.2380952380952,4,2,2,84,0,0
74411,-95.2380952380952,4,2,2,74,0,0
88103,-153.846153846154,4,2,2,74,0,0
88872,-95.2380952380953,4,2,2,74,0,0
99026,-133.333333333333,4,2,2,54,0,0
108872,-117.647058823529,4,2,2,64,0,0
113795,-117.647058823529,4,2,2,74,0,0
116257,-117.647058823529,4,2,2,64,0,0
118565,-117.647058823529,4,2,2,54,0,0
127333,-117.647058823529,4,2,2,74,0,0
128410,-117.647058823529,4,2,2,64,0,0
132257,-117.647058823529,4,2,2,74,0,0
133487,-117.647058823529,4,2,2,54,0,0
133488,-181.818181818183,4,2,2,54,0,0
135949,-105.263157894737,4,2,2,64,0,0
136411,-105.263157894737,4,2,2,72,0,0
136872,-105.263157894737,4,2,2,80,0,0
137180,-105.263157894737,4,2,2,84,0,0
138411,-95.2380952380952,4,2,2,84,0,0
153180,-95.2380952380952,4,2,2,74,0,0
155641,-95.2380952380952,4,2,2,84,0,0
158103,-95.2380952380952,4,2,2,74,0,0
167795,-95.2380952380952,4,2,2,84,0,0
169180,-95.2380952380952,4,2,2,94,0,0
170411,-153.846153846154,4,2,2,94,0,0
171641,-153.846153846154,4,2,2,44,0,0
179026,-153.846153846154,4,2,2,74,0,0
180257,-133.333333333334,4,2,2,64,0,0
185180,-105.263157894737,4,2,2,64,0,0
187641,-105.263157894737,4,2,2,74,0,0
190103,-105.263157894737,4,2,2,84,0,0
191180,-105.263157894737,4,2,2,89,0,0
192411,-105.263157894737,4,2,2,94,0,0
193180,-285.714285714287,4,2,2,94,0,0
193795,-86.9565217391306,4,2,2,84,0,1
212103,-86.9565217391306,4,2,2,94,0,1
214718,-86.9565217391306,4,2,2,64,0,0
221488,-95.2380952380952,4,2,2,74,0,0
224565,-95.2380952380952,4,2,2,54,0,0
229488,-95.2380952380952,4,2,2,64,0,0
231949,-95.2380952380952,4,2,2,84,0,0
233180,-95.2380952380952,4,2,2,74,0,0
234411,-80,4,2,2,84,0,1
239334,-95.2380952380952,4,2,2,84,0,0
244257,-80,4,2,2,84,0,1
249180,-95.2380952380952,4,2,2,74,0,0
249181,-95.2380952380952,4,2,2,74,0,0
251641,-95.2380952380952,4,2,2,84,0,0
251642,-95.2380952380952,4,2,2,84,0,0
254103,-95.2380952380952,4,2,2,74,0,0
254104,-95.2380952380952,4,2,2,74,0,0
272334,-95.2380952380952,4,2,2,5,0,0

[Colours]
Combo1 : 108,255,255
Combo2 : 255,255,89
Combo3 : 255,169,128

[HitObjects]
400,332,565,5,8,2:0:0:0:
239,297,718,1,8,2:0:0:0:
71,100,1641,6,0,P|119:93|216:80,1,123.000004692078,8|10,2:0|2:0,0:0:0:0:
280,135,2103,1,8,2:0:0:0:
122,323,2411,6,0,L|114:274,4,30.7500011730195,2|0|2|2|2,2:0|0:0|3:0|3:0|3:0,0:0:0:0:
122,344,3026,5,8,2:0:0:0:
170,139,3180,1,8,2:0:0:0:
369,315,3488,6,0,P|356:267|356:169,1,123.000004692078,8|8,3:0|3:0,0:0:0:0:
393,77,3949,1,8,2:0:0:0:
261,176,4103,6,0,B|153:156|231:108|106:83,1,172.199994744873,4|8,1:2|2:0,0:0:0:0:
271,28,4565,2,0,P|318:6|361:15,1,86.0999973724366,8|4,2:0|1:2,0:0:0:0:
408,168,4872,1,2,2:0:0:0:
322,103,5026,1,8,2:0:0:0:
479,40,5180,1,8,2:0:0:0:
495,75,5257,1,8,2:0:0:0:
501,113,5334,1,8,2:0:0:0:
495,151,5411,1,8,2:0:0:0:
482,187,5488,6,0,P|458:243|492:367,1,172.199994744873,4|10,1:0|2:0,0:0:0:0:
370,200,5949,1,0,0:0:0:0:
303,319,6103,2,0,P|264:337|213:326,1,86.0999973724366,2|0,1:2|1:2,0:0:0:0:
408,371,6411,1,10,2:0:0:0:
224,233,6565,6,0,P|167:235|141:345,1,172.199994744873,2|0,1:2|1:2,0:0:0:0:
337,279,7026,2,0,P|354:236|344:182,1,86.0999973724366,8|0,2:0|1:2,0:0:0:0:
166,117,7334,1,0,0:0:0:0:
224,233,7488,1,0,1:2:0:0:
290,112,7641,2,0,P|335:103|404:91,1,86.0999973724366,8|0,2:0|0:0,0:0:0:0:
482,284,7949,5,4,1:2:0:0:
482,284,8257,2,0,P|436:299|389:287,1,86.0999973724366,10|0,2:0|0:0,0:0:0:0:
337,191,8565,2,0,P|383:176|430:188,1,86.0999973724366,2|0,1:2|1:2,0:0:0:0:
293,312,8872,1,8,2:0:0:0:
218,216,9026,1,0,1:2:0:0:
94,332,9180,6,0,P|72:283|80:157,1,172.199994744873,2|8,2:0|2:0,0:0:0:0:
185,14,9641,1,2,1:2:0:0:
236,148,9795,1,0,1:2:0:0:
100,83,9949,1,0,1:2:0:0:
328,56,10103,2,0,P|344:107|320:201,1,129.149996058655,8|0,2:0|0:0,0:0:0:0:
296,215,10411,6,0,P|279:265|320:356,1,129.149996058655,4|0,1:2|0:0,0:0:0:0:
330,351,10718,2,0,P|375:330|432:338,1,86.0999973724366,10|0,2:0|0:0,0:0:0:0:
205,255,11026,2,0,P|162:254|124:234,1,86.0999973724366,2|0,1:2|1:2,0:0:0:0:
237,111,11334,1,10,2:0:0:0:
400,241,11488,6,0,P|459:236|484:126,1,172.199994744873,2|0,1:2|1:2,0:0:0:0:
316,40,11949,1,8,2:0:0:0:
370,152,12103,1,0,1:2:0:0:
490,46,12257,2,0,P|464:26|406:27,1,86.0999973724366,0|0,1:2|1:2,0:0:0:0:
345,231,12565,2,0,P|387:232|422:209,1,86.0999973724366,10|0,2:0|0:0,0:0:0:0:
304,65,12872,6,0,P|247:77|193:83,1,86.0999973724366,14|0,2:0|1:2,0:0:0:0:
370,152,13180,1,0,1:2:0:0:
267,225,13334,2,0,P|210:213|156:207,1,86.0999973724366,14|0,2:0|1:2,0:0:0:0:
370,304,13641,1,0,1:2:0:0:
263,384,13795,2,0,B|98:363|196:255|22:242,1,295.199990991211,14|2,2:0|2:0,0:0:0:0:
212,40,15334,5,2,1:2:0:0:
212,40,15488,2,0,P|225:96|232:164,2,106.599995120239,2|2|2,1:2|2:0|2:0,0:0:0:0:
357,196,16411,2,0,P|390:212|421:214,1,53.2999975601197,2|0,1:2|0:0,0:0:0:0:
460,127,16718,1,0,1:2:0:0:
460,127,16872,2,0,P|436:103|351:99,2,106.599995120239,0|0|0,1:2|3:2|3:2,0:0:0:0:
388,189,17641,1,2,2:0:0:0:
249,143,17795,5,2,1:2:0:0:
249,143,17949,2,0,P|254:93|270:24,2,106.599995120239,2|2|2,1:2|2:0|2:0,0:0:0:0:
196,217,18718,2,0,P|205:251|211:292,1,53.2999975601197,0|2,3:2|2:0,0:0:0:0:
291,344,19026,6,0,P|323:367|401:354,1,106.599995120239,2|2,1:2|3:2,0:0:0:0:
460,299,19488,2,0,P|453:265|444:228,1,53.2999975601197,2|0,1:2|3:2,0:0:0:0:
359,189,19795,1,2,1:2:0:0:
359,189,19949,2,0,P|366:155|375:118,1,53.2999975601197,0|0,3:2|0:0,0:0:0:0:
304,47,20257,5,2,1:2:0:0:
304,47,20411,2,0,P|266:67|186:51,2,106.599995120239,2|2|2,1:2|2:0|2:0,0:0:0:0:
170,180,21334,2,0,P|139:168|106:168,1,53.2999975601197,2|0,1:2|0:0,0:0:0:0:
60,231,21641,1,0,1:2:0:0:
130,296,21795,1,0,1:2:0:0:
211,257,21949,2,0,P|242:245|275:245,1,53.2999975601197,0|0,0:0|3:2,0:0:0:0:
320,313,22257,1,0,0:0:0:0:
320,313,22411,2,0,P|351:325|384:325,1,53.2999975601197,0|2,3:2|2:0,0:0:0:0:
458,266,22718,6,0,P|450:207|455:147,1,106.599995120239,2|0,1:2|3:2,0:0:0:0:
347,58,23180,1,2,2:0:0:0:
347,58,23334,2,0,P|355:117|350:177,1,106.599995120239,0|0,3:2|3:2,0:0:0:0:
352,163,23949,5,2,1:2:0:0:
220,257,24103,1,8,2:0:0:0:
225,116,24257,1,10,2:0:0:0:
330,268,24411,2,0,P|372:306|459:294,1,139.400002658844,4|8,1:2|2:0,0:0:0:0:
406,213,24872,1,8,2:0:0:0:
283,349,25026,1,8,2:0:0:0:
283,349,25103,1,8,2:0:0:0:
283,349,25180,5,6,1:2:0:0:
207,246,25334,2,0,P|173:229|126:226,1,69.700001329422,2|8,2:0|2:0,0:0:0:0:
287,138,25641,2,0,P|321:132|352:116,1,69.700001329422,2|0,0:0|1:2,0:0:0:0:
153,62,25949,1,2,1:2:0:0:
274,12,26103,1,8,2:0:0:0:
143,162,26257,6,0,P|88:149|57:52,1,139.400002658844,6|0,1:2|1:2,0:0:0:0:
280,19,26718,2,0,P|269:66|264:113,1,69.700001329422,8|0,2:0|0:0,0:0:0:0:
374,226,27026,1,0,1:2:0:0:
251,176,27180,1,0,1:2:0:0:
397,65,27334,2,0,P|408:112|413:159,1,69.700001329422,8|2,2:0|2:0,0:0:0:0:
283,274,27641,6,0,B|197:273|242:321|143:323,1,139.400002658844,6|10,1:2|2:0,0:0:0:0:
59,247,28103,1,10,2:0:0:0:
59,247,28180,1,8,2:0:0:0:
59,247,28257,1,0,1:2:0:0:
175,131,28411,2,0,P|184:178|189:228,1,69.700001329422,2|8,1:2|2:0,0:0:0:0:
57,125,28718,1,2,2:0:0:0:
289,43,28872,6,0,P|284:77|277:111,1,69.700001329422,2|0,1:2|1:2,0:0:0:0:
143,28,29180,1,10,2:0:0:0:
218,190,29334,1,8,3:0:0:0:
218,190,29411,1,8,3:0:0:0:
218,190,29488,1,8,3:0:0:0:
301,88,29641,1,8,3:0:0:0:
104,169,29795,2,0,P|118:229|133:330,1,139.400002658844,12|4,2:0|1:2,0:0:0:0:
130,305,30411,6,0,P|179:291|215:288,1,69.700001329422,10|0,2:0|0:0,0:0:0:0:
424,371,30718,2,0,P|389:365|356:353,1,69.700001329422,10|0,2:0|1:2,0:0:0:0:
371,132,31026,2,0,P|385:174|387:215,1,69.700001329422,10|0,2:0|1:2,0:0:0:0:
154,164,31334,5,14,2:0:0:0:
202,67,31488,1,0,0:0:0:0:
278,254,31641,2,0,P|235:260|194:266,1,69.700001329422,10|0,2:0|1:2,0:0:0:0:
340,124,31949,1,10,2:0:0:0:
395,238,32103,1,0,1:2:0:0:
246,158,32257,1,10,2:0:0:0:
246,158,32565,6,0,P|264:223|279:323,1,139.400002658844,4|10,1:2|2:0,0:0:0:0:
429,116,33026,1,0,1:2:0:0:
429,116,33103,1,0,1:2:0:0:
429,116,33180,2,0,P|418:161|409:209,1,69.700001329422,2|2,1:2|1:2,0:0:0:0:
308,59,33488,2,0,P|281:45|242:44,1,69.700001329422,10|0,2:0|0:0,0:0:0:0:
135,125,33795,5,2,1:2:0:0:
260,236,33949,2,0,P|294:235|325:220,1,69.700001329422,14|0,2:0|0:0,0:0:0:0:
122,211,34257,1,10,2:0:0:0:
258,137,34411,1,8,2:0:0:0:
181,281,34565,1,8,3:0:0:0:
110,133,34718,1,8,3:0:0:0:
276,260,34872,6,0,P|329:254|419:311,1,139.400002658844,6|0,1:2|1:2,0:0:0:0:
484,195,35334,2,0,P|478:159|479:110,1,69.700001329422,2|0,1:2|0:0,0:0:0:0:
372,28,35641,6,0,B|314:39|314:39|292:57|292:57|213:72,1,139.400002658844,10|0,2:0|0:0,0:0:0:0:
91,143,36103,6,0,P|133:144|164:162,1,69.700001329422,6|0,1:2|0:0,0:0:0:0:
233,236,36411,1,0,1:2:0:0:
139,309,36565,2,0,P|97:308|66:290,1,69.700001329422,0|2,1:2|2:0,0:0:0:0:
246,157,36872,6,0,B|309:171|309:171|326:187|326:187|394:202,1,139.400002658844,10|0,2:0|0:0,0:0:0:0:
470,341,37334,6,0,P|473:290|486:241,1,69.700001329422,6|0,1:2|0:0,0:0:0:0:
488,149,37641,1,0,1:2:0:0:
361,297,37795,2,0,P|358:246|345:197,1,69.700001329422,2|0,1:2|0:0,0:0:0:0:
218,66,38103,6,0,B|183:47|183:47|144:52,2,69.700001329422,10|10|2,2:0|0:0|2:0,0:0:0:0:
283,142,38565,2,0,B|317:160|317:160|347:157,1,69.700001329422,8|0,2:0|1:2,0:0:0:0:
410,31,38872,5,0,3:0:0:0:
325,66,39026,1,8,2:0:0:0:
347,157,39180,1,8,3:0:0:0:
438,176,39334,1,8,3:0:0:0:
450,153,39488,1,0,3:0:0:0:
447,124,39641,1,0,3:0:0:0:
435,100,39795,6,0,P|390:119|360:222,1,139.400002658844,6|0,1:2|1:2,0:0:0:0:
396,310,40257,2,0,P|437:334|474:331,1,69.700001329422,2|0,1:2|0:0,0:0:0:0:
268,144,40565,6,0,B|251:190|251:190|277:295,1,139.400002658844,10|2,2:0|2:0,0:0:0:0:
203,361,41026,6,0,P|163:351|122:340,1,69.700001329422,6|0,1:2|0:0,0:0:0:0:
43,257,41334,1,0,1:2:0:0:
166,236,41488,2,0,P|209:227|251:221,1,69.700001329422,0|2,1:2|2:0,0:0:0:0:
112,140,41795,1,10,2:0:0:0:
112,140,41949,2,0,P|77:134|43:127,1,69.700001329422,2|0,2:0|0:0,0:0:0:0:
167,32,42257,6,0,P|217:29|267:96,1,139.400002658844,4|0,1:2|1:2,0:0:0:0:
250,186,42718,2,0,P|263:226|288:247,1,69.700001329422,2|0,1:2|0:0,0:0:0:0:
382,280,43026,1,10,2:0:0:0:
453,204,43180,1,2,2:0:0:0:
405,113,43334,2,0,P|373:95|327:97,1,69.700001329422,0|0,3:0|3:0,0:0:0:0:
247,158,43641,5,14,2:0:0:0:
282,342,43795,1,8,3:0:0:0:
282,342,43872,1,8,3:0:0:0:
282,342,43949,1,8,3:0:0:0:
180,251,44103,2,0,P|144:245|101:239,1,69.700001329422,6|0,1:2|0:0,0:0:0:0:
317,212,44411,2,0,P|351:207|385:201,1,69.700001329422,6|0,1:2|0:0,0:0:0:0:
242,64,44718,6,0,B|152:72|206:121|96:132,1,139.400002658844,6|2,1:2|1:2,0:0:0:0:
81,39,45180,1,10,2:0:0:0:
190,184,45334,1,10,2:0:0:0:
190,184,45411,1,8,2:0:0:0:
190,184,45488,1,2,1:2:0:0:
38,119,45641,2,0,P|22:164|24:214,1,69.700001329422,2|8,1:2|2:0,0:0:0:0:
203,322,45949,6,0,P|250:308|352:296,1,139.400002658844,6|2,1:2|1:2,0:0:0:0:
447,353,46411,1,10,2:0:0:0:
298,217,46565,1,10,2:0:0:0:
298,217,46641,1,8,2:0:0:0:
298,217,46718,1,2,1:2:0:0:
438,281,46872,2,0,P|480:273|521:258,1,69.700001329422,2|8,1:2|2:0,0:0:0:0:
409,139,47180,1,0,0:0:0:0:
323,306,47334,6,0,P|316:260|303:216,1,69.700001329422,6|0,1:2|0:0,0:0:0:0:
148,161,47641,2,0,P|139:194|135:229,1,69.700001329422,10|0,2:0|2:0,0:0:0:0:
216,90,47949,2,0,P|181:70|149:69,1,69.700001329422,2|0,1:2|1:2,0:0:0:0:
260,228,48257,2,0,P|294:224|323:206,1,69.700001329422,10|0,2:0|0:0,0:0:0:0:
82,182,48565,6,0,P|95:241|115:352,1,139.400002658844,6|8,1:2|2:0,0:0:0:0:
226,160,49026,1,2,1:2:0:0:
186,277,49180,1,8,2:0:0:0:
124,109,49334,1,2,1:2:0:0:
288,261,49488,2,0,P|298:212|306:164,1,69.700001329422,8|2,2:0|2:0,0:0:0:0:
230,55,49795,6,0,P|261:34|327:41,1,90.2000027526856,4|0,1:2|0:0,0:0:0:0:
383,158,50257,1,0,1:2:0:0:
383,158,50411,2,0,P|338:160|300:136,1,90.2000027526856,8|0,2:0|1:2,0:0:0:0:
119,55,51026,5,0,1:2:0:0:
119,55,51180,2,0,P|112:114|105:161,1,90.2000027526856,8|0,2:0|1:2,0:0:0:0:
180,209,51641,2,0,P|187:268|194:315,1,90.2000027526856,8|0,2:0|1:2,0:0:0:0:
309,160,52257,5,4,1:2:0:0:
309,160,52565,2,0,L|406:142,1,77.8999979198456,0|8,1:2|2:0,0:0:0:0:
222,94,52872,2,0,L|125:76,1,77.8999979198456,8|8,2:0|2:0,0:0:0:0:
308,25,53180,2,0,L|405:7,1,77.8999979198456,8|8,2:0|2:0,0:0:0:0:
157,167,53488,5,10,2:0:0:0:
208,8,53641,1,2,1:2:0:0:
245,221,53795,1,10,2:0:0:0:
133,67,53949,1,2,1:2:0:0:
87,241,54103,5,10,2:0:0:0:
87,241,54180,1,8,2:0:0:0:
87,241,54257,2,0,L|101:315,1,38.9499989599228,10|8,2:0|2:0,0:0:0:0:
192,160,54411,2,0,L|199:121,1,38.9499989599228,10|8,2:0|2:0,0:0:0:0:
314,257,54565,1,10,2:0:0:0:
314,257,54641,1,8,2:0:0:0:
314,257,54718,6,0,P|363:267|419:278,1,86.0999973724366,4|2,1:0|2:0,0:0:0:0:
323,128,55026,1,8,2:0:0:0:
195,304,55180,2,0,P|146:314|90:325,1,86.0999973724366,2|0,1:2|0:0,0:0:0:0:
208,142,55488,1,2,1:2:0:0:
282,298,55641,1,8,2:0:0:0:
129,227,55795,1,8,2:0:0:0:
129,227,55872,1,8,2:0:0:0:
129,227,55949,6,0,P|121:164|112:113,1,86.0999973724366,2|2,1:2|1:2,0:0:0:0:
219,43,56257,1,8,2:0:0:0:
345,205,56411,2,0,P|353:142|362:91,1,86.0999973724366,2|0,1:2|0:0,0:0:0:0:
290,15,56718,1,2,1:2:0:0:
225,173,56872,1,8,2:0:0:0:
153,52,57026,1,8,2:0:0:0:
153,52,57103,1,8,2:0:0:0:
153,52,57180,6,0,P|110:41|64:39,1,86.0999973724366,2|2,1:2|1:2,0:0:0:0:
149,208,57488,1,8,2:0:0:0:
295,101,57641,2,0,P|338:90|384:88,1,86.0999973724366,2|0,1:2|0:0,0:0:0:0:
319,279,57949,1,2,1:2:0:0:
225,161,58103,1,8,2:0:0:0:
477,187,58257,6,0,P|461:251|448:376,1,172.199994744873,6|0,1:2|1:2,0:0:0:0:
357,113,58718,1,8,2:0:0:0:
319,279,58872,1,8,2:0:0:0:
319,279,58949,1,8,2:0:0:0:
319,279,59026,1,2,1:2:0:0:
245,88,59180,1,0,1:2:0:0:
444,200,59334,2,0,P|454:156|462:96,1,86.0999973724366,10|0,2:0|0:0,0:0:0:0:
110,42,59641,6,0,P|116:84|126:126,1,86.0999973724366,6|2,1:2|2:0,0:0:0:0:
255,22,59949,1,8,2:0:0:0:
214,205,60103,1,10,2:0:0:0:
214,205,60180,1,8,2:0:0:0:
214,205,60257,1,2,1:2:0:0:
155,71,60411,1,2,1:2:0:0:
311,119,60565,1,8,2:0:0:0:
205,298,60718,6,0,B|107:284|170:231|53:213,1,172.199994744873,6|0,1:2|1:2,0:0:0:0:
212,97,61180,2,0,P|252:72|303:75,1,86.0999973724366,8|0,2:0|0:0,0:0:0:0:
416,235,61488,1,2,1:2:0:0:
269,182,61641,1,10,2:0:0:0:
269,182,61718,1,8,2:0:0:0:
269,182,61795,1,8,2:0:0:0:
406,114,61949,1,8,3:0:0:0:
310,287,62103,6,0,P|302:346|297:391,1,86.0999973724366,6|0,1:2|1:2,0:0:0:0:
138,166,62411,2,0,P|146:225|151:270,1,86.0999973724366,14|0,2:0|0:0,0:0:0:0:
311,61,62718,1,0,1:2:0:0:
268,221,62872,1,0,1:2:0:0:
186,60,63026,6,0,P|137:50|84:38,1,86.0999973724366,14|0,2:0|0:0,0:0:0:0:
362,164,63334,2,0,P|404:154|446:146,1,86.0999973724366,6|8,1:2|3:0,0:0:0:0:
145,171,63641,1,10,2:0:0:0:
317,26,63795,2,0,P|359:34|401:43,1,86.0999973724366,6|0,1:2|0:0,0:0:0:0:
273,220,64103,1,6,1:2:0:0:
169,65,64257,1,2,0:0:0:0:
107,247,64411,5,8,2:0:0:0:
107,247,64488,1,8,2:0:0:0:
107,247,64565,2,0,P|114:303|122:356,1,86.0999973724366,4|0,1:0|2:0,0:0:0:0:
219,161,64872,1,8,2:0:0:0:
316,341,65026,2,0,P|322:298|327:255,1,86.0999973724366,2|0,1:2|0:0,0:0:0:0:
228,68,65334,1,2,1:2:0:0:
371,147,65488,1,8,2:0:0:0:
211,255,65641,5,8,2:0:0:0:
211,255,65718,1,8,2:0:0:0:
211,255,65795,2,0,P|160:242|106:228,1,86.0999973724366,2|2,1:2|1:2,0:0:0:0:
279,140,66103,1,8,2:0:0:0:
187,39,66257,2,0,P|136:52|82:66,1,86.0999973724366,2|0,1:2|0:0,0:0:0:0:
218,212,66565,1,2,1:2:0:0:
293,74,66718,1,8,2:0:0:0:
102,163,66872,5,8,2:0:0:0:
102,163,66949,1,8,2:0:0:0:
102,163,67026,2,0,P|107:205|117:247,1,86.0999973724366,2|2,1:2|1:2,0:0:0:0:
278,335,67334,1,8,2:0:0:0:
223,74,67488,2,0,P|213:115|207:158,1,86.0999973724366,2|0,1:2|0:0,0:0:0:0:
360,267,67795,1,2,1:2:0:0:
188,311,67949,1,8,2:0:0:0:
331,137,68103,6,0,P|405:145|470:239,1,172.199994744873,6|0,1:2|1:2,0:0:0:0:
226,258,68565,2,0,P|170:245|124:232,1,86.0999973724366,8|0,2:0|2:0,0:0:0:0:
250,82,68872,1,2,1:2:0:0:
359,316,69026,2,0,B|463:308|403:245|525:236,1,172.199994744873,4|8,1:2|2:0,0:0:0:0:
422,81,69488,6,0,P|345:84|330:168,2,172.199994744873,4|8|2,1:2|2:0|1:2,0:0:0:0:
435,192,70257,1,0,1:2:0:0:
276,255,70411,2,0,P|233:232|218:174,1,86.0999973724366,8|0,2:0|0:0,0:0:0:0:
241,26,70718,5,2,1:2:0:0:
143,131,70872,2,0,P|86:123|26:113,1,86.0999973724366,2|10,1:2|2:0,0:0:0:0:
307,177,71180,2,0,P|349:170|392:164,1,86.0999973724366,2|0,1:2|0:0,0:0:0:0:
154,254,71488,1,2,1:2:0:0:
311,333,71641,2,0,P|353:339|396:345,1,86.0999973724366,8|2,2:0|2:0,0:0:0:0:
236,104,71949,6,0,P|249:169|259:224,1,86.0999973724366,12|0,2:0|1:2,0:0:0:0:
208,322,72257,1,0,1:2:0:0:
97,50,72411,2,0,P|84:115|74:170,1,86.0999973724366,12|0,2:0|1:2,0:0:0:0:
125,268,72719,1,0,1:2:0:0:
270,38,72872,2,0,P|283:103|293:158,1,86.0999973724366,10|2,2:0|1:2,0:0:0:0:
242,256,73180,5,2,1:2:0:0:
242,256,73257,1,2,0:0:0:0:
242,256,73334,1,2,2:0:0:0:
343,163,73488,2,0,P|379:146|450:155,1,86.0999973724366,10|0,2:0|2:0,0:0:0:0:
264,337,73795,2,0,P|221:337|182:319,1,86.0999973724366,10|8,2:0|3:0,0:0:0:0:
312,173,74103,1,8,3:0:0:0:
369,272,74257,1,8,3:0:0:0:
167,225,74411,6,0,P|159:158|142:50,1,172.199994744873,4|2,1:2|1:2,0:0:0:0:
251,159,74872,1,0,1:2:0:0:
380,33,75026,2,0,P|366:118|355:203,1,172.199994744873,10|2,2:0|1:2,0:0:0:0:
274,36,75488,1,0,1:2:0:0:
161,178,75641,6,0,P|99:177|65:70,1,172.199994744873,12|2,2:0|1:2,0:0:0:0:
169,44,76103,1,0,1:2:0:0:
297,220,76257,2,0,P|359:219|393:112,1,172.199994744873,10|2,2:0|1:2,0:0:0:0:
296,80,76718,1,0,0:0:0:0:
198,213,76872,6,0,P|210:286|227:387,1,172.199994744873,12|2,2:0|1:2,0:0:0:0:
95,192,77334,1,2,1:2:0:0:
332,91,77488,2,0,P|320:164|303:265,1,172.199994744873,8|0,2:0|1:2,0:0:0:0:
184,80,77949,1,0,1:2:0:0:
431,67,78103,6,0,P|405:22|284:15,1,172.199994744873,12|2,2:0|1:2,0:0:0:0:
112,106,78565,1,2,1:2:0:0:
296,175,78718,1,10,2:0:0:0:
173,34,78872,2,0,P|184:99|204:227,1,172.199994744873,14|10,2:0|2:0,0:0:0:0:
243,272,79257,1,8,2:0:0:0:
243,272,79334,6,0,P|291:295|338:289,1,86.0999973724366,4|0,1:2|0:0,0:0:0:0:
422,144,79641,1,10,2:0:0:0:
301,210,79795,1,10,2:0:0:0:
301,210,79872,1,8,2:0:0:0:
301,210,79949,1,0,1:2:0:0:
432,327,80103,2,0,P|447:273|448:230,1,86.0999973724366,2|8,1:2|2:0,0:0:0:0:
214,79,80411,6,0,P|196:129|197:269,1,172.199994744873,6|0,1:2|1:2,0:0:0:0:
112,76,80872,1,8,2:0:0:0:
295,162,81026,1,10,2:0:0:0:
295,162,81103,1,8,2:0:0:0:
295,162,81180,1,2,1:2:0:0:
113,231,81334,1,2,1:2:0:0:
229,80,81488,2,0,P|267:63|338:76,1,86.0999973724366,8|2,2:0|2:0,0:0:0:0:
314,285,81795,6,0,P|250:267|135:236,1,172.199994744873,6|10,1:2|2:0,0:0:0:0:
344,157,82257,1,10,2:0:0:0:
344,157,82334,1,8,2:0:0:0:
344,157,82411,1,2,1:2:0:0:
214,67,82565,2,0,P|156:77|115:84,1,86.0999973724366,2|8,1:2|2:0,0:0:0:0:
293,247,82872,6,0,P|362:257|430:173,1,172.199994744873,6|0,1:2|1:2,0:0:0:0:
300,41,83334,1,8,2:0:0:0:
432,94,83488,1,2,1:2:0:0:
247,129,83641,1,10,2:0:0:0:
363,136,83795,1,2,1:2:0:0:
224,235,83949,1,8,2:0:0:0:
423,232,84103,6,0,P|496:264|494:380,1,172.199994744873,6|2,1:2|3:2,0:0:0:0:
287,341,84565,2,0,L|238:335,3,43.0499986862183,2|0|2|0,1:2|3:2|3:2|3:2,0:0:0:0:
247,207,84872,2,0,L|296:201,3,43.0499986862183,0|0|2|0,1:2|3:2|3:2|3:2,0:0:0:0:
367,290,85180,6,0,L|358:346,3,43.0499986862183,0|0|2|0,1:2|3:0|3:0|3:0,0:0:0:0:
161,266,85488,2,0,L|154:223,3,43.0499986862183,0|8|10|8,1:2|2:0|2:0|2:0,0:0:0:0:
284,110,85795,5,2,1:2:0:0:
284,110,85872,1,8,2:0:0:0:
284,110,85949,2,0,L|341:117,1,43.0499986862183,10|8,2:0|2:0,0:0:0:0:
292,255,86103,1,2,1:2:0:0:
292,255,86180,1,8,2:0:0:0:
292,255,86257,2,0,L|235:262,1,43.0499986862183,10|8,2:0|2:0,0:0:0:0:
177,160,86411,1,2,1:2:0:0:
400,190,86565,1,4,1:2:0:0:
419,195,86872,5,8,2:0:0:0:
125,256,87026,1,8,2:0:0:0:
354,343,87334,5,8,2:0:0:0:
268,46,87641,5,8,2:0:0:0:
209,260,87794,1,12,2:0:0:0:
209,260,88103,6,0,L|135:244,2,53.2999975601197,2|2|2,2:0|2:0|2:0,0:0:0:0:
315,356,88565,2,0,L|384:347,1,53.2999975601197,2|2,2:0|1:2,0:0:0:0:
478,173,88872,6,0,B|417:162|417:162|403:166|403:166|314:151,1,129.149996058655,10|0,2:0|0:0,0:0:0:0:
275,188,89180,6,0,P|229:192|176:197,1,86.0999973724366,6|0,1:2|0:0,0:0:0:0:
373,325,89488,2,0,P|415:328|458:332,1,86.0999973724366,10|2,2:0|2:0,0:0:0:0:
371,153,89795,1,2,1:2:0:0:
253,274,89949,1,2,1:2:0:0:
289,88,90103,1,10,2:0:0:0:
453,241,90257,6,0,P|462:183|470:127,1,86.0999973724366,2|0,1:2|0:0,0:0:0:0:
192,96,90565,2,0,P|198:138|204:181,1,86.0999973724366,2|8,1:2|2:0,0:0:0:0:
384,51,90872,1,2,1:2:0:0:
324,179,91026,1,0,0:0:0:0:
269,21,91180,1,0,1:2:0:0:
420,134,91334,2,0,P|475:122|522:116,1,86.0999973724366,8|2,2:0|2:0,0:0:0:0:
285,318,91641,6,0,B|185:301|249:248|127:230,1,172.199994744873,2|10,1:2|2:0,0:0:0:0:
16,127,92103,2,0,P|24:184|32:245,1,86.0999973724366,2|0,2:0|1:2,0:0:0:0:
233,101,92411,2,0,P|238:58|244:15,1,86.0999973724366,2|8,1:2|2:0,0:0:0:0:
141,184,92718,6,0,P|191:240|293:221,1,172.199994744873,2|2,1:2|1:2,0:0:0:0:
367,98,93180,1,10,2:0:0:0:
249,138,93334,1,2,1:2:0:0:
380,214,93488,1,2,2:0:0:0:
254,262,93641,1,2,1:2:0:0:
387,135,93795,2,0,P|443:135|492:211,1,129.149996058655,8|0,2:0|0:0,0:0:0:0:
469,263,94103,6,0,P|456:309|440:368,1,86.0999973724366,6|0,1:2|0:0,0:0:0:0:
239,202,94411,1,10,2:0:0:0:
363,52,94565,2,0,P|376:98|392:157,1,86.0999973724366,2|2,2:0|1:2,0:0:0:0:
259,290,94872,1,2,1:2:0:0:
291,138,95026,1,10,2:0:0:0:
362,277,95180,6,0,P|423:290|480:301,1,86.0999973724366,2|0,1:2|0:0,0:0:0:0:
177,153,95488,2,0,P|134:162|92:170,1,86.0999973724366,2|8,1:2|2:0,0:0:0:0:
410,178,95795,2,0,P|448:131|405:14,1,172.199994744873,2|2,1:2|1:2,0:0:0:0:
191,65,96257,1,10,2:0:0:0:
327,108,96411,1,2,2:0:0:0:
160,207,96565,5,14,2:0:0:0:
321,195,96718,1,2,1:2:0:0:
184,301,96872,1,2,1:2:0:0:
237,143,97026,1,14,2:0:0:0:
326,300,97180,1,0,1:2:0:0:
152,196,97334,1,2,1:2:0:0:
324,103,97488,1,8,2:0:0:0:
264,255,97641,5,8,2:0:0:0:
264,255,97718,1,8,2:0:0:0:
264,255,97795,2,0,P|209:268|151:278,1,86.0999973724366,8|8,2:0|3:0,0:0:0:0:
90,66,98103,2,0,P|132:74|174:84,1,86.0999973724366,8|8,3:0|3:0,0:0:0:0:
52,209,98411,5,12,2:0:0:0:
324,155,98565,1,12,2:0:0:0:
324,155,99026,6,0,P|329:194|337:245,2,61.5000023460389,6|2|0,1:2|2:0|1:2,0:0:0:0:
187,40,99488,2,0,P|180:82|175:113,1,61.5000023460389,10|0,2:0|1:2,0:0:0:0:
353,215,99795,2,0,P|360:173|365:142,1,61.5000023460389,2|0,2:0|1:2,0:0:0:0:
197,201,100103,6,0,L|131:213,1,61.5000023460389,10|0,2:0|0:0,0:0:0:0:
308,38,100411,2,0,L|374:50,1,61.5000023460389,8|0,2:0|1:2,0:0:0:0:
267,159,100718,1,0,0:0:0:0:
183,62,100872,2,0,L|117:74,1,61.5000023460389,8|0,2:0|3:0,0:0:0:0:
208,227,101180,1,0,1:2:0:0:
337,106,101334,5,10,2:0:0:0:
337,106,101411,1,8,2:0:0:0:
337,106,101488,2,0,P|345:152|329:245,1,123.000004692078,2|0,1:2|1:2,0:0:0:0:
278,300,101949,2,0,P|240:306|202:309,1,61.5000023460389,10|0,2:0|1:2,0:0:0:0:
365,331,102257,2,0,P|395:334|425:339,1,61.5000023460389,10|0,2:0|1:2,0:0:0:0:
271,213,102565,1,10,2:0:0:0:
430,230,102718,5,2,1:2:0:0:
293,299,102872,1,10,2:0:0:0:
427,350,103026,1,2,1:2:0:0:
343,199,103180,2,0,P|351:154|356:117,1,61.5000023460389,2|8,2:0|2:0,0:0:0:0:
182,258,103488,2,0,P|186:288|192:318,1,61.5000023460389,10|0,2:0|1:2,0:0:0:0:
217,90,103795,5,8,2:0:0:0:
217,90,103872,1,8,2:0:0:0:
217,90,103949,2,0,P|267:84|302:79,2,61.5000023460389,2|10|2,1:2|2:0|1:2,0:0:0:0:
119,161,104411,2,0,P|87:156|54:152,1,61.5000023460389,2|12,2:0|2:0,0:0:0:0:
231,234,104718,2,0,P|261:230|291:225,1,61.5000023460389,2|0,2:0|1:2,0:0:0:0:
149,362,105026,6,0,P|108:340|84:251,1,123.000004692078,10|8,2:0|2:0,0:0:0:0:
199,133,105488,2,0,P|204:173|209:222,1,61.5000023460389,0|0,1:2|0:0,0:0:0:0:
286,317,105795,1,8,2:0:0:0:
339,185,105949,1,8,2:0:0:0:
285,333,106103,1,0,1:2:0:0:
206,194,106257,1,10,2:0:0:0:
437,318,106411,6,0,P|456:269|450:183,1,123.000004692078,2|0,1:2|1:2,0:0:0:0:
394,93,106872,1,10,2:0:0:0:
289,224,107026,1,2,1:2:0:0:
289,224,107180,2,0,P|270:175|276:89,1,123.000004692078,8|2,2:0|2:0,0:0:0:0:
221,4,107641,5,2,1:2:0:0:
367,27,107795,1,8,2:0:0:0:
344,173,107949,1,10,2:0:0:0:
198,150,108103,1,4,1:2:0:0:
198,150,108411,1,0,1:2:0:0:
308,95,108565,2,0,P|353:106|422:122,1,92.2500035190584,8|0,2:0|0:0,0:0:0:0:
437,133,108872,5,6,1:2:0:0:
352,253,109026,2,0,P|343:305|336:353,1,69.700001329422,2|8,2:0|2:0,0:0:0:0:
234,169,109334,2,0,P|228:134|222:100,1,69.700001329422,2|0,2:0|1:2,0:0:0:0:
184,274,109641,1,2,1:2:0:0:
325,184,109795,1,8,2:0:0:0:
232,19,109949,6,0,P|180:23|146:113,1,139.400002658844,6|0,1:2|1:2,0:0:0:0:
236,216,110411,2,0,L|224:301,1,69.700001329422,8|0,2:0|0:0,0:0:0:0:
70,155,110718,1,0,1:2:0:0:
252,123,110872,1,0,1:2:0:0:
137,215,111026,1,8,2:0:0:0:
288,278,111180,5,10,2:0:0:0:
288,278,111257,1,10,2:0:0:0:
288,278,111334,2,0,P|335:274|384:269,1,69.700001329422,6|0,1:2|0:0,0:0:0:0:
447,194,111641,1,10,2:0:0:0:
365,109,111795,2,0,P|318:105|269:100,1,69.700001329422,2|0,2:0|1:2,0:0:0:0:
202,206,112103,1,2,1:2:0:0:
332,149,112257,1,8,2:0:0:0:
207,44,112411,5,2,2:0:0:0:
207,44,112488,1,2,0:0:0:0:
207,44,112565,2,0,P|201:95|196:141,1,69.700001329422,2|0,1:2|1:2,0:0:0:0:
278,248,112872,1,10,2:0:0:0:
97,117,113026,1,8,2:0:0:0:
97,117,113103,1,8,2:0:0:0:
97,117,113180,2,0,P|103:168|108:214,1,69.700001329422,8|8,2:0|2:0,0:0:0:0:
291,129,113488,1,12,2:0:0:0:
218,282,113641,1,8,2:0:0:0:
182,65,113795,5,4,1:2:0:0:
181,64,114103,2,0,P|144:52|105:54,1,69.700001329422,10|0,2:0|0:0,0:0:0:0:
320,236,114411,2,0,P|354:235|387:224,1,69.700001329422,10|0,2:0|1:2,0:0:0:0:
168,188,114718,2,0,P|176:242|181:290,1,69.700001329422,10|0,2:0|1:2,0:0:0:0:
361,69,115026,5,14,2:0:0:0:
284,206,115180,1,0,0:0:0:0:
221,53,115334,2,0,P|178:44|132:34,1,69.700001329422,10|0,2:0|1:2,0:0:0:0:
207,242,115641,1,10,2:0:0:0:
288,101,115795,1,0,1:2:0:0:
360,278,115949,1,10,2:0:0:0:
360,278,116257,6,0,P|430:273|476:327,1,139.400002658844,4|10,1:2|2:0,0:0:0:0:
287,361,116718,1,0,1:2:0:0:
287,361,116795,1,0,1:2:0:0:
287,361,116872,2,0,L|218:375,1,69.700001329422,2|2,1:2|1:2,0:0:0:0:
348,174,117180,2,0,L|416:188,1,69.700001329422,10|0,2:0|0:0,0:0:0:0:
280,289,117488,5,2,1:2:0:0:
207,74,117641,2,0,L|138:88,1,69.700001329422,14|0,2:0|0:0,0:0:0:0:
216,229,117949,1,10,2:0:0:0:
295,34,118103,1,8,2:0:0:0:
314,209,118257,1,8,3:0:0:0:
207,74,118411,1,8,3:0:0:0:
432,61,118565,6,0,P|454:111|427:214,1,139.400002658844,6|0,1:2|1:2,0:0:0:0:
362,248,119026,2,0,P|321:240|279:232,1,69.700001329422,2|0,1:2|0:0,0:0:0:0:
188,219,119334,2,0,P|166:269|193:372,1,139.400002658844,10|0,2:0|0:0,0:0:0:0:
70,257,119795,6,0,P|62:197|41:99,1,139.400002658844,6|0,1:2|1:2,0:0:0:0:
152,17,120257,2,0,P|144:53|133:100,1,69.700001329422,0|2,1:2|2:0,0:0:0:0:
252,176,120565,1,10,2:0:0:0:
252,176,120718,2,0,P|244:142|236:108,1,69.700001329422,2|0,2:0|0:0,0:0:0:0:
333,36,121026,6,0,P|392:17|480:62,1,139.400002658844,6|0,1:2|1:2,0:0:0:0:
424,158,121488,2,0,P|390:159|352:142,1,69.700001329422,2|0,1:2|0:0,0:0:0:0:
269,102,121795,2,0,P|217:93|172:176,1,139.400002658844,10|2,2:0|2:0,0:0:0:0:
212,232,122257,1,8,2:0:0:0:
299,188,122411,5,4,1:2:0:0:
359,265,122565,1,0,3:0:0:0:
457,246,122718,1,8,2:0:0:0:
477,152,122872,1,8,3:0:0:0:
453,129,123026,1,8,3:0:0:0:
421,125,123180,1,0,3:0:0:0:
396,139,123334,1,0,3:0:0:0:
379,163,123488,6,0,P|366:237|351:331,1,139.400002658844,6|0,1:2|1:2,0:0:0:0:
258,192,123949,2,0,L|246:118,1,69.700001329422,2|0,1:2|0:0,0:0:0:0:
180,37,124257,2,0,P|132:27|81:105,1,139.400002658844,10|2,2:0|2:0,0:0:0:0:
145,163,124718,6,0,P|154:214|149:325,1,139.400002658844,6|0,1:2|1:2,0:0:0:0:
60,371,125180,2,0,P|52:332|56:286,1,69.700001329422,0|2,1:2|2:0,0:0:0:0:
9,194,125488,2,0,P|65:225|146:191,1,139.400002658844,10|0,2:0|0:0,0:0:0:0:
206,110,125949,6,0,P|257:118|354:135,1,139.400002658844,4|0,1:2|1:2,0:0:0:0:
424,192,126411,2,0,P|467:188|510:184,1,69.700001329422,2|0,1:2|0:0,0:0:0:0:
512,326,126718,1,10,2:0:0:0:
426,274,126872,1,2,2:0:0:0:
334,321,127026,2,0,P|291:317|248:313,1,69.700001329422,0|0,3:0|3:0,0:0:0:0:
114,168,127334,5,14,2:0:0:0:
188,365,127488,1,8,3:0:0:0:
188,365,127565,1,8,3:0:0:0:
188,365,127641,1,8,3:0:0:0:
248,122,127795,2,0,P|290:110|329:109,1,69.700001329422,6|0,1:2|0:0,0:0:0:0:
101,298,128103,2,0,P|66:294|33:284,1,69.700001329422,6|0,1:2|0:0,0:0:0:0:
323,220,128411,6,0,P|339:284|292:370,1,139.400002658844,6|2,1:2|1:2,0:0:0:0:
159,228,128872,1,10,2:0:0:0:
312,132,129026,1,10,2:0:0:0:
312,132,129103,1,8,2:0:0:0:
312,132,129180,1,2,1:2:0:0:
133,151,129334,2,0,P|92:143|54:136,1,69.700001329422,2|8,1:2|2:0,0:0:0:0:
325,280,129641,6,0,P|385:271|486:258,1,139.400002658844,6|2,1:2|1:2,0:0:0:0:
298,162,130103,1,10,2:0:0:0:
448,75,130257,1,10,2:0:0:0:
448,75,130334,1,8,2:0:0:0:
448,75,130411,1,2,1:2:0:0:
392,232,130565,1,2,1:2:0:0:
309,59,130718,2,0,P|262:51|227:46,1,69.700001329422,8|0,2:0|0:0,0:0:0:0:
139,114,131026,6,0,P|126:165|149:235,1,104.550001994133,6|0,1:2|0:0,0:0:0:0:
204,249,131334,2,0,P|217:300|194:370,1,104.550001994133,10|8,2:0|2:0,0:0:0:0:
136,370,131641,2,0,P|100:360|43:344,1,69.700001329422,2|0,1:2|1:2,0:0:0:0:
289,224,131949,2,0,P|325:214|382:198,1,69.700001329422,10|0,2:0|0:0,0:0:0:0:
181,97,132257,6,0,P|127:85|41:67,1,139.400002658844,6|8,1:2|2:0,0:0:0:0:
221,188,132718,1,2,1:2:0:0:
90,230,132872,1,8,2:0:0:0:
169,72,133026,1,2,1:2:0:0:
275,255,133180,2,0,P|321:262|367:270,1,69.700001329422,8|2,2:0|2:0,0:0:0:0:
462,55,133488,6,0,P|419:64|352:72,1,90.2000027526856,4|0,1:2|0:0,0:0:0:0:
291,121,133949,1,0,1:2:0:0:
291,121,134103,2,0,P|248:112|181:104,1,90.2000027526856,8|0,2:0|1:2,0:0:0:0:
101,172,134565,1,8,2:0:0:0:
101,172,134641,1,8,2:0:0:0:
101,172,134718,5,0,1:2:0:0:
195,237,134872,2,0,P|234:229|298:221,1,90.2000027526856,8|0,2:0|1:2,0:0:0:0:
372,165,135334,2,0,P|411:173|475:181,1,90.2000027526856,8|0,2:0|1:2,0:0:0:0:
378,277,135949,6,0,L|367:366,1,77.8999979198456,4|0,1:2|1:2,0:0:0:0:
252,217,136257,1,0,1:2:0:0:
360,114,136411,2,0,L|372:194,1,77.8999979198456,12|0,2:0|1:2,0:0:0:0:
462,74,136718,1,0,1:2:0:0:
259,0,136872,2,0,L|249:78,1,77.8999979198456,12|0,2:0|1:2,0:0:0:0:
96,211,137180,6,0,P|55:207|8:168,1,77.8999979198456,14|2,2:0|1:2,0:0:0:0:
177,54,137488,2,0,P|218:58|265:97,1,77.8999979198456,14|2,2:0|1:2,0:0:0:0:
340,222,137795,1,8,2:0:0:0:
340,222,137872,1,8,2:0:0:0:
340,222,137949,2,0,L|348:288,1,38.9499989599228,8|8,2:0|2:0,0:0:0:0:
465,156,138103,2,0,L|469:117,1,38.9499989599228,8|8,3:0|3:0,0:0:0:0:
364,28,138257,1,8,3:0:0:0:
364,28,138334,1,8,3:0:0:0:
364,28,138411,6,0,P|319:41|266:44,1,86.0999973724366,4|2,1:0|2:0,0:0:0:0:
136,17,138718,1,8,2:0:0:0:
281,177,138872,2,0,P|236:164|183:161,1,86.0999973724366,2|0,1:2|0:0,0:0:0:0:
68,294,139180,1,2,1:2:0:0:
212,242,139334,1,8,2:0:0:0:
86,123,139488,1,8,2:0:0:0:
86,123,139565,1,8,2:0:0:0:
86,123,139641,6,0,P|94:178|100:232,1,86.0999973724366,2|2,1:2|1:2,0:0:0:0:
80,336,139949,1,8,2:0:0:0:
252,161,140103,2,0,P|244:216|238:270,1,86.0999973724366,2|0,1:2|0:0,0:0:0:0:
390,365,140411,1,2,1:2:0:0:
350,224,140565,1,8,2:0:0:0:
252,358,140718,5,8,2:0:0:0:
252,358,140795,1,8,2:0:0:0:
252,358,140872,2,0,P|206:336|160:319,1,86.0999973724366,2|2,1:2|1:2,0:0:0:0:
260,170,141180,1,8,2:0:0:0:
386,315,141334,2,0,P|432:293|478:276,1,86.0999973724366,2|0,1:2|0:0,0:0:0:0:
364,121,141641,1,2,1:2:0:0:
296,271,141795,1,8,2:0:0:0:
237,97,141949,6,0,P|207:58|69:69,1,172.199994744873,6|0,1:2|1:2,0:0:0:0:
36,243,142411,1,8,2:0:0:0:
186,183,142565,1,2,2:0:0:0:
61,120,142718,1,2,1:2:0:0:
125,294,142872,1,0,1:2:0:0:
125,294,142949,1,0,1:2:0:0:
125,294,143026,2,0,P|171:288|214:271,1,86.0999973724366,10|0,2:0|0:0,0:0:0:0:
414,54,143334,6,0,P|405:98|398:138,1,86.0999973724366,6|2,1:2|2:0,0:0:0:0:
269,34,143642,1,8,2:0:0:0:
310,217,143796,1,10,2:0:0:0:
310,217,143873,1,8,2:0:0:0:
310,217,143950,1,2,1:2:0:0:
369,83,144104,1,2,1:2:0:0:
213,131,144258,1,8,2:0:0:0:
337,292,144411,6,0,P|413:304|484:216,1,172.199994744873,6|0,1:2|1:2,0:0:0:0:
314,109,144872,2,0,P|270:99|219:89,1,86.0999973724366,8|0,2:0|0:0,0:0:0:0:
103,65,145181,1,2,1:2:0:0:
196,223,145334,1,10,2:0:0:0:
196,223,145411,1,8,2:0:0:0:
196,223,145488,2,0,P|240:213|291:203,1,86.0999973724366,8|8,2:0|3:0,0:0:0:0:
421,105,145795,6,0,P|425:57|428:4,1,86.0999973724366,6|0,1:2|1:2,0:0:0:0:
427,231,146103,2,0,P|429:273|433:316,1,86.0999973724366,14|0,2:0|0:0,0:0:0:0:
227,83,146411,1,0,1:2:0:0:
353,155,146565,1,0,1:2:0:0:
128,115,146718,6,0,P|124:67|121:14,1,86.0999973724366,14|0,2:0|0:0,0:0:0:0:
122,241,147026,2,0,P|119:283|115:326,1,86.0999973724366,6|8,1:2|3:0,0:0:0:0:
32,141,147334,1,10,2:0:0:0:
226,252,147488,2,0,L|335:233,1,86.0999973724366,6|0,1:2|0:0,0:0:0:0:
234,96,147795,2,0,L|125:77,1,86.0999973724366,6|0,1:2|0:0,0:0:0:0:
403,135,148103,5,8,2:0:0:0:
403,135,148180,1,8,2:0:0:0:
403,135,148257,2,0,P|410:79|418:26,1,86.0999973724366,4|2,1:0|2:0,0:0:0:0:
299,217,148564,1,8,2:0:0:0:
194,41,148718,2,0,P|200:84|205:127,1,86.0999973724366,2|0,1:2|0:0,0:0:0:0:
283,313,149026,1,2,1:2:0:0:
143,227,149180,1,8,2:0:0:0:
308,129,149334,5,8,2:0:0:0:
308,129,149411,1,8,2:0:0:0:
308,129,149488,2,0,P|356:150|404:160,1,86.0999973724366,2|2,1:2|1:2,0:0:0:0:
253,301,149795,1,8,2:0:0:0:
409,244,149949,2,0,P|457:223|505:213,1,86.0999973724366,2|0,1:2|0:0,0:0:0:0:
370,353,150257,1,2,1:2:0:0:
285,218,150411,1,8,2:0:0:0:
133,343,150565,5,8,2:0:0:0:
133,343,150641,1,8,2:0:0:0:
133,343,150718,2,0,P|140:287|150:235,1,86.0999973724366,2|2,1:2|1:2,0:0:0:0:
62,123,151026,1,8,2:0:0:0:
251,259,151180,2,0,P|244:203|234:151,1,86.0999973724366,2|0,1:2|0:0,0:0:0:0:
146,24,151488,1,2,1:2:0:0:
298,76,151641,1,8,2:0:0:0:
154,199,151795,6,0,P|94:193|53:89,1,172.199994744873,6|0,1:2|1:2,0:0:0:0:
234,25,152257,2,0,P|227:77|221:130,1,86.0999973724366,8|0,2:0|2:0,0:0:0:0:
113,32,152565,1,2,1:2:0:0:
335,193,152718,2,0,P|395:187|436:83,1,172.199994744873,4|8,1:2|2:0,0:0:0:0:
276,11,153180,6,0,B|175:-16|213:67|93:25,2,172.199994744873,4|8|2,1:2|2:0|1:2,0:0:0:0:
345,109,153949,1,0,1:2:0:0:
173,197,154103,2,0,P|129:187|91:136,1,86.0999973724366,8|0,2:0|0:0,0:0:0:0:
192,82,154411,5,2,1:2:0:0:
298,204,154565,2,0,P|288:260|281:317,1,86.0999973724366,2|10,1:2|2:0,0:0:0:0:
99,339,154872,2,0,P|89:283|82:226,1,86.0999973724366,2|0,1:2|0:0,0:0:0:0:
169,170,155180,1,2,1:2:0:0:
229,340,155334,2,0,P|272:365|326:362,1,86.0999973724366,8|2,2:0|2:0,0:0:0:0:
387,142,155641,6,0,P|322:129|267:119,1,86.0999973724366,12|0,2:0|1:2,0:0:0:0:
169,170,155949,1,0,1:2:0:0:
441,281,156103,2,0,P|376:294|321:304,1,86.0999973724366,12|0,2:0|1:2,0:0:0:0:
223,253,156411,1,0,1:2:0:0:
453,108,156564,2,0,P|388:95|333:85,1,86.0999973724366,10|2,2:0|1:2,0:0:0:0:
218,149,156872,5,2,1:2:0:0:
373,204,157026,1,2,2:0:0:0:
301,11,157180,2,0,P|279:49|278:106,1,86.0999973724366,10|0,2:0|2:0,0:0:0:0:
271,275,157488,2,0,P|293:237|294:180,1,86.0999973724366,10|8,2:0|3:0,0:0:0:0:
188,111,157795,1,8,3:0:0:0:
321,71,157949,1,8,3:0:0:0:
215,211,158103,6,0,P|150:188|39:168,1,172.199994744873,4|2,1:2|1:2,0:0:0:0:
120,269,158565,1,0,1:2:0:0:
188,111,158718,2,0,P|241:92|311:178,1,172.199994744873,10|2,2:0|1:2,0:0:0:0:
277,282,159180,1,0,1:2:0:0:
413,152,159334,6,0,B|380:245|450:217|414:341,1,172.199994744873,12|2,2:0|1:2,0:0:0:0:
507,175,159795,1,0,1:2:0:0:
376,49,159949,2,0,P|344:103|224:65,1,172.199994744873,10|2,2:0|1:2,0:0:0:0:
99,24,160411,1,0,0:0:0:0:
150,234,160565,6,0,P|155:165|183:27,1,172.199994744873,12|2,2:0|1:2,0:0:0:0:
60,189,161026,1,2,1:2:0:0:
231,264,161180,2,0,P|193:315|77:290,1,172.199994744873,8|0,2:0|1:2,0:0:0:0:
177,121,161641,1,0,1:2:0:0:
293,198,161795,6,0,B|396:219|357:141|473:169,1,172.199994744873,12|2,2:0|1:2,0:0:0:0:
386,296,162257,1,2,1:2:0:0:
325,153,162411,1,10,2:0:0:0:
504,250,162565,2,0,P|527:183|499:61,1,172.199994744873,14|10,2:0|2:0,0:0:0:0:
461,24,162949,1,8,2:0:0:0:
461,24,163026,6,0,B|365:6|405:78|276:51,1,172.199994744873,4|10,1:2|2:0,0:0:0:0:
140,125,163488,1,10,2:0:0:0:
140,125,163565,1,8,2:0:0:0:
140,125,163641,1,0,1:2:0:0:
206,5,163795,2,0,P|213:50|225:121,1,86.0999973724366,2|8,1:2|2:0,0:0:0:0:
345,274,164103,6,0,P|352:220|373:93,1,172.199994744873,6|0,1:2|1:2,0:0:0:0:
437,203,164565,1,8,2:0:0:0:
267,111,164718,1,10,2:0:0:0:
267,111,164795,1,8,2:0:0:0:
267,111,164872,1,2,1:2:0:0:
420,52,165026,1,2,1:2:0:0:
271,205,165180,2,0,P|224:192|173:179,1,86.0999973724366,8|2,2:0|2:0,0:0:0:0:
361,320,165488,6,0,P|440:327|491:239,1,172.199994744873,6|10,1:2|2:0,0:0:0:0:
341,153,165949,1,10,2:0:0:0:
341,153,166026,1,8,2:0:0:0:
341,153,166103,1,2,1:2:0:0:
460,81,166257,1,2,1:2:0:0:
418,229,166411,1,8,2:0:0:0:
355,8,166565,6,0,B|247:7|312:89|162:71,1,172.199994744873,6|0,1:2|1:2,0:0:0:0:
73,44,167026,1,8,2:0:0:0:
164,152,167180,1,2,1:2:0:0:
41,125,167334,1,10,2:0:0:0:
141,242,167488,1,2,1:2:0:0:
25,210,167641,1,8,2:0:0:0:
93,349,167795,6,0,P|120:305|236:312,1,172.199994744873,6|8,1:2|2:0,0:0:0:0:
321,373,168257,2,0,P|367:363|415:353,1,86.0999973724366,8|8,2:0|2:0,0:0:0:0:
497,254,168565,2,0,P|451:244|403:234,1,86.0999973724366,8|8,2:0|2:0,0:0:0:0:
318,134,168872,2,0,P|364:124|412:114,1,86.0999973724366,8|8,2:0|2:0,0:0:0:0:
491,62,169180,5,10,2:0:0:0:
453,190,169334,1,10,2:0:0:0:
368,42,169488,1,10,2:0:0:0:
327,186,169641,1,10,2:0:0:0:
248,32,169795,1,10,2:0:0:0:
194,187,169949,1,10,2:0:0:0:
120,30,170103,1,10,2:0:0:0:
57,173,170257,1,10,2:0:0:0:
220,104,170411,6,0,B|308:82|403:151|316:184|402:249|496:227,1,319.799985360718,4|0,1:2|0:0,0:0:0:0:
425,45,171641,6,0,P|374:36|336:129,2,159.899992680359,2|2|2,2:0|2:0|2:0,0:0:0:0:
394,322,172872,6,0,P|352:312|286:296,1,106.599995120239,2|2,2:0|2:0,0:0:0:0:
223,340,173334,2,0,P|181:350|115:366,1,106.599995120239,2|0,2:0|0:0,0:0:0:0:
45,312,173795,2,0,L|37:251,1,53.2999975601197,2|2,2:0|2:0,0:0:0:0:
79,161,174103,6,0,P|125:187|203:131,2,159.899992680359,2|2|2,2:0|2:0|2:0,0:0:0:0:
202,32,175334,6,0,L|312:51,1,106.599995120239,2|2,2:0|2:0,0:0:0:0:
374,106,175795,2,0,L|479:87,1,106.599995120239,2|0,2:0|0:0,0:0:0:0:
508,176,176257,2,0,L|496:235,1,53.2999975601197,2|0,2:0|0:0,0:0:0:0:
401,294,176565,6,0,P|384:242|278:242,2,159.899992680359,2|2|2,2:0|2:0|2:0,0:0:0:0:
201,355,177795,5,2,2:0:0:0:
201,355,177949,2,0,L|194:284,1,53.2999975601197,2|0,2:0|0:0,0:0:0:0:
111,238,178257,1,2,2:0:0:0:
213,185,178411,1,2,2:0:0:0:
213,185,178565,2,0,L|220:114,1,53.2999975601197,2|2,2:0|2:3,0:0:0:0:
218,131,179026,5,4,1:2:0:0:
280,298,179180,1,8,2:0:0:0:
362,147,179334,1,8,2:0:0:0:
139,317,179488,5,4,1:2:0:0:
457,257,179795,6,0,P|469:214|437:114,1,133.249993900299,4|0,1:2|0:0,0:0:0:0:
399,79,180257,6,0,P|345:69|270:57,1,123.000004692078,4|0,1:2|1:2,0:0:0:0:
144,148,180872,1,8,1:2:0:0:
216,213,181026,1,0,3:0:0:0:
240,132,181180,1,10,1:2:0:0:
240,132,181257,1,0,3:0:0:0:
240,132,181334,1,2,3:0:0:0:
240,132,181411,1,0,3:0:0:0:
240,132,181488,6,0,L|250:77,5,30.7500011730195,10|0|0|0|10|0,1:2|3:0|3:0|3:0|1:2|3:0,0:0:0:0:
304,219,181949,2,0,L|309:249,5,30.7500011730195,2|0|8|0|2|0,3:0|3:0|1:2|3:0|3:0|3:0,0:0:0:0:
357,130,182411,2,0,L|397:124,3,30.7500011730195,8|0|0|0,1:2|3:0|3:0|3:0,0:0:0:0:
457,221,182718,5,10,1:2:0:0:
457,221,182795,1,0,3:0:0:0:
457,221,182872,1,0,3:0:0:0:
457,221,182949,1,0,3:0:0:0:
457,221,183026,2,0,L|451:251,3,30.7500011730195,10|0|2|0,1:2|3:0|3:0|3:0,0:0:0:0:
452,362,183334,2,0,L|446:331,3,30.7500011730195,8|0|0|0,1:2|3:0|3:0|3:0,0:0:0:0:
338,295,183641,2,0,L|308:302,3,30.7500011730195,10|0|2|0,1:2|3:0|3:0|3:0,0:0:0:0:
207,254,183949,6,0,L|162:246,5,30.7500011730195,10|0|0|0|10|0,1:2|3:0|3:0|3:0|1:2|3:0,0:0:0:0:
183,135,184411,2,0,L|228:127,3,30.7500011730195,2|0|8|0,3:0|3:0|1:2|3:0,0:0:0:0:
296,206,184718,2,0,L|341:214,5,30.7500011730195,8|8|8|8|4|4,3:0|3:0|3:0|3:0|3:0|3:0,0:0:0:0:
411,169,185180,6,0,P|425:116|377:22,1,155.799995839691,6|8,1:2|2:0,0:0:0:0:
270,85,185641,2,0,P|235:109|180:110,1,77.8999979198456,0|2,1:2|2:0,0:0:0:0:
60,31,185949,1,0,1:2:0:0:
104,146,186103,2,0,P|96:201|86:249,1,77.8999979198456,8|0,2:0|0:0,0:0:0:0:
208,318,186411,5,2,1:2:0:0:
90,366,186565,1,0,1:2:0:0:
122,245,186718,1,8,2:0:0:0:
252,384,186872,2,0,B|347:384|308:325|414:331,1,155.799995839691,0|0,1:2|1:2,0:0:0:0:
483,210,187334,2,0,P|444:181|388:183,1,77.8999979198456,8|0,2:0|0:0,0:0:0:0:
262,273,187641,6,0,P|254:204|231:109,1,155.799995839691,6|0,1:2|1:2,0:0:0:0:
336,189,188103,1,8,2:0:0:0:
336,189,188257,2,0,P|343:142|352:103,1,77.8999979198456,0|0,0:0|1:2,0:0:0:0:
229,16,188565,2,0,P|186:20|147:65,1,77.8999979198456,12|0,2:0|0:0,0:0:0:0:
67,153,188872,5,8,2:0:0:0:
67,153,188949,1,8,2:0:0:0:
67,153,189026,1,0,1:2:0:0:
222,90,189180,1,0,1:2:0:0:
82,20,189334,1,8,2:0:0:0:
82,20,189411,1,8,2:0:0:0:
82,20,189488,1,0,1:2:0:0:
160,155,189641,1,0,1:2:0:0:
236,4,189795,2,0,P|293:12|371:26,1,116.849996879768,12|0,2:0|0:0,0:0:0:0:
422,73,190103,5,4,1:2:0:0:
422,73,190411,5,8,2:0:0:0:
390,197,190565,1,0,1:2:0:0:
266,119,190718,5,8,2:0:0:0:
297,268,190872,1,0,1:2:0:0:
170,173,191026,5,8,2:0:0:0:
115,317,191180,2,0,P|145:363|250:367,1,155.799995839691,6|10,1:2|2:0,0:0:0:0:
332,320,191641,5,10,2:0:0:0:
83,208,191795,1,10,2:0:0:0:
450,52,192411,6,0,P|399:108|309:83,1,155.799995839691,6|10,1:2|2:0,0:0:0:0:
285,31,192872,5,10,2:0:0:0:
25,113,193026,1,10,2:0:0:0:
19,25,193180,6,0,P|60:33|123:46,1,100.449996934509,2|0,2:0|0:0,0:0:0:0:
196,98,193795,6,0,P|220:148|211:295,2,188.60000359726,4|8|0,1:0|2:0|1:2,0:0:0:0:
142,161,194565,1,0,1:2:0:0:
299,101,194718,1,8,2:0:0:0:
154,19,194872,1,2,1:2:0:0:
284,215,195026,6,0,P|340:210|380:173,1,94.3000017986298,2|0,2:0|1:2,0:0:0:0:
458,15,195334,2,0,P|402:20|362:57,1,94.3000017986298,10|0,2:0|2:0,0:0:0:0:
450,252,195641,2,0,P|473:194|466:135,1,94.3000017986298,2|0,1:2|1:2,0:0:0:0:
245,32,195949,2,0,P|247:78|267:121,1,94.3000017986298,10|2,2:0|2:0,0:0:0:0:
510,77,196257,6,0,B|437:85|437:85|405:125|405:125|307:137,1,188.60000359726,6|8,1:2|2:0,0:0:0:0:
270,227,196718,1,2,2:0:0:0:
270,227,196795,1,2,2:0:0:0:
270,227,196872,2,0,P|325:236|387:244,1,94.3000017986298,2|2,1:2|1:2,0:0:0:0:
246,337,197180,1,10,2:0:0:0:
88,254,197334,6,0,B|64:149|158:187|116:42,1,188.60000359726,2|2,1:2|1:2,0:0:0:0:
37,4,197795,1,10,2:0:0:0:
204,40,197949,1,2,1:2:0:0:
23,84,198103,1,2,1:2:0:0:
202,16,198257,1,2,1:2:0:0:
130,176,198411,1,10,2:0:0:0:
85,11,198565,1,2,2:0:0:0:
209,140,198718,6,0,P|288:163|369:64,1,188.60000359726,6|8,1:2|2:0,0:0:0:0:
505,20,199180,2,0,P|482:70|478:145,1,94.3000017986298,2|0,2:0|1:2,0:0:0:0:
350,8,199488,1,2,1:2:0:0:
448,176,199641,1,10,2:0:0:0:
273,59,199795,6,0,B|161:37|207:124|89:106,1,188.60000359726,2|2,1:2|1:2,0:0:0:0:
154,221,200257,2,0,P|207:209|235:170,1,94.3000017986298,10|2,2:0|2:0,0:0:0:0:
19,72,200565,1,2,1:2:0:0:
51,200,200718,1,2,1:2:0:0:
233,65,200872,2,0,P|286:77|314:116,1,94.3000017986298,10|2,2:0|2:0,0:0:0:0:
430,321,201180,6,0,P|439:268|452:205,1,94.3000017986298,14|2,2:0|1:2,0:0:0:0:
144,134,201488,2,0,P|153:180|160:226,1,94.3000017986298,14|2,2:0|2:0,0:0:0:0:
345,74,201795,1,2,1:2:0:0:
345,74,201872,1,2,2:0:0:0:
345,74,201949,2,0,L|399:66,1,47.1500008993149,2|2,1:2|2:0,0:0:0:0:
318,264,202103,1,14,2:0:0:0:
318,264,202180,1,0,0:0:0:0:
318,264,202257,2,0,L|264:256,1,47.1500008993149,2|0,2:0|0:0,0:0:0:0:
102,169,202411,5,14,2:0:0:0:
102,169,202488,1,8,2:0:0:0:
102,169,202565,2,0,L|108:219,2,47.1500008993149,8|8|0,2:0|2:0|1:2,0:0:0:0:
129,19,202872,2,0,P|179:22|215:59,1,94.3000017986298,6|2,1:2|2:0,0:0:0:0:
303,152,203180,1,12,2:0:0:0:
163,183,203334,1,2,2:0:0:0:
361,67,203488,5,8,2:0:0:0:
361,67,203565,1,8,2:0:0:0:
361,67,203641,2,0,P|332:125|323:249,1,188.60000359726,4|10,1:0|2:0,0:0:0:0:
233,353,204103,2,0,P|177:347|146:303,1,94.3000017986298,2|0,2:0|1:2,0:0:0:0:
89,168,204411,1,2,1:2:0:0:
219,230,204565,1,10,2:0:0:0:
82,282,204718,1,2,1:2:0:0:
178,127,204872,6,0,P|243:127|330:232,1,188.60000359726,2|10,2:0|2:0,0:0:0:0:
430,348,205334,2,0,P|439:266|461:136,1,188.60000359726,2|2,1:2|1:2,0:0:0:0:
306,274,205795,1,10,2:0:0:0:
360,120,205949,1,2,2:0:0:0:
228,201,206103,6,0,P|181:225|126:211,1,94.3000017986298,2|2,1:2|2:0,0:0:0:0:
163,58,206411,1,8,2:0:0:0:
321,188,206565,2,0,P|368:212|423:198,1,94.3000017986298,2|0,2:0|1:2,0:0:0:0:
298,30,206872,1,2,1:2:0:0:
237,202,207026,1,10,2:0:0:0:
106,12,207180,6,0,P|49:25|24:162,1,188.60000359726,6|2,1:2|1:2,0:0:0:0:
163,261,207641,1,10,2:0:0:0:
101,110,207795,1,2,1:2:0:0:
54,286,207949,1,10,2:0:0:0:
202,144,208103,2,0,B|312:149|248:229|377:240,1,188.60000359726,6|8,1:2|2:0,0:0:0:0:
460,115,208565,6,0,P|469:59|484:7,2,94.3000017986298,6|2|10,1:2|2:0|2:0,0:0:0:0:
465,276,209026,2,0,P|474:332|489:384,2,94.3000017986298,2|2|2,2:0|1:2|1:2,0:0:0:0:
381,105,209488,1,10,2:0:0:0:
327,259,209641,6,0,P|283:314|178:289,1,188.60000359726,2|2,1:2|1:2,0:0:0:0:
91,138,210103,1,10,2:0:0:0:
229,204,210257,1,2,2:0:0:0:
93,271,210411,1,2,1:2:0:0:
214,74,210565,2,0,B|324:57|275:145|430:117,1,188.60000359726,2|0,1:2|0:0,0:0:0:0:
447,204,211026,5,6,1:2:0:0:
447,204,211103,1,2,2:0:0:0:
447,204,211180,2,0,L|438:266,1,47.1500008993149,2|2,2:0|2:0,0:0:0:0:
340,360,211334,1,10,2:0:0:0:
340,360,211411,1,2,2:0:0:0:
340,360,211488,2,0,L|331:298,1,47.1500008993149,2|2,1:2|2:0,0:0:0:0:
225,199,211641,1,10,2:0:0:0:
225,199,211718,1,2,2:0:0:0:
225,199,211795,2,0,L|216:261,1,47.1500008993149,2|2,1:2|2:0,0:0:0:0:
135,352,211949,1,10,2:0:0:0:
24,244,212103,6,0,B|-2:123|79:186|46:49,1,188.60000359726,6|8,1:2|2:0,0:0:0:0:
165,170,212565,1,10,2:0:0:0:
25,60,212718,1,8,2:0:0:0:
268,144,212872,5,6,1:2:0:0:
24,244,213103,5,6,1:2:0:0:
132,17,213334,5,6,1:2:0:0:
238,263,213488,5,6,1:2:0:0:
256,192,213565,12,2,214718,0:0:0:0:
103,39,221488,5,2,1:2:0:0:
268,119,221641,1,10,2:0:0:0:
268,119,221718,1,8,2:0:0:0:
268,119,221795,1,8,2:0:0:0:
132,181,221949,1,8,3:0:0:0:
289,22,222103,6,0,P|337:40|388:42,1,86.0999973724366,6|0,1:2|1:2,0:0:0:0:
275,251,222411,2,0,P|232:256|192:272,1,86.0999973724366,14|0,2:0|0:0,0:0:0:0:
150,75,222718,1,0,1:2:0:0:
302,135,222872,1,0,1:2:0:0:
81,295,223026,6,0,P|70:231|61:176,1,86.0999973724366,14|0,2:0|0:0,0:0:0:0:
237,34,223334,2,0,P|229:76|222:118,1,86.0999973724366,6|8,1:2|3:0,0:0:0:0:
64,60,223641,1,10,2:0:0:0:
231,227,223795,2,0,P|291:214|344:203,1,86.0999973724366,6|0,1:2|0:0,0:0:0:0:
115,322,224103,2,0,P|55:309|2:298,1,86.0999973724366,6|0,1:2|0:0,0:0:0:0:
105,163,224411,1,8,2:0:0:0:
105,163,224488,1,8,2:0:0:0:
105,163,224565,5,4,1:0:0:0:
127,175,224872,1,0,1:2:0:0:
147,154,225180,1,0,1:2:0:0:
122,133,225488,1,0,1:2:0:0:
405,308,225795,5,2,1:2:0:0:
383,296,226102,1,0,1:2:0:0:
363,317,226410,1,0,1:2:0:0:
388,338,226718,1,0,1:2:0:0:
342,132,227026,5,2,1:2:0:0:
358,98,227334,1,0,1:2:0:0:
335,66,227641,1,0,1:2:0:0:
350,32,227949,1,0,1:2:0:0:
129,122,228257,5,2,1:2:0:0:
155,141,228565,1,0,1:2:0:0:
132,173,228872,1,0,1:2:0:0:
159,200,229180,1,0,1:2:0:0:
324,339,229488,6,0,P|403:355|463:271,1,172.199994744873,4|8,1:2|2:0,0:0:0:0:
361,222,229949,1,0,0:0:0:0:
466,162,230103,2,0,P|474:113|482:57,1,86.0999973724366,2|0,1:2|1:2,0:0:0:0:
321,4,230411,2,0,P|327:46|334:89,1,86.0999973724366,8|0,2:0|0:0,0:0:0:0:
245,205,230718,5,2,1:2:0:0:
245,205,230872,2,0,P|199:187|132:179,1,86.0999973724366,2|8,2:0|2:0,0:0:0:0:
54,84,231180,2,0,P|96:75|135:59,1,86.0999973724366,2|0,2:0|1:2,0:0:0:0:
242,125,231488,1,2,1:2:0:0:
73,245,231641,2,0,P|115:253|154:269,1,86.0999973724366,8|2,2:0|2:0,0:0:0:0:
247,238,231949,5,14,2:0:0:0:
37,369,232103,1,8,3:0:0:0:
37,369,232180,1,8,3:0:0:0:
37,369,232257,1,8,3:0:0:0:
253,313,232411,5,14,2:0:0:0:
19,220,232565,1,8,3:0:0:0:
19,220,232641,1,8,3:0:0:0:
19,220,232718,1,8,3:0:0:0:
227,98,232872,6,0,P|237:146|224:199,1,86.0999973724366,12|8,2:0|2:0,0:0:0:0:
208,278,233180,5,4,1:2:0:0:
208,278,233795,1,10,2:0:0:0:
194,251,233872,1,8,2:0:0:0:
200,221,233949,1,10,2:0:0:0:
224,202,234026,1,8,2:0:0:0:
254,204,234103,1,10,2:0:0:0:
281,215,234180,1,8,2:0:0:0:
310,210,234257,1,10,2:0:0:0:
333,191,234334,1,8,2:0:0:0:
341,162,234411,6,0,P|351:103|357:36,1,102.5,4|2,1:0|2:0,0:0:0:0:
107,201,234718,2,0,P|112:243|126:307,1,102.5,8|2,2:0|1:2,0:0:0:0:
137,74,235026,1,8,2:0:0:0:
254,162,235180,1,2,1:2:0:0:
230,23,235334,1,8,2:0:0:0:
142,175,235488,1,0,1:2:0:0:
341,285,235641,6,0,P|412:291|472:310,1,102.5,10|2,2:0|1:2,0:0:0:0:
498,100,235949,2,0,P|448:111|396:113,1,102.5,8|2,2:0|1:2,0:0:0:0:
214,133,236257,1,8,2:0:0:0:
373,208,236411,1,2,1:2:0:0:
234,259,236565,1,8,2:0:0:0:
306,104,236718,1,0,1:2:0:0:
260,369,236872,6,0,P|205:362|142:354,1,102.5,10|2,2:0|1:2,0:0:0:0:
378,220,237180,2,0,P|433:213|496:205,1,102.5,8|2,2:0|1:2,0:0:0:0:
218,131,237488,1,8,2:0:0:0:
286,282,237641,1,2,1:2:0:0:
330,92,237795,1,8,2:0:0:0:
167,240,237949,6,0,P|102:219|97:64,1,205,6|0,1:2|1:2,0:0:0:0:
177,2,238411,1,8,2:0:0:0:
290,131,238565,1,8,2:0:0:0:
290,131,238641,1,8,2:0:0:0:
290,131,238718,2,0,P|344:129|381:91,1,102.5,2|0,1:2|1:2,0:0:0:0:
177,2,239026,2,0,P|123:4|86:42,1,102.5,10|0,2:0|0:0,0:0:0:0:
167,240,239334,6,0,P|221:238|256:207,1,86.0999973724366,6|2,1:2|2:0,0:0:0:0:
370,113,239641,1,8,2:0:0:0:
322,270,239795,1,10,2:0:0:0:
322,270,239872,1,8,2:0:0:0:
322,270,239949,1,2,1:2:0:0:
281,58,240103,1,2,1:2:0:0:
370,199,240257,1,8,2:0:0:0:
469,25,240411,6,0,P|444:95|467:221,1,172.199994744873,6|0,1:2|1:2,0:0:0:0:
505,328,240872,2,0,P|466:296|406:301,1,86.0999973724366,8|0,2:0|0:0,0:0:0:0:
337,355,241180,1,2,1:2:0:0:
219,315,241334,1,10,2:0:0:0:
198,292,241411,1,8,2:0:0:0:
189,263,241488,1,8,2:0:0:0:
195,233,241565,1,8,2:0:0:0:
210,207,241641,1,8,3:0:0:0:
287,96,241795,6,0,P|338:105|395:116,1,86.0999973724366,6|0,1:2|1:2,0:0:0:0:
106,234,242103,2,0,P|63:241|21:249,1,86.0999973724366,14|0,2:0|0:0,0:0:0:0:
190,66,242411,1,0,1:2:0:0:
259,203,242565,1,0,1:2:0:0:
87,114,242718,6,0,P|96:59|104:9,1,86.0999973724366,14|0,2:0|0:0,0:0:0:0:
285,132,243026,1,6,1:2:0:0:
285,132,243103,1,0,1:2:0:0:
285,132,243180,1,8,3:0:0:0:
124,206,243334,1,10,2:0:0:0:
238,46,243488,2,0,P|306:31|377:118,1,172.199994744873,6|6,1:2|1:2,0:0:0:0:
273,267,243949,1,0,0:0:0:0:
174,139,244103,1,8,2:0:0:0:
174,139,244180,1,8,2:0:0:0:
174,139,244257,6,0,P|230:146|279:157,1,102.5,4|2,1:0|2:0,0:0:0:0:
460,332,244565,2,0,P|409:342|359:348,1,102.5,8|2,2:0|1:2,0:0:0:0:
287,88,244872,1,8,2:0:0:0:
391,248,245026,1,2,1:2:0:0:
234,213,245180,1,8,2:0:0:0:
386,142,245334,1,0,1:2:0:0:
176,294,245488,6,0,P|143:250|145:182,1,102.5,10|2,2:0|1:2,0:0:0:0:
341,45,245795,2,0,P|374:89|372:157,1,102.5,8|2,2:0|1:2,0:0:0:0:
122,100,246103,1,8,2:0:0:0:
285,174,246257,1,2,1:2:0:0:
146,234,246411,1,8,2:0:0:0:
212,67,246565,1,0,1:2:0:0:
259,265,246718,6,0,P|272:327|283:383,1,102.5,10|2,2:0|1:2,0:0:0:0:
461,191,247026,2,0,P|471:140|481:90,1,102.5,8|2,2:0|1:2,0:0:0:0:
226,157,247334,1,8,2:0:0:0:
366,225,247488,1,2,1:2:0:0:
315,75,247641,1,8,2:0:0:0:
224,276,247795,6,0,B|105:258|183:200|37:185,1,205,6|0,1:2|1:2,0:0:0:0:
212,36,248257,2,0,P|219:101|226:158,1,102.5,8|0,2:0|1:2,0:0:0:0:
132,263,248565,1,2,1:2:0:0:
342,102,248718,2,0,P|368:162|326:314,1,205,4|8,1:2|2:0,0:0:0:0:
260,335,249103,1,8,2:0:0:0:
260,335,249180,6,0,P|191:311|206:209,2,172.199994744873,4|8|2,1:2|2:0|1:2,0:0:0:0:
332,229,249949,1,0,1:2:0:0:
245,119,250103,2,0,P|198:103|144:111,1,86.0999973724366,8|0,2:0|0:0,0:0:0:0:
200,237,250411,1,2,1:2:0:0:
353,94,250565,6,0,P|359:36|363:-4,1,86.0999973724366,2|10,1:2|2:0,0:0:0:0:
466,183,250872,2,0,P|470:225|474:268,1,86.0999973724366,2|0,1:2|0:0,0:0:0:0:
288,168,251180,1,2,1:2:0:0:
434,74,251334,1,8,2:0:0:0:
374,243,251488,1,2,2:0:0:0:
243,25,251641,6,0,P|251:83|261:139,1,86.0999973724366,12|0,2:0|1:2,0:0:0:0:
233,263,251949,1,0,1:2:0:0:
434,74,252103,2,0,P|426:132|416:188,1,86.0999973724366,12|0,2:0|1:2,0:0:0:0:
439,304,252411,1,0,1:2:0:0:
234,82,252565,1,10,2:0:0:0:
207,306,252718,5,2,1:2:0:0:
207,306,252795,1,0,1:2:0:0:
207,306,252872,1,2,1:2:0:0:
307,135,253026,1,10,2:0:0:0:
163,187,253180,2,0,P|108:197|53:204,1,86.0999973724366,8|8,3:0|3:0,0:0:0:0:
297,273,253488,2,0,P|339:279|381:287,1,86.0999973724366,8|8,3:0|3:0,0:0:0:0:
173,363,253795,2,0,P|130:356|88:348,1,86.0999973724366,8|8,3:0|3:0,0:0:0:0:
248,208,254103,6,0,P|275:158|234:49,1,172.199994744873,4|2,1:2|1:2,0:0:0:0:
160,9,254565,1,0,1:2:0:0:
44,113,254718,2,0,P|68:171|91:304,1,172.199994744873,10|2,2:0|1:2,0:0:0:0:
171,133,255180,1,0,1:2:0:0:
259,270,255334,6,0,B|364:290|322:213|445:238,1,172.199994744873,12|2,2:0|1:2,0:0:0:0:
505,301,255795,1,0,1:2:0:0:
480,142,255949,2,0,P|424:128|364:227,1,172.199994744873,10|2,2:0|1:2,0:0:0:0:
373,343,256411,1,0,0:0:0:0:
235,209,256565,6,0,P|252:142|240:26,1,172.199994744873,12|2,2:0|1:2,0:0:0:0:
137,126,257026,1,2,1:2:0:0:
332,103,257180,1,8,2:0:0:0:
214,237,257334,1,0,0:0:0:0:
168,42,257488,2,0,P|137:30|67:36,1,86.0999973724366,0|0,1:2|1:2,0:0:0:0:
292,218,257795,6,0,P|353:206|475:184,1,172.199994744873,12|2,2:0|1:2,0:0:0:0:
296,125,258257,1,2,1:2:0:0:
458,214,258411,1,10,2:0:0:0:
321,319,258565,2,0,P|259:321|202:215,1,172.199994744873,14|10,2:0|2:0,0:0:0:0:
240,168,258949,1,8,2:0:0:0:
240,168,259026,6,0,P|243:104|260:-3,1,172.199994744873,4|10,1:2|2:0,0:0:0:0:
337,132,259488,1,10,2:0:0:0:
337,132,259565,1,8,2:0:0:0:
337,132,259641,1,0,1:2:0:0:
204,39,259795,2,0,P|164:24|109:31,1,86.0999973724366,2|8,1:2|2:0,0:0:0:0:
313,231,260103,6,0,P|384:232|443:131,1,172.199994744873,6|0,1:2|1:2,0:0:0:0:
194,125,260565,1,8,2:0:0:0:
327,34,260718,1,10,2:0:0:0:
327,34,260795,1,8,2:0:0:0:
327,34,260872,1,2,1:2:0:0:
223,212,261026,2,0,P|170:201|106:191,1,86.0999973724366,2|8,1:2|2:0,0:0:0:0:
199,46,261334,1,2,2:0:0:0:
368,172,261488,6,0,P|354:250|347:381,1,172.199994744873,6|10,1:2|2:0,0:0:0:0:
204,180,261949,1,10,2:0:0:0:
204,180,262026,1,8,2:0:0:0:
204,180,262103,1,2,1:2:0:0:
258,318,262257,1,2,1:2:0:0:
307,136,262411,1,8,2:0:0:0:
121,292,262565,6,0,P|58:271|55:155,1,172.199994744873,6|0,1:2|1:2,0:0:0:0:
203,58,263026,2,0,P|188:118|177:171,1,86.0999973724366,8|2,2:0|1:2,0:0:0:0:
21,25,263334,1,10,2:0:0:0:
42,46,263411,1,10,2:0:0:0:
68,59,263488,1,10,2:0:0:0:
97,62,263565,1,10,2:0:0:0:
126,58,263641,1,10,2:0:0:0:
153,46,263718,1,10,2:0:0:0:
185,29,263795,6,0,P|245:8|335:87,1,172.199994744873,4|0,1:2|1:2,0:0:0:0:
284,200,264257,2,0,P|241:221|182:219,1,86.0999973724366,10|0,2:0|0:0,0:0:0:0:
376,310,264565,2,0,P|418:313|456:333,1,86.0999973724366,2|0,1:2|1:2,0:0:0:0:
379,161,264872,1,10,2:0:0:0:
167,336,265026,6,0,P|110:311|93:190,1,172.199994744873,2|0,1:2|1:2,0:0:0:0:
213,93,265488,1,8,2:0:0:0:
246,230,265641,1,0,1:2:0:0:
105,120,265795,2,0,P|116:61|121:18,1,86.0999973724366,0|0,0:0|1:2,0:0:0:0:
307,161,266103,1,8,2:0:0:0:
132,232,266257,1,0,0:0:0:0:
208,66,266411,1,4,1:2:0:0:
208,66,266718,6,0,P|255:64|313:85,1,86.0999973724366,10|0,2:0|0:0,0:0:0:0:
381,203,267026,2,0,P|334:205|276:184,1,86.0999973724366,2|0,1:2|1:2,0:0:0:0:
389,42,267334,1,8,2:0:0:0:
474,149,267488,1,0,1:2:0:0:
228,111,267641,6,0,P|198:168|254:282,1,172.199994744873,2|8,2:0|2:0,0:0:0:0:
332,355,268103,1,2,1:2:0:0:
145,277,268257,1,0,1:2:0:0:
303,210,268411,1,0,1:2:0:0:
158,362,268565,2,0,P|113:356|73:326,1,86.0999973724366,8|0,2:0|0:0,0:0:0:0:
171,86,268872,6,0,P|191:153|211:289,1,172.199994744873,4|10,1:2|2:0,0:0:0:0:
307,91,269334,1,0,0:0:0:0:
249,245,269488,2,0,P|238:292|231:357,1,86.0999973724366,2|0,1:2|1:2,0:0:0:0:
119,162,269795,1,10,2:0:0:0:
318,296,269949,6,0,P|377:296|458:205,1,172.199994744873,2|0,1:2|1:2,0:0:0:0:
293,111,270411,1,8,2:0:0:0:
426,67,270565,1,0,1:2:0:0:
328,203,270718,2,0,P|274:205|230:178,1,86.0999973724366,0|0,1:2|1:2,0:0:0:0:
175,13,271026,2,0,P|229:11|273:38,1,86.0999973724366,10|0,2:0|0:0,0:0:0:0:
151,264,271334,6,0,P|144:206|131:155,1,86.0999973724366,14|0,2:0|1:2,0:0:0:0:
109,75,271641,1,0,1:2:0:0:
360,328,271795,2,0,P|367:270|380:219,1,86.0999973724366,14|0,2:0|1:2,0:0:0:0:
402,139,272102,1,0,1:2:0:0:
252,246,272257,5,14,2:0:0:0:
256,192,272334,12,0,282103,0:0:0:0:
