osu file format v14

[General]
AudioFilename: audio.mp3
AudioLeadIn: 0
PreviewTime: 213411
Countdown: 0
SampleSet: Soft
StackLeniency: 0.8
Mode: 0
LetterboxInBreaks: 0
WidescreenStoryboard: 1

[Editor]
DistanceSpacing: 0.9
BeatDivisor: 4
GridSize: 32
TimelineZoom: 1

[Metadata]
Title:Resolution
TitleUnicode:Resolution
Artist:Tomatsu Haruka
ArtistUnicode:戸松遥
Creator:iljaaz
Version:Centoria
Source:ソードアート・オンライン アリシゼーション War of Underworld
Tags:Reform full size ver sword art online sao alicization season 3 alice opening japanese anime
BeatmapID:2196456
BeatmapSetID:1050963

[Difficulty]
HPDrainRate:6
CircleSize:4.2
OverallDifficulty:8.3
ApproachRate:9.4
SliderMultiplier:1.74
SliderTickRate:1

[Events]
//Background and Video events
0,0,"cropped-2560-1440-1004744.jpg",0,0
//Break Periods
2,214918,220948
//Storyboard Layer 0 (Background)
//Storyboard Layer 1 (Fail)
//Storyboard Layer 2 (Pass)
//Storyboard Layer 3 (Foreground)
//Storyboard Layer 4 (Overlay)
//Storyboard Sound Samples

[TimingPoints]
565,307.692307692308,4,2,2,64,1,0
565,-156.25,4,2,2,64,0,0
1641,-96.153846153846,4,2,2,64,0,0
2718,-156.25,4,2,2,64,0,0
3026,-96.153846153846,4,2,2,64,0,0
3488,-119.047619047619,4,2,2,64,0,0
4103,-96.153846153846,4,2,2,64,0,0
5488,-87.719298245614,4,2,2,74,0,0
13795,-156.25,4,2,2,74,0,0
15334,-156.25,4,2,2,54,0,0
25180,-106.382978723404,4,2,2,64,0,0
29795,-80.6451612903224,4,2,2,64,0,0
30103,-80.6451612903224,4,2,2,74,0,0
32565,-80.6451612903224,4,2,2,64,0,0
33488,-106.382978723404,4,2,2,64,0,0
34872,-135.135135135135,4,2,2,54,0,0
35641,-74.6268656716417,4,2,2,54,0,0
36257,-135.135135135135,4,2,2,54,0,0
36872,-74.6268656716417,4,2,2,54,0,0
37488,-135.135135135135,4,2,2,54,0,0
38103,-74.6268656716417,4,2,2,54,0,0
38565,-135.135135135135,4,2,2,54,0,0
40565,-74.6268656716417,4,2,2,54,0,0
41180,-135.135135135135,4,2,2,54,0,0
43641,-106.382978723404,4,2,2,74,0,0
44103,-74.6268656716417,4,2,2,74,0,1
44718,-96.1538461538461,4,2,2,64,0,0
47026,-74.6268656716417,4,2,2,64,0,0
47334,-96.1538461538461,4,2,2,64,0,0
48565,-96.1538461538461,4,2,2,74,0,0
49795,-119.047619047619,4,2,2,54,0,0
52257,-119.047619047619,4,2,2,54,0,1
52872,-119.047619047619,4,2,2,59,0,1
53026,-119.047619047619,4,2,2,64,0,1
53180,-119.047619047619,4,2,2,69,0,1
53334,-119.047619047619,4,2,2,74,0,1
53488,-74.6268656716417,4,2,2,84,0,1
54718,-87.719298245614,4,2,2,84,0,0
62103,-74.6268656716418,4,2,2,84,0,1
64565,-87.719298245614,4,2,2,84,0,0
69488,-87.719298245614,4,2,2,74,0,0
71949,-87.719298245614,4,2,2,84,0,0
74411,-106.382978723404,4,2,2,74,0,0
79334,-96.1538461538461,4,2,2,74,0,0
87026,-74.6268656716418,4,2,2,74,0,0
89180,-96.1538461538461,4,2,2,74,0,0
93795,-74.6268656716418,4,2,2,74,0,0
94103,-96.1538461538461,4,2,2,74,0,0
99026,-119.047619047619,4,2,2,54,0,0
100103,-87.719298245614,4,2,2,54,0,0
100872,-119.047619047619,4,2,2,54,0,0
104565,-87.719298245614,4,2,2,54,0,0
105026,-119.047619047619,4,2,2,54,0,0
108103,-87.719298245614,4,2,2,54,0,0
108872,-106.382978723404,4,2,2,64,0,0
113795,-80.6451612903224,4,2,2,74,0,0
116257,-80.6451612903224,4,2,2,64,0,0
118565,-135.135135135135,4,2,2,54,0,0
119334,-227.272727272727,4,2,2,54,0,0
119795,-135.135135135135,4,2,2,54,0,0
120565,-227.272727272727,4,2,2,54,0,0
121026,-135.135135135135,4,2,2,54,0,0
124257,-227.272727272727,4,2,2,54,0,0
124718,-135.135135135135,4,2,2,54,0,0
125488,-227.272727272727,4,2,2,54,0,0
125949,-135.135135135135,4,2,2,54,0,0
127333,-135.135135135135,4,2,2,74,0,0
127795,-74.6268656716417,4,2,2,74,0,1
128410,-74.6268656716417,4,2,2,64,0,1
128411,-96.1538461538461,4,2,2,64,0,0
130718,-74.6268656716417,4,2,2,64,0,0
131026,-96.1538461538461,4,2,2,64,0,0
132257,-96.1538461538461,4,2,2,74,0,0
133487,-96.1538461538461,4,2,2,54,0,0
133488,-119.047619047619,4,2,2,54,0,0
135949,-74.6268656716417,4,2,2,64,0,1
136411,-74.6268656716417,4,2,2,72,0,1
136872,-74.6268656716417,4,2,2,80,0,1
137180,-74.6268656716417,4,2,2,84,0,1
138103,-87.719298245614,4,2,2,84,0,1
138411,-87.719298245614,4,2,2,84,0,0
145795,-74.6268656716418,4,2,2,84,0,1
148257,-87.719298245614,4,2,2,84,0,0
153180,-87.719298245614,4,2,2,74,0,0
155641,-87.719298245614,4,2,2,84,0,0
158103,-106.382978723404,4,2,2,74,0,0
163026,-96.153846153846,4,2,2,74,0,0
167795,-96.153846153846,4,2,2,84,0,1
169180,-96.153846153846,4,2,2,94,0,1
170411,-185.185185185185,4,2,2,94,0,0
171641,-185.185185185185,4,2,2,44,0,0
179026,-74.6268656716418,4,2,2,74,0,0
180257,-96.1538461538461,4,2,2,64,0,0
187641,-96.1538461538461,4,2,2,74,0,0
189795,-74.6268656716418,4,2,2,74,0,0
190103,-96.1538461538461,4,2,2,84,0,0
191180,-74.6268656716418,4,2,2,89,0,0
191949,-227.272727272727,4,2,2,89,0,1
192411,-74.6268656716418,4,2,2,94,0,0
193180,-294.117647058823,4,2,2,94,0,1
193795,-87.719298245614,4,2,2,84,0,0
201180,-74.6268656716418,4,2,2,84,0,1
203641,-87.719298245614,4,2,2,84,0,0
212103,-74.6268656716418,4,2,2,94,0,1
212872,-69.4444444444444,4,2,2,94,0,1
213488,-185.185185185185,4,2,2,94,0,0
214718,-185.185185185185,4,2,2,64,0,0
221488,-96.1538461538461,4,2,2,74,0,0
222103,-74.6268656716418,4,2,2,74,0,1
224565,-119.047619047619,4,2,2,54,0,0
229488,-119.047619047619,4,2,2,64,0,0
231949,-74.6268656716418,4,2,2,84,0,0
233180,-119.047619047619,4,2,2,74,0,0
233488,-96.1538461538461,4,2,2,74,0,0
233795,-74.6268656716418,4,2,2,74,0,0
234411,-87.719298245614,4,2,2,84,0,1
241795,-74.6268656716418,4,2,2,84,0,1
244257,-87.719298245614,4,2,2,84,0,1
249180,-87.719298245614,4,2,2,74,0,1
251641,-87.719298245614,4,2,2,84,0,1
254103,-106.382978723404,4,2,2,74,0,0
272257,-666.666666666667,4,2,2,74,0,0
272565,-666.666666666667,4,2,2,67,0,0
273795,-666.666666666667,4,2,2,60,0,0
275026,-666.666666666667,4,2,2,53,0,0
276257,-666.666666666667,4,2,2,46,0,0
277488,-666.666666666667,4,2,2,39,0,0
278718,-666.666666666667,4,2,2,32,0,0
279949,-666.666666666667,4,2,2,25,0,0
281180,-666.666666666667,4,2,2,18,0,0
282411,-666.666666666667,4,2,2,11,0,0
283641,-666.666666666667,4,2,2,5,0,0

[Colours]
Combo1 : 108,255,255
Combo2 : 255,255,89
Combo3 : 255,169,128

[HitObjects]
457,108,565,5,8,0:2:0:0:
310,261,718,1,8,0:2:0:0:
404,298,872,5,0,0:0:0:0:
288,176,1026,2,0,P|257:193|217:203,1,55.68,2|0,0:0|0:0,0:0:0:0:
146,318,1334,2,0,P|173:323|199:333,1,55.68,2|0,0:0|0:0,0:0:0:0:
98,116,1641,6,0,P|73:156|77:222,1,90.4799994477539,8|0,0:2|0:0,0:0:0:0:
234,96,1949,1,10,0:2:0:0:
125,0,2103,2,0,P|86:19|31:31,1,90.4799994477539,8|2,0:2|0:0,0:0:0:0:
223,180,2411,1,2,3:0:0:0:
223,180,2488,1,0,3:0:0:0:
223,180,2565,1,2,3:0:0:0:
350,40,2718,2,0,P|352:66|361:100,1,55.68,2|2,0:0|0:0,0:0:0:0:
227,0,3026,5,8,0:2:0:0:
338,187,3180,1,8,0:2:0:0:
359,94,3334,5,0,0:0:0:0:
179,200,3488,2,0,P|215:211|261:244,1,73.0799977697755,8|0,3:0|0:0,0:0:0:0:
157,101,3795,1,8,3:0:0:0:
324,28,3949,5,8,0:2:0:0:
94,287,4103,2,0,P|49:220|75:108,1,180.959998895508,4|8,1:2|0:0,0:0:0:0:
304,307,4565,1,8,0:0:0:0:
245,229,4718,1,4,1:2:0:0:
162,363,4872,2,0,P|182:348|221:337,1,45.239999723877,2|0,0:0|0:0,0:0:0:0:
372,246,5026,2,0,P|348:233|306:224,1,45.239999723877,8|8,0:0|0:0,0:0:0:0:
154,95,5180,5,8,0:0:0:0:
188,129,5257,1,8,0:0:0:0:
241,122,5334,1,8,0:0:0:0:
267,75,5411,1,8,0:0:0:0:
263,65,5488,6,0,B|171:57|196:156|80:137,1,198.359997578613,4|10,1:0|0:0,0:0:0:0:
248,251,5949,1,0,0:0:0:0:
54,339,6103,5,2,1:2:0:0:
145,208,6257,1,0,1:2:0:0:
196,372,6411,5,10,0:0:0:0:
40,230,6565,2,0,P|61:147|77:23,1,198.359997578613,2|0,1:2|1:2,0:0:0:0:
248,251,7026,2,0,P|197:263|145:292,1,99.1799987893067,8|0,0:0|1:2,0:0:0:0:
242,78,7334,5,0,0:0:0:0:
337,153,7488,1,0,1:2:0:0:
244,222,7641,1,8,0:0:0:0:
340,54,7795,1,0,0:0:0:0:
486,179,7949,6,0,P|469:253|461:339,1,148.76999818396,4|0,1:2|0:0,0:0:0:0:
449,337,8257,2,0,P|399:343|344:371,1,99.1799987893067,10|0,0:0|0:0,0:0:0:0:
206,149,8565,1,2,1:2:0:0:
319,226,8718,1,0,1:2:0:0:
133,357,8872,2,0,P|112:310|117:238,1,99.1799987893067,8|0,0:0|1:2,0:0:0:0:
316,110,9180,6,0,P|294:205|281:326,1,198.359997578613,2|8,0:0|0:0,0:0:0:0:
168,76,9641,1,2,1:2:0:0:
21,201,9795,2,0,P|64:180|132:176,1,99.1799987893067,0|0,1:2|1:2,0:0:0:0:
255,54,10103,1,8,0:0:0:0:
120,3,10257,1,0,0:0:0:0:
268,188,10411,6,0,B|348:176|312:137|399:119,1,148.76999818396,4|0,1:2|0:0,0:0:0:0:
405,127,10718,2,0,P|448:147|509:153,1,99.1799987893067,10|0,0:0|0:0,0:0:0:0:
336,299,11026,1,2,1:2:0:0:
442,241,11180,1,0,1:2:0:0:
314,129,11334,1,10,0:0:0:0:
241,384,11488,6,0,P|304:331|423:356,1,198.359997578613,2|0,1:2|1:2,0:0:0:0:
194,127,11949,2,0,P|189:179|173:235,1,99.1799987893067,8|0,0:0|1:2,0:0:0:0:
336,299,12257,1,0,1:2:0:0:
268,188,12411,1,0,1:2:0:0:
143,323,12565,1,10,0:0:0:0:
143,323,12641,1,2,0:0:0:0:
143,323,12718,1,2,0:0:0:0:
68,244,12872,6,0,P|61:301|48:353,1,99.1799987893067,14|0,0:2|1:2,0:0:0:0:
176,224,13180,1,0,1:2:0:0:
18,110,13334,2,0,P|66:99|117:75,1,99.1799987893067,14|0,0:2|1:2,0:0:0:0:
5,188,13641,1,0,1:2:0:0:
215,286,13795,6,0,B|338:296|289:368|406:384,1,222.72,14|2,0:2|0:0,0:0:0:0:
475,257,14565,1,2,0:0:0:0:
404,284,14718,1,2,0:0:0:0:
489,370,14872,6,0,L|500:330,1,27.84,2|2,0:0|0:0,0:0:0:0:
372,144,15026,2,0,P|347:180|357:236,1,83.52,2|0,0:0|0:0,0:0:0:0:
341,234,15334,5,2,1:2:0:0:
497,83,15488,2,0,P|468:94|429:104,1,55.68,2|0,1:2|3:2,0:0:0:0:
275,258,15795,2,0,P|326:272|384:298,1,111.36,2|2,0:2|0:2,0:0:0:0:
212,46,16411,6,0,P|218:78|221:119,1,55.68,2|0,1:2|0:0,0:0:0:0:
135,20,16718,1,0,1:2:0:0:
50,179,16872,2,0,P|55:127|74:53,1,111.36,0|0,1:2|3:2,0:0:0:0:
275,258,17488,1,0,3:2:0:0:
209,299,17641,1,2,0:2:0:0:
304,158,17795,5,2,1:2:0:0:
410,268,17949,2,0,P|418:329|432:393,1,111.36,2|2,1:2|0:2,0:0:0:0:
299,237,18411,2,0,P|297:266|290:306,1,55.68,0|2,3:2|0:2,0:0:0:0:
413,171,18718,1,0,3:2:0:0:
413,171,18872,1,2,0:2:0:0:
323,46,19026,6,0,P|270:38|226:78,1,111.36,2|2,1:2|3:2,0:0:0:0:
113,164,19488,2,0,P|120:139|126:100,1,55.68,2|0,1:2|3:2,0:0:0:0:
234,194,19795,1,2,1:2:0:0:
163,274,19949,2,0,P|131:281|97:295,1,55.68,0|0,3:2|0:0,0:0:0:0:
249,172,20257,5,2,1:2:0:0:
389,250,20411,2,0,P|411:303|403:361,1,111.36,2|2,1:2|0:2,0:0:0:0:
308,238,20872,2,0,P|318:211|325:169,1,55.68,0|2,3:2|0:2,0:0:0:0:
436,130,21180,1,0,3:2:0:0:
271,4,21334,6,0,P|320:23|384:34,1,111.36,2|0,1:2|1:2,0:0:0:0:
246,135,21795,1,0,1:2:0:0:
318,111,21949,1,0,0:0:0:0:
183,13,22103,2,0,P|178:44|169:72,1,55.68,0|0,3:2|0:0,0:0:0:0:
278,10,22411,1,0,3:2:0:0:
278,10,22488,1,2,0:0:0:0:
278,10,22565,1,2,0:2:0:0:
102,148,22718,5,2,1:2:0:0:
239,255,22872,2,0,P|225:201|219:141,1,111.36,2|2,1:2|0:2,0:0:0:0:
89,283,23334,2,0,P|118:292|159:313,1,55.68,0|2,3:2|0:2,0:0:0:0:
74,92,23641,2,0,P|64:140|45:186,1,83.52,0|0,3:2|0:0,0:0:0:0:
56,187,23949,5,2,1:2:0:0:
201,131,24103,1,8,0:0:0:0:
285,54,24257,5,10,0:0:0:0:
419,108,24411,1,4,1:2:0:0:
470,171,24565,6,0,P|473:203|481:236,1,55.68,2|8,0:0|0:0,0:0:0:0:
365,30,24872,5,8,0:0:0:0:
304,182,25026,1,8,0:0:0:0:
304,182,25103,1,8,0:0:0:0:
304,182,25180,6,0,P|341:189|389:215,1,81.7799987521363,6|2,1:2|0:0,0:0:0:0:
201,52,25488,1,8,0:0:0:0:
133,189,25641,2,0,L|123:139,1,40.8899993760681,10|8,0:0|0:0,0:0:0:0:
120,124,25795,1,0,1:2:0:0:
237,226,25949,1,2,1:2:0:0:
128,305,26103,1,8,0:0:0:0:
215,374,26257,6,0,P|141:346|58:332,1,163.559997504273,6|0,1:2|1:2,0:0:0:0:
268,152,26718,1,8,0:0:0:0:
308,270,26872,1,0,0:0:0:0:
120,124,27026,2,0,P|131:87|137:29,1,81.7799987521363,0|0,1:2|1:2,0:0:0:0:
336,177,27334,2,0,P|275:187|207:217,1,122.669998128204,8|0,0:0|0:0,0:0:0:0:
205,199,27641,5,6,1:2:0:0:
337,85,27795,1,0,0:0:0:0:
239,39,27949,5,10,0:0:0:0:
360,195,28103,1,10,0:0:0:0:
360,195,28180,1,8,0:0:0:0:
360,195,28257,2,0,P|347:235|341:291,1,81.7799987521363,0|2,1:2|1:2,0:0:0:0:
136,142,28565,2,0,P|176:133|222:110,1,81.7799987521363,8|2,0:0|0:0,0:0:0:0:
143,371,28872,6,0,P|98:336|96:275,1,122.669998128204,2|0,1:2|0:0,0:0:0:0:
110,265,29180,1,10,0:0:0:0:
275,337,29334,2,0,P|253:342|229:353,1,40.8899993760681,8|8,3:0|3:0,0:0:0:0:
291,229,29488,5,8,3:0:0:0:
321,201,29565,1,8,3:0:0:0:
360,195,29641,1,8,3:0:0:0:
402,216,29718,1,8,3:0:0:0:
397,229,29795,6,0,B|317:207|342:153|256:128,1,161.819993580139,12|0,0:0|0:0,0:0:0:0:
304,66,30103,6,0,P|252:107|156:107,1,161.819993580139,4|0,1:2|0:0,0:0:0:0:
113,50,30411,5,10,0:0:0:0:
113,50,30718,5,10,0:0:0:0:
222,196,30872,1,0,1:2:0:0:
49,236,31026,5,10,0:0:0:0:
138,121,31180,2,0,L|147:181,1,53.9399978600465,0|0,1:2|1:2,0:0:0:0:
263,333,31334,6,0,P|215:279|117:295,1,161.819993580139,14|0,0:2|0:0,0:0:0:0:
128,295,31641,2,0,P|184:301|232:261,1,107.879995720093,10|0,0:0|1:2,0:0:0:0:
369,193,31949,5,10,0:0:0:0:
257,82,32103,1,2,1:2:0:0:
250,95,32180,1,2,0:0:0:0:
250,109,32257,6,0,B|311:120|311:120|347:106|347:106|430:122,1,161.819993580139,10|0,0:0|0:0,0:0:0:0:
471,80,32565,6,0,B|352:103|406:175|284:190,1,215.759991440186,4|10,1:2|0:0,0:0:0:0:
469,320,33026,1,0,1:2:0:0:
477,304,33103,1,0,1:2:0:0:
476,285,33180,1,2,1:2:0:0:
345,384,33334,1,2,1:2:0:0:
224,254,33488,2,0,P|233:293|239:356,1,81.7799987521363,10|0,0:0|0:0,0:0:0:0:
374,197,33795,5,2,1:2:0:0:
179,43,33949,2,0,P|121:66|55:79,1,122.669998128204,14|0,0:0|0:0,0:0:0:0:
51,93,34257,1,10,0:0:0:0:
206,176,34411,5,8,0:0:0:0:
84,268,34565,2,0,P|95:231|100:169,1,81.7799987521363,8|8,3:0|3:0,0:0:0:0:
238,334,34872,6,0,B|321:343|306:279|403:289,1,160.950003929443,6|0,1:2|0:0,0:0:0:0:
397,301,35334,1,2,1:2:0:0:
283,99,35488,6,0,L|275:138,1,32.1900007858887
271,139,35641,6,2,B|203:151|204:40|353:34|354:156|465:141,1,291.449986213761,10|0,0:0|0:0,0:1:0:0:
451,132,36103,1,6,1:2:0:0:
384,12,36257,6,0,P|375:46|359:85,1,64.3800015717774,0|0,0:0|1:2,0:0:0:0:
480,227,36565,1,0,1:2:0:0:
374,317,36718,2,0,L|408:309,1,32.1900007858887,2|0,0:0|0:0,0:0:0:0:
416,301,36872,6,2,B|336:255|265:320|278:324|217:385|145:344,1,291.449986213761,10|0,0:0|0:0,0:1:0:0:
131,352,37334,1,6,1:2:0:0:
81,187,37488,6,0,P|107:204|161:213,1,64.3800015717774,0|0,0:0|1:2,0:0:0:0:
33,291,37795,1,2,1:2:0:0:
235,362,37949,6,0,P|229:343|226:308,1,32.1900007858887
173,273,38103,6,2,P|185:218|191:149,1,116.579994485504,10|10,0:2|0:2,0:1:0:0:
252,113,38411,1,2,0:0:0:0:
403,204,38565,1,8,0:0:0:0:
322,265,38718,1,0,1:2:0:0:
287,201,38872,5,0,3:0:0:0:
291,187,38949,1,0,3:2:0:0:
295,173,39026,1,8,0:0:0:0:
423,302,39180,1,8,3:0:0:0:
278,377,39334,2,0,P|308:367|356:361,1,64.3800015717774,8|0,3:0|3:0,0:0:0:0:
217,227,39641,1,0,3:0:0:0:
92,321,39795,6,0,P|43:296|36:221,1,128.760003143555,6|0,1:2|1:2,0:0:0:0:
153,123,40257,2,0,P|143:155|139:191,1,64.3800015717774,2|0,1:2|0:0,0:0:0:0:
58,63,40565,6,2,B|116:-5|217:26|217:26|231:96|301:119,1,291.449986213761,10|0,0:2|0:0,0:1:0:0:
312,127,41026,1,6,1:2:0:0:
471,13,41180,6,0,P|474:47|486:93,1,64.3800015717774,0|0,0:0|1:2,0:0:0:0:
286,253,41488,2,0,P|299:209|312:128,1,128.760003143555,0|10,1:2|0:0,0:0:0:0:
471,321,41949,2,0,P|434:329|401:346,1,64.3800015717774,2|0,0:0|0:0,0:0:0:0:
223,247,42257,6,0,P|269:284|351:275,1,128.760003143555,4|0,1:2|1:2,0:0:0:0:
444,163,42718,2,0,P|411:181|375:187,1,64.3800015717774,2|0,1:2|0:0,0:0:0:0:
139,225,43026,5,10,0:0:0:0:
266,317,43180,1,2,0:0:0:0:
247,242,43334,5,0,3:0:0:0:
156,307,43488,1,0,3:0:0:0:
312,127,43641,5,14,0:2:0:0:
211,28,43795,2,0,P|188:36|159:43,2,40.8899993760681,8|8|8,3:0|3:0|3:0,0:0:0:0:
34,227,44103,6,0,B|10:111|10:111|81:86,1,174.869991728257,6|0,1:2|0:0,0:0:0:0:
186,173,44411,6,0,B|210:289|210:289|139:314,1,174.869991728257,6|0,1:2|0:0,0:0:0:0:
124,238,44718,6,0,B|212:220|190:304|299:290,1,180.959998895508,6|2,1:2|1:2,0:0:0:0:
341,350,45180,1,10,0:0:0:0:
451,240,45334,1,10,0:0:0:0:
435,228,45411,1,8,0:0:0:0:
414,226,45488,1,2,1:2:0:0:
496,366,45641,1,2,1:2:0:0:
336,232,45795,1,8,0:0:0:0:
473,55,45949,6,0,P|517:110|488:194,1,135.719999171631,6|0,1:2|0:0,0:0:0:0:
512,186,46257,1,2,1:2:0:0:
319,31,46411,2,0,P|363:24|406:7,1,90.4799994477539,10|10,0:0|0:0,0:0:0:0:
473,55,46641,1,8,0:0:0:0:
473,55,46718,1,2,1:2:0:0:
336,232,46872,1,2,1:2:0:0:
256,92,47026,6,0,B|316:113|316:113|346:154|346:154|420:175,1,174.869991728257,8|0,0:0|0:0,0:0:0:0:
434,207,47334,6,0,P|421:162|420:111,1,90.4799994477539,6|0,1:2|0:0,0:0:0:0:
199,311,47641,2,0,P|211:270|215:208,1,90.4799994477539,10|8,0:0|0:0,0:0:0:0:
270,178,47872,1,8,0:0:0:0:
270,178,47949,1,2,1:2:0:0:
382,355,48103,1,0,1:2:0:0:
512,246,48257,2,0,P|477:216|424:209,1,90.4799994477539,10|0,0:0|0:0,0:0:0:0:
264,44,48565,6,0,B|164:32|196:108|87:87,1,180.959998895508,6|8,1:2|0:0,0:0:0:0:
270,178,49026,1,2,1:2:0:0:
106,204,49180,5,8,0:0:0:0:
262,71,49334,1,2,1:2:0:0:
140,19,49488,5,8,0:0:0:0:
323,120,49641,1,2,0:0:0:0:
189,281,49795,6,0,P|155:214|182:123,1,146.159995539551,4|0,1:2|0:0,0:0:0:0:
187,76,50257,1,0,1:2:0:0:
417,167,50411,2,0,B|359:186|359:186|341:218|341:218|279:240,1,146.159995539551,8|0,0:0|1:2,0:0:0:0:
403,80,50872,1,0,0:0:0:0:
512,202,51026,6,0,P|499:239|492:281,1,73.0799977697755,0|8,1:2|0:0,0:0:0:0:
425,306,51334,1,0,0:0:0:0:
245,174,51488,6,0,P|260:244|269:333,1,146.159995539551,0|0,1:2|0:0,0:0:0:0:
379,153,51949,1,0,1:2:0:0:
73,7,52257,6,0,P|120:51|209:28,1,146.159995539551,4|0,1:2|1:2,0:0:0:0:
275,130,52718,1,8,0:0:0:0:
104,238,52872,1,8,0:0:0:0:
33,141,53026,1,8,0:0:0:0:
127,78,53180,1,8,0:0:0:0:
180,137,53334,1,8,0:0:0:0:
1,276,53488,5,10,0:0:0:0:
127,78,53641,1,2,1:2:0:0:
0,63,53795,5,10,0:0:0:0:
104,238,53949,1,2,1:2:0:0:
249,18,54103,6,0,P|221:33|184:44,1,58.2899972427522,10|8,0:0|0:0,0:0:0:0:
351,211,54257,2,0,P|380:219|419:241,1,58.2899972427522,10|8,0:0|0:0,0:0:0:0:
447,47,54411,6,0,L|393:69,1,58.2899972427522,10|8,0:0|0:0,0:0:0:0:
214,253,54565,2,0,P|223:225|227:196,1,58.2899972427522,10|8,0:0|0:0,0:0:0:0:
299,120,54718,5,4,1:0:0:0:
423,251,54872,2,0,L|440:354,1,99.1799987893067,2|8,0:0|0:0,0:0:0:0:
226,196,55180,6,0,B|165:214|165:214|149:244|149:244|83:262,1,148.76999818396,2|0,1:2|0:0,0:0:0:0:
89,273,55488,1,2,1:2:0:0:
225,365,55641,1,8,0:0:0:0:
54,129,55795,1,8,0:0:0:0:
54,129,55872,1,8,0:0:0:0:
54,129,55949,5,2,1:2:0:0:
180,22,56103,1,2,1:2:0:0:
104,39,56257,1,8,0:0:0:0:
226,196,56411,2,0,P|254:154|242:85,1,99.1799987893067,2|0,1:2|0:0,0:0:0:0:
99,257,56718,1,2,1:2:0:0:
204,337,56872,2,0,P|274:353|347:386,1,148.76999818396,8|8,0:0|0:0,0:0:0:0:
359,372,57180,5,2,1:2:0:0:
440,204,57334,2,0,P|394:228|335:245,1,99.1799987893067,2|8,1:2|0:0,0:0:0:0:
490,376,57641,2,0,P|493:324|516:264,1,99.1799987893067,2|0,1:2|0:0,0:0:0:0:
366,154,57949,1,2,1:2:0:0:
489,53,58103,1,8,0:0:0:0:
494,142,58257,6,0,B|387:119|438:46|318:32,1,198.359997578613,6|0,1:2|1:2,0:0:0:0:
231,212,58718,1,8,0:0:0:0:
366,154,58872,1,8,0:0:0:0:
346,143,58949,1,8,0:0:0:0:
326,134,59026,1,2,1:2:0:0:
220,6,59180,1,0,1:2:0:0:
131,145,59334,2,0,B|180:129|180:129|205:98|205:98|267:77,1,148.76999818396,10|0,0:0|0:0,0:0:0:0:
271,64,59641,5,6,1:2:0:0:
92,183,59795,2,0,P|106:137|110:80,1,99.1799987893067,2|8,0:0|0:0,0:0:0:0:
259,230,60103,2,0,P|233:238|202:254,1,49.5899993946533,10|8,0:0|0:0,0:0:0:0:
105,384,60257,5,2,1:2:0:0:
0,303,60411,1,2,1:2:0:0:
106,217,60565,1,8,0:0:0:0:
250,327,60718,6,0,P|300:266|273:148,1,198.359997578613,6|0,1:2|1:2,0:0:0:0:
449,15,61180,2,0,P|436:61|432:119,1,99.1799987893067,8|0,0:0|0:0,0:0:0:0:
275,3,61488,1,2,1:2:0:0:
177,164,61641,5,10,0:0:0:0:
119,140,61718,1,8,0:0:0:0:
99,77,61795,1,8,0:0:0:0:
141,25,61872,1,8,0:0:0:0:
156,23,61949,2,0,P|179:34|213:44,1,49.5899993946533,8|8,3:0|3:0,0:0:0:0:
377,176,62103,5,6,1:2:0:0:
212,247,62257,1,0,1:2:0:0:
310,24,62411,6,0,P|294:77|291:141,1,116.579994485504,14|0,0:0|0:0,0:0:0:0:
454,374,62718,6,0,P|448:343|430:292,1,58.2899972427522,0|0,1:2|0:0,0:0:0:0:
466,250,62872,2,0,P|468:278|478:317,1,58.2899972427522,0|0,1:2|0:0,0:0:0:0:
273,328,63026,6,0,P|259:241|324:246,1,174.869991728257,14|0,0:0|0:0,0:0:0:0:
326,252,63334,6,0,B|236:269|260:182|153:208,1,174.869991728257,6|8,1:2|3:0,0:0:0:0:
149,178,63641,1,10,0:0:0:0:
10,344,63795,2,0,P|34:291|41:224,1,116.579994485504,6|0,1:2|0:0,0:0:0:0:
170,47,64103,6,0,B|129:60|129:60|86:121|153:182,1,174.869991728257,6|0,1:2|0:0,0:0:0:0:
165,205,64411,2,0,P|169:175|186:142,1,58.2899972427522,8|8,0:0|0:0,0:0:0:0:
71,299,64565,5,4,1:0:0:0:
210,381,64718,1,8,0:0:0:0:
202,358,64795,1,8,0:0:0:0:
194,332,64872,1,8,0:0:0:0:
306,207,65026,2,0,P|375:202|452:299,1,198.359997578613,2|2,1:2|1:2,0:0:0:0:
274,122,65488,2,0,P|231:141|169:149,1,99.1799987893067,8|8,0:0|0:0,0:0:0:0:
129,197,65718,1,8,0:0:0:0:
129,197,65795,5,2,1:2:0:0:
248,267,65949,1,2,1:2:0:0:
94,373,66103,1,8,0:0:0:0:
37,251,66257,6,0,P|79:278|145:288,1,99.1799987893067,2|0,1:2|0:0,0:0:0:0:
281,384,66565,1,2,1:2:0:0:
322,248,66718,2,0,B|242:272|274:310|199:329,1,148.76999818396,8|8,0:0|0:0,0:0:0:0:
197,349,67026,5,2,1:2:0:0:
349,191,67180,2,0,P|352:237|366:302,1,99.1799987893067,2|8,1:2|0:0,0:0:0:0:
135,71,67488,2,0,B|191:92|191:92|208:119|208:119|261:139,1,148.76999818396,2|0,1:2|0:0,0:0:0:0:
270,156,67795,1,2,1:2:0:0:
103,229,67949,1,8,0:0:0:0:
230,25,68103,6,0,P|199:141|191:233,1,198.359997578613,6|0,1:2|1:2,0:0:0:0:
70,384,68565,2,0,P|39:343|60:280,1,99.1799987893067,8|0,0:0|0:0,0:0:0:0:
255,384,68872,5,2,1:2:0:0:
347,275,69026,2,0,B|249:255|256:338|144:305,1,198.359997578613,4|8,1:2|0:0,0:0:0:0:
47,41,69488,6,0,P|96:98|164:77,1,148.76999818396,4|0,1:2|0:0,0:0:0:0:
156,73,69795,2,0,P|105:97|84:140,1,99.1799987893067,8|0,0:0|0:0,0:0:0:0:
267,247,70103,2,0,P|252:199|244:138,1,99.1799987893067,2|0,1:2|1:2,0:0:0:0:
72,261,70411,2,0,P|116:275|163:315,1,99.1799987893067,8|0,0:0|0:0,0:0:0:0:
263,132,70718,5,2,1:2:0:0:
379,59,70872,2,0,P|361:106|354:162,1,99.1799987893067,2|10,1:2|0:0,0:0:0:0:
157,79,71180,2,0,B|230:59|202:25|281:-1,1,148.76999818396,2|0,1:2|0:0,0:0:0:0:
293,14,71488,1,2,1:2:0:0:
141,137,71641,2,0,P|137:92|121:26,1,99.1799987893067,8|2,0:0|0:0,0:0:0:0:
287,214,71949,5,12,0:0:0:0:
171,298,72103,1,0,1:2:0:0:
261,365,72257,1,0,1:2:0:0:
331,133,72411,5,12,0:0:0:0:
466,245,72565,1,0,1:2:0:0:
359,327,72718,1,0,1:2:0:0:
427,130,72872,6,0,P|416:158|410:188,1,49.5899993946533,10|0,0:0|0:0,0:0:0:0:
271,260,73026,2,0,P|280:237|286:213,1,49.5899993946533,2|0,1:2|0:0,0:0:0:0:
498,265,73180,6,0,P|472:271|449:286,1,49.5899993946533,2|0,1:2|0:0,0:0:0:0:
269,84,73334,2,0,P|290:96|326:105,1,49.5899993946533,2|0,0:0|0:0,0:0:0:0:
363,241,73488,5,10,0:0:0:0:
188,125,73641,1,8,0:0:0:0:
314,103,73795,5,10,0:0:0:0:
181,210,73949,1,8,3:0:0:0:
140,2,74103,5,8,3:0:0:0:
201,50,74257,1,8,3:0:0:0:
30,258,74411,6,0,P|-8:197|9:101,1,163.559997504273,4|2,1:2|1:2,0:0:0:0:
181,210,74872,1,0,1:2:0:0:
75,360,75026,2,0,P|38:340|-27:333,1,81.7799987521363,10|0,0:0|0:0,0:0:0:0:
207,163,75334,2,0,P|211:206|225:251,1,81.7799987521363,2|0,1:2|1:2,0:0:0:0:
84,87,75641,6,0,P|128:37|236:40,1,163.559997504273,12|2,0:0|1:2,0:0:0:0:
294,3,76103,1,0,1:2:0:0:
400,136,76257,2,0,P|406:94|427:47,1,81.7799987521363,10|0,0:0|0:0,0:0:0:0:
287,174,76565,1,2,1:2:0:0:
257,102,76718,1,0,0:0:0:0:
435,250,76872,6,0,B|351:241|363:314|266:303,1,163.559997504273,12|2,0:0|1:2,0:0:0:0:
234,356,77334,1,2,1:2:0:0:
85,196,77488,2,0,B|178:171|178:171|215:190|199:232,1,163.559997504273,8|0,0:0|1:2,0:0:0:0:
496,26,78103,6,0,B|417:12|435:103|326:78,1,163.559997504273,12|2,0:0|1:2,0:0:0:0:
307,25,78565,1,2,1:2:0:0:
471,138,78718,1,10,0:0:0:0:
282,219,78872,2,0,P|297:184|309:129,1,81.7799987521363,14|0,0:0|0:0,0:0:0:0:
437,281,79180,2,0,P|439:303|447:330,1,40.8899993760681,10|8,0:0|0:0,0:0:0:0:
438,333,79334,6,0,P|394:303|405:185,1,180.959998895508,4|10,1:2|0:0,0:0:0:0:
431,65,79795,2,0,P|453:60|489:43,2,45.239999723877,10|8|0,0:0|0:0|1:2,0:0:0:0:
377,118,80103,1,2,1:2:0:0:
512,237,80257,1,8,0:0:0:0:
325,384,80411,6,0,B|262:367|262:367|231:322|231:322|151:301,1,180.959998895508,6|0,1:2|1:2,0:0:0:0:
42,212,80872,1,8,0:0:0:0:
192,138,81026,2,0,P|179:161|171:191,2,45.239999723877,10|8|2,0:0|0:0|1:2,0:0:0:0:
87,310,81334,1,2,1:2:0:0:
16,160,81488,2,0,P|55:184|112:195,1,90.4799994477539,8|2,0:0|0:0,0:0:0:0:
316,244,81795,6,0,P|228:239|171:305,1,180.959998895508,6|10,1:2|0:0,0:0:0:0:
76,0,82334,5,8,0:0:0:0:
66,5,82411,2,0,B|49:43|49:43|68:96,1,90.4799994477539,2|2,1:2|1:2,0:0:0:0:
249,0,82718,1,8,0:0:0:0:
416,171,82872,6,0,B|402:112|402:112|419:62|419:62|397:-17,1,180.959998895508,6|0,1:2|1:2,0:0:0:0:
319,104,83334,1,8,0:0:0:0:
496,213,83488,1,2,1:2:0:0:
324,294,83641,1,10,0:0:0:0:
345,216,83795,1,2,1:2:0:0:
468,355,83949,1,8,0:0:0:0:
266,176,84103,6,0,B|197:202|197:202|177:238|177:238|109:266,1,180.959998895508,6|2,1:2|3:2,0:0:0:0:
62,314,84488,5,0,3:2:0:0:
52,324,84565,2,0,L|45:265,1,45.239999723877,2|0,1:2|3:2,0:0:0:0:
14,201,84718,5,2,3:2:0:0:
14,201,84795,1,0,3:2:0:0:
14,201,84872,2,0,L|24:151,1,45.239999723877,0|0,1:2|3:2,0:0:0:0:
170,51,85026,5,2,3:2:0:0:
170,51,85103,1,0,3:2:0:0:
170,51,85180,2,0,L|180:101,1,45.239999723877,0|0,1:2|3:0,0:0:0:0:
20,59,85334,5,0,3:0:0:0:
20,59,85411,1,0,3:0:0:0:
20,59,85488,2,0,L|82:44,1,45.239999723877,0|8,1:2|0:0,0:0:0:0:
214,178,85641,5,10,0:0:0:0:
225,221,85717,1,8,0:0:0:0:
255,254,85794,1,10,1:2:0:0:
297,268,85871,1,8,0:0:0:0:
342,262,85948,1,10,0:0:0:0:
377,235,86025,1,8,0:0:0:0:
382,220,86103,6,0,P|374:197|371:166,1,45.239999723877,10|8,1:2|0:0,0:0:0:0:
286,66,86257,2,0,P|282:96|274:125,1,45.239999723877,10|8,0:0|0:0,0:0:0:0:
430,62,86411,6,0,P|405:72|371:80,1,45.239999723877,2|0,1:2|0:0,0:0:0:0:
295,186,86565,1,4,1:2:0:0:
295,186,86872,5,8,0:0:0:0:
88,9,87026,2,0,P|98:67|104:141,1,116.579994485504,8|0,0:0|0:0,0:0:0:0:
198,384,87334,6,0,P|248:336|209:220,1,174.869991728257,8|8,0:0|0:0,0:0:0:0:
220,246,87641,6,0,P|232:279|265:297,1,58.2899972427522,8|0,0:0|0:0,0:0:0:0:
506,104,87795,6,0,P|437:48|355:70,1,174.869991728257,12|0,0:0|0:0,0:0:0:0:
348,75,88103,1,2,0:0:0:0:
420,204,88257,1,2,0:0:0:0:
342,241,88411,5,2,0:0:0:0:
435,89,88565,1,2,0:0:0:0:
506,279,88718,5,2,1:2:0:0:
276,152,88872,2,0,B|187:179|236:236|138:266,1,174.869991728257,10|0,0:0|0:0,0:0:0:0:
111,201,89180,6,0,B|173:224|173:224|193:265|193:265|273:294,1,180.959998895508,6|10,1:2|0:0,0:0:0:0:
355,384,89641,1,2,0:0:0:0:
375,267,89795,5,2,1:2:0:0:
258,369,89949,1,2,1:2:0:0:
449,314,90103,5,10,0:0:0:0:
337,160,90257,2,0,P|291:151|241:127,1,90.4799994477539,2|0,1:2|0:0,0:0:0:0:
63,294,90565,2,0,P|100:275|163:261,1,90.4799994477539,2|8,1:2|0:0,0:0:0:0:
83,39,90872,2,0,P|75:86|51:135,1,90.4799994477539,2|0,1:2|0:0,0:0:0:0:
223,219,91180,1,0,1:2:0:0:
92,260,91334,5,8,0:0:0:0:
210,82,91488,2,0,L|219:137,1,45.239999723877,2|0,0:0|0:0,0:0:0:0:
387,357,91641,6,0,B|370:307|402:270|412:281|448:233|423:178,1,180.959998895508,2|10,1:2|0:0,0:0:0:0:
315,77,92103,2,0,P|294:118|290:185,1,90.4799994477539,2|0,0:0|1:2,0:0:0:0:
506,56,92411,2,0,P|465:75|408:82,1,90.4799994477539,2|8,1:2|0:0,0:0:0:0:
196,264,92718,6,0,P|248:211|369:231,1,180.959998895508,2|2,1:2|1:2,0:0:0:0:
471,341,93180,1,10,0:0:0:0:
337,289,93334,1,2,1:2:0:0:
492,228,93488,6,0,P|481:253|477:281,1,45.239999723877,2|0,0:0|0:0,0:0:0:0:
400,384,93641,2,0,P|398:361|389:328,1,45.239999723877,2|0,1:2|0:0,0:0:0:0:
224,94,93795,6,0,P|203:161|285:162,1,174.869991728257,8|0,0:0|0:0,0:0:0:0:
281,156,94103,6,0,B|210:179|210:179|191:217|191:217|124:238,1,180.959998895508,6|10,1:2|0:0,0:0:0:0:
19,341,94565,1,2,0:0:0:0:
143,355,94718,5,2,1:2:0:0:
42,231,94872,1,2,1:2:0:0:
144,117,95026,1,10,0:0:0:0:
54,19,95180,2,0,P|47:67|33:118,1,90.4799994477539,2|0,1:2|0:0,0:0:0:0:
247,301,95488,2,0,P|233:258|223:194,1,90.4799994477539,2|8,1:2|0:0,0:0:0:0:
143,355,95795,1,2,1:2:0:0:
42,231,95949,6,0,P|61:243|96:252,1,45.239999723877,0|0,1:2|0:0,0:0:0:0:
239,52,96103,1,2,1:2:0:0:
191,44,96180,1,2,0:0:0:0:
152,75,96257,1,10,0:0:0:0:
325,177,96411,1,2,0:0:0:0:
205,227,96565,5,14,0:0:0:0:
338,74,96718,1,2,1:2:0:0:
457,275,96872,1,2,1:2:0:0:
276,134,97026,6,0,P|288:174|293:239,1,90.4799994477539,14|0,0:0|1:2,0:0:0:0:
441,84,97334,1,2,1:2:0:0:
205,352,97488,5,8,0:0:0:0:
169,323,97565,1,8,0:0:0:0:
160,277,97641,1,8,0:0:0:0:
184,235,97718,1,8,0:0:0:0:
205,227,97795,5,8,0:0:0:0:
309,300,97949,1,8,3:0:0:0:
189,145,98103,5,8,3:0:0:0:
106,186,98257,1,8,3:0:0:0:
235,68,98411,5,12,0:0:0:0:
172,362,98565,1,12,0:0:0:0:
0,12,99026,5,6,1:2:0:0:
121,108,99180,2,0,P|124:80|139:37,1,73.0799977697755,2|0,0:0|1:2,0:0:0:0:
4,152,99488,1,10,0:0:0:0:
104,233,99641,1,0,1:2:0:0:
10,317,99795,2,0,P|7:282|-4:232,1,73.0799977697755,2|0,0:0|1:2,0:0:0:0:
213,158,100103,6,0,B|296:174|256:218|343:238,1,148.76999818396,10|0,0:0|0:0,0:0:0:0:
349,255,100411,1,8,0:0:0:0:
233,359,100565,2,0,P|211:313|218:250,1,99.1799987893067,0|0,1:2|0:0,0:0:0:0:
353,134,100872,1,8,0:0:0:0:
289,87,101026,1,0,3:0:0:0:
334,235,101180,1,0,1:2:0:0:
485,106,101334,2,0,L|443:120,1,36.5399988848877,10|8,0:0|0:0,0:0:0:0:
431,125,101488,5,2,1:2:0:0:
211,41,101641,2,0,P|264:-7|351:22,1,146.159995539551,2|10,0:0|0:0,0:0:0:0:
354,9,102026,1,8,0:0:0:0:
354,9,102103,1,8,1:2:0:0:
198,193,102257,2,0,P|190:156|168:104,1,73.0799977697755,10|0,0:0|1:2,0:0:0:0:
334,235,102565,1,10,0:0:0:0:
193,296,102718,5,2,1:2:0:0:
270,159,102872,1,10,0:0:0:0:
198,193,103026,1,2,1:2:0:0:
305,324,103180,2,0,P|376:341|458:378,1,146.159995539551,2|10,0:0|0:0,0:0:0:0:
334,235,103641,1,0,1:2:0:0:
483,171,103795,1,8,0:0:0:0:
483,171,103872,1,8,0:0:0:0:
483,171,103949,6,0,P|449:186|409:191,1,73.0799977697755,2|10,1:2|0:0,0:0:0:0:
355,243,104257,1,2,1:2:0:0:
270,159,104411,1,2,0:0:0:0:
117,339,104565,6,0,P|190:364|226:251,1,198.359997578613,12|0,0:0|1:2,0:0:0:0:
85,169,105026,1,10,0:0:0:0:
82,188,105103,1,8,0:0:0:0:
80,205,105180,5,0,1:2:0:0:
191,116,105334,1,8,0:0:0:0:
131,41,105488,2,0,P|93:31|58:13,1,73.0799977697755,0|0,1:2|0:0,0:0:0:0:
266,140,105795,5,8,0:0:0:0:
159,189,105949,1,8,0:0:0:0:
254,61,106103,5,0,1:2:0:0:
334,98,106257,1,10,0:0:0:0:
448,260,106411,6,0,P|438:188|432:106,1,146.159995539551,2|0,1:2|1:2,0:0:0:0:
313,234,106872,2,0,P|317:216|321:185,1,36.5399988848877,10|8,0:0|0:0,0:0:0:0:
373,282,107026,1,2,1:2:0:0:
286,358,107180,1,8,0:0:0:0:
365,365,107334,2,0,P|335:345|282:337,1,73.0799977697755,0|2,1:2|0:0,0:0:0:0:
122,240,107641,5,2,1:2:0:0:
232,183,107795,1,8,0:0:0:0:
190,311,107949,5,10,0:0:0:0:
52,160,108103,2,0,P|66:111|74:44,1,99.1799987893067,4|2,1:2|0:0,0:0:0:0:
224,211,108411,5,0,1:2:0:0:
311,26,108565,2,0,P|284:36|253:43,1,49.5899993946533,8|0,0:0|0:0,0:0:0:0:
369,150,108718,2,0,P|394:155|423:171,1,49.5899993946533,8|0,0:0|0:0,0:0:0:0:
418,40,108872,5,6,1:2:0:0:
288,130,109026,1,2,0:0:0:0:
443,286,109180,1,8,0:0:0:0:
494,230,109334,2,0,P|489:210|484:182,2,40.8899993760681,10|8|0,0:0|0:0|1:2,0:0:0:0:
415,165,109641,1,2,1:2:0:0:
322,308,109795,1,8,0:0:0:0:
196,166,109949,6,0,P|272:156|335:240,1,163.559997504273,6|0,1:2|1:2,0:0:0:0:
182,356,110411,1,8,0:0:0:0:
109,234,110565,1,2,0:0:0:0:
105,245,110641,1,2,0:0:0:0:
102,256,110718,1,0,1:2:0:0:
219,179,110872,1,0,1:2:0:0:
136,42,111026,1,8,0:0:0:0:
71,101,111180,6,0,P|88:110|127:119,1,40.8899993760681,10|10,0:0|0:0,0:0:0:0:
259,21,111334,1,6,1:2:0:0:
377,85,111488,6,0,P|325:98|236:25,1,163.559997504273,2|10,0:0|0:0,0:0:0:0:
259,21,111872,1,8,0:0:0:0:
259,21,111949,1,0,1:2:0:0:
407,160,112103,2,0,P|394:200|391:243,1,81.7799987521363,2|8,1:2|0:0,0:0:0:0:
332,286,112411,1,2,0:0:0:0:
507,366,112565,6,0,P|474:343|412:335,1,81.7799987521363,2|0,1:2|1:2,0:0:0:0:
297,191,112872,1,10,0:0:0:0:
172,339,113026,1,8,0:0:0:0:
202,364,113103,1,8,0:0:0:0:
246,357,113180,5,8,0:0:0:0:
146,229,113334,1,8,0:0:0:0:
203,133,113488,1,12,0:0:0:0:
125,39,113641,1,8,0:0:0:0:
58,87,113795,6,0,B|134:92|134:30|248:43,1,161.819993580139,4|0,1:2|0:0,0:0:0:0:
230,28,114103,6,0,P|213:80|202:136,1,107.879995720093,10|0,0:0|0:0,0:0:0:0:
79,323,114411,1,10,0:0:0:0:
229,254,114565,1,0,1:2:0:0:
108,230,114718,5,10,0:0:0:0:
234,357,114872,1,0,1:2:0:0:
393,135,115026,6,0,P|345:163|280:178,1,107.879995720093,14|0,0:2|0:0,0:0:0:0:
446,367,115334,2,0,P|399:335|329:321,1,107.879995720093,10|0,0:0|1:2,0:0:0:0:
481,188,115641,5,10,0:0:0:0:
512,306,115795,1,0,1:2:0:0:
294,176,115949,6,0,P|318:101|326:2,1,161.819993580139,10|0,0:0|0:0,0:0:0:0:
398,0,116257,6,0,B|290:-19|292:65|186:47,1,215.759991440186,4|10,1:2|0:0,0:0:0:0:
83,149,116718,1,0,1:2:0:0:
87,134,116795,1,0,1:2:0:0:
93,116,116872,1,2,1:2:0:0:
205,188,117026,1,2,1:2:0:0:
114,277,117180,2,0,P|58:284|12:309,1,107.879995720093,10|0,0:0|0:0,0:0:0:0:
171,121,117488,5,2,1:2:0:0:
333,348,117641,2,0,P|341:294|363:232,1,107.879995720093,14|0,0:0|0:0,0:0:0:0:
186,375,117949,5,10,0:0:0:0:
114,277,118103,1,8,0:0:0:0:
69,338,118257,1,8,3:0:0:0:
209,293,118411,1,8,3:0:0:0:
68,105,118565,6,0,P|35:161|40:245,1,128.760003143555,6|0,1:2|1:2,0:0:0:0:
213,101,119026,2,0,P|180:94|141:73,1,64.3800015717774,2|0,1:2|0:0,0:0:0:0:
319,227,119334,6,2,P|356:221|404:202,1,76.5600023364259,10|0,0:2|0:0,0:1:0:0:
273,50,119795,6,0,P|250:120|240:196,1,128.760003143555,0|0,1:1|1:0,0:1:0:0:
441,283,120257,2,0,P|434:250|418:209,1,64.3800015717774,0|2,1:2|0:0,0:0:0:0:
163,294,120565,6,2,P|192:315|244:323,1,76.5600023364259,10|0,0:0|0:0,0:1:0:0:
217,101,121026,6,0,P|165:135|92:146,1,128.760003143555,6|0,1:2|1:2,0:0:0:0:
302,253,121488,2,0,P|306:219|324:173,1,64.3800015717774,2|0,1:2|0:0,0:0:0:0:
115,246,121795,5,10,0:0:0:0:
109,271,121872,1,2,0:0:0:0:
104,296,121949,1,2,0:0:0:0:
99,321,122026,1,2,0:0:0:0:
97,337,122103,6,0,L|90:298,3,32.1900007858887,2|2|10|2,0:0|0:0|0:0|0:0,0:0:0:0:
28,261,122411,5,4,1:2:0:0:
176,185,122565,1,0,3:0:0:0:
282,335,122718,1,8,0:0:0:0:
363,276,122872,5,8,3:0:0:0:
293,240,123026,1,8,3:0:0:0:
216,265,123180,1,0,3:0:0:0:
187,339,123334,1,0,3:0:0:0:
366,197,123488,6,0,P|376:131|395:54,1,128.760003143555,6|0,1:2|1:2,0:0:0:0:
228,0,123949,2,0,P|234:35|251:73,1,64.3800015717774,2|0,1:2|0:0,0:0:0:0:
108,218,124257,6,2,P|139:196|178:184,1,76.5600023364259,10|0,0:0|0:0,0:1:0:0:
117,19,124718,5,6,1:2:0:0:
48,60,124872,2,0,P|45:96|35:135,1,64.3800015717774,0|0,0:0|1:2,0:0:0:0:
212,216,125180,2,0,P|202:185|195:139,1,64.3800015717774,0|2,1:2|0:0,0:0:0:0:
12,280,125488,6,2,P|48:284|94:317,1,76.5600023364259,10|0,0:0|0:0,0:1:0:0:
142,250,125949,1,4,1:2:0:0:
266,331,126103,2,0,P|255:298|252:246,1,64.3800015717774,0|0,0:0|1:2,0:0:0:0:
136,366,126411,2,0,P|168:372|200:386,1,64.3800015717774,2|0,1:2|0:0,0:0:0:0:
329,225,126718,6,0,P|395:219|462:175,1,128.760003143555,10|0,0:0|3:0,0:0:0:0:
510,227,127180,1,0,3:0:0:0:
273,1,127334,5,14,0:2:0:0:
374,148,127488,1,8,3:0:0:0:
407,121,127564,1,8,3:0:0:0:
416,81,127641,1,8,3:0:0:0:
406,44,127718,1,8,3:0:0:0:
390,33,127795,6,0,B|322:59|322:59|301:99|301:99|233:127,1,174.869991728257,6|0,1:2|0:0,0:0:0:0:
120,144,128103,6,0,B|188:170|188:170|209:210|209:210|277:238,1,174.869991728257,6|0,1:2|0:0,0:0:0:0:
356,293,128411,6,0,L|321:105,1,180.959998895508,6|2,1:2|1:2,0:0:0:0:
170,212,128872,1,10,0:0:0:0:
384,304,129026,2,0,L|373:244,1,45.239999723877,10|8,0:0|0:0,0:0:0:0:
243,342,129180,1,2,1:2:0:0:
322,384,129334,1,2,1:2:0:0:
261,231,129488,1,8,0:0:0:0:
112,307,129641,6,0,P|129:224|137:112,1,180.959998895508,6|2,1:2|1:2,0:0:0:0:
280,12,130103,2,0,P|242:36|192:52,1,90.4799994477539,10|10,0:0|0:0,0:0:0:0:
190,64,130334,1,8,0:0:0:0:
190,64,130411,1,2,1:2:0:0:
352,175,130565,1,2,1:2:0:0:
261,231,130718,2,0,P|251:173|343:93,1,174.869991728257,8|0,0:0|0:0,0:0:0:0:
343,78,131026,6,0,P|383:94|462:110,1,90.4799994477539,6|0,1:2|0:0,0:0:0:0:
237,327,131334,2,0,P|279:313|343:307,1,90.4799994477539,10|8,0:0|0:0,0:0:0:0:
375,257,131565,1,8,0:0:0:0:
375,257,131641,1,2,1:2:0:0:
229,136,131795,1,0,1:2:0:0:
161,180,131949,2,0,P|152:225|138:275,1,90.4799994477539,10|0,0:0|0:0,0:0:0:0:
351,153,132257,6,0,P|336:94|327:17,1,135.719999171631,6|0,1:2|0:0,0:0:0:0:
311,6,132565,1,8,0:0:0:0:
163,98,132718,5,2,1:2:0:0:
289,191,132872,1,8,0:0:0:0:
324,306,133026,5,2,1:2:0:0:
166,360,133180,1,8,0:0:0:0:
214,300,133334,1,2,0:0:0:0:
436,382,133488,6,0,P|423:314|413:215,1,146.159995539551,4|0,1:2|0:0,0:0:0:0:
485,198,133949,1,0,1:2:0:0:
336,60,134103,2,0,P|398:93|460:98,1,109.619996654663,8|0,0:0|0:0,0:0:0:0:
512,124,134411,5,2,1:2:0:0:
470,103,134488,1,2,0:0:0:0:
420,112,134565,1,10,0:0:0:0:
396,155,134641,1,10,0:0:0:0:
400,167,134718,6,0,P|410:203|416:255,1,73.0799977697755,0|8,1:2|0:0,0:0:0:0:
483,282,135026,1,0,0:0:0:0:
326,371,135180,1,0,1:2:0:0:
448,353,135334,6,0,B|398:336|398:336|376:303|376:303|302:280,1,146.159995539551,8|0,0:0|1:2,0:0:0:0:
67,165,135949,5,4,1:2:0:0:
256,77,136103,1,0,1:2:0:0:
119,20,136257,1,0,1:2:0:0:
218,215,136411,5,12,0:2:0:0:
47,82,136565,1,0,1:2:0:0:
207,4,136718,1,0,1:2:0:0:
29,101,136872,5,12,0:0:0:0:
209,233,137026,1,0,1:2:0:0:
156,106,137180,5,14,0:0:0:0:
56,285,137334,1,2,1:2:0:0:
241,144,137488,5,14,0:0:0:0:
294,341,137641,1,2,1:2:0:0:
127,199,137795,6,0,P|152:209|194:218,1,58.2899972427522,8|8,0:0|0:0,0:0:0:0:
310,360,137949,2,0,P|337:349|372:343,1,58.2899972427522,8|8,0:0|0:0,0:0:0:0:
465,156,138103,6,0,P|468:184|477:224,1,49.5899993946533,8|8,3:0|3:0,0:0:0:0:
337,272,138257,2,0,P|342:245|345:214,1,49.5899993946533,8|8,3:0|3:0,0:0:0:0:
476,341,138411,5,4,1:0:0:0:
334,111,138565,2,0,P|285:133|231:145,1,99.1799987893067,2|8,0:0|0:0,0:0:0:0:
105,320,138872,2,0,B|174:324|167:273|248:283,1,148.76999818396,2|0,1:2|0:0,0:0:0:0:
252,293,139180,1,2,1:2:0:0:
114,114,139334,2,0,P|107:164|88:224,1,99.1799987893067,8|8,0:0|0:0,0:0:0:0:
153,262,139565,1,8,0:0:0:0:
153,262,139641,5,2,1:2:0:0:
37,139,139795,1,2,1:2:0:0:
114,114,139949,1,8,0:0:0:0:
23,338,140103,2,0,P|7:287|9:222,1,99.1799987893067,2|0,1:2|0:0,0:0:0:0:
163,384,140411,1,2,1:2:0:0:
294,170,140565,2,0,L|195:205,1,99.1799987893067,8|8,0:0|0:0,0:0:0:0:
153,262,140795,1,8,0:0:0:0:
153,262,140872,5,2,1:2:0:0:
352,381,141026,2,0,B|338:333|338:333|360:275,1,99.1799987893067,2|8,1:2|0:0,0:0:0:0:
307,79,141334,2,0,B|355:97|355:97|375:135|375:135|434:161,1,148.76999818396,2|0,1:2|0:0,0:0:0:0:
433,174,141641,1,2,1:2:0:0:
277,255,141795,1,8,0:0:0:0:
454,79,141949,6,0,B|361:78|377:167|269:162,1,198.359997578613,6|0,1:2|1:2,0:0:0:0:
149,100,142411,1,8,0:0:0:0:
237,34,142565,2,0,P|227:60|222:97,2,49.5899993946533,8|8|2,0:0|0:0|1:2,0:0:0:0:
170,0,142872,1,0,1:2:0:0:
38,101,143026,2,0,P|59:170|66:269,1,148.76999818396,10|0,0:0|0:0,0:0:0:0:
87,261,143334,5,6,1:2:0:0:
195,358,143488,2,0,P|243:367|297:388,1,99.1799987893067,2|8,0:0|0:0,0:0:0:0:
372,216,143795,1,10,0:0:0:0:
342,216,143872,1,8,0:0:0:0:
318,235,143949,1,2,1:2:0:0:
430,384,144103,1,2,1:2:0:0:
273,299,144257,1,8,0:0:0:0:
489,97,144411,6,0,P|470:176|450:296,1,198.359997578613,6|0,1:2|1:2,0:0:0:0:
282,81,144872,2,0,P|213:66|158:123,1,148.76999818396,8|0,0:0|0:0,0:0:0:0:
140,128,145180,1,2,1:2:0:0:
26,255,145334,5,10,0:0:0:0:
65,234,145411,1,8,0:0:0:0:
111,240,145488,1,8,0:0:0:0:
141,278,145565,1,8,0:0:0:0:
142,296,145641,2,0,L|124:363,1,49.5899993946533,8|8,3:0|3:0,0:0:0:0:
251,199,145795,5,6,1:2:0:0:
43,335,145949,1,0,1:2:0:0:
265,188,146103,6,0,B|346:202|318:263|420:293,1,174.869991728257,14|0,0:0|0:0,0:0:0:0:
463,182,146411,6,0,P|437:197|404:205,1,58.2899972427522,0|0,1:2|0:0,0:0:0:0:
248,335,146565,6,0,P|259:309|266:270,1,58.2899972427522,0|0,1:2|0:0,0:0:0:0:
495,320,146718,6,0,P|420:307|361:382,1,174.869991728257,14|0,0:0|0:0,0:0:0:0:
370,384,147026,5,6,1:2:0:0:
512,242,147180,1,8,3:0:0:0:
334,123,147334,1,10,0:0:0:0:
512,0,147488,2,0,P|495:56|486:133,1,116.579994485504,6|0,1:2|0:0,0:0:0:0:
265,279,147795,6,0,P|200:229|222:137,1,174.869991728257,6|0,1:2|0:0,0:0:0:0:
175,48,148103,1,8,0:0:0:0:
193,58,148180,1,8,0:0:0:0:
211,63,148257,5,4,1:0:0:0:
40,163,148411,2,0,P|57:118|70:48,1,99.1799987893067,2|8,0:0|0:0,0:0:0:0:
175,247,148718,2,0,P|107:237|40:292,1,148.76999818396,2|0,1:2|0:0,0:0:0:0:
41,301,149026,1,2,1:2:0:0:
213,145,149180,2,0,P|250:168|325:185,1,99.1799987893067,8|8,0:0|0:0,0:0:0:0:
344,247,149411,1,8,0:0:0:0:
344,247,149488,5,2,1:2:0:0:
251,295,149641,1,2,1:2:0:0:
353,125,149795,1,8,0:0:0:0:
485,232,149949,2,0,P|472:281|463:346,1,99.1799987893067,2|0,1:2|0:0,0:0:0:0:
392,190,150257,1,2,1:2:0:0:
228,374,150411,2,0,P|223:295|210:219,1,148.76999818396,8|8,0:0|0:0,0:0:0:0:
228,208,150718,5,2,1:2:0:0:
104,51,150872,2,0,P|141:80|219:87,1,99.1799987893067,2|8,1:2|0:0,0:0:0:0:
50,241,151180,2,0,P|47:188|20:131,1,99.1799987893067,2|0,1:2|0:0,0:0:0:0:
211,226,151488,1,2,1:2:0:0:
98,321,151641,1,8,0:0:0:0:
294,124,151795,6,0,B|394:145|343:214|453:253,1,198.359997578613,6|0,1:2|1:2,0:0:0:0:
257,54,152257,1,8,0:0:0:0:
422,0,152411,1,8,0:0:0:0:
386,147,152565,2,0,L|375:83,1,49.5899993946533,2|0,1:2|0:0,0:0:0:0:
181,4,152718,6,0,B|133:21|133:21|98:99|168:150,1,198.359997578613,4|8,1:2|0:0,0:0:0:0:
4,383,153180,6,0,P|60:320|145:330,1,148.76999818396,4|0,1:2|0:0,0:0:0:0:
123,329,153488,2,0,P|64:326|31:286,1,99.1799987893067,8|0,0:0|0:0,0:0:0:0:
241,176,153795,1,2,1:2:0:0:
270,246,153949,1,0,1:2:0:0:
107,80,154103,2,0,P|97:130|78:191,1,99.1799987893067,8|0,0:0|0:0,0:0:0:0:
302,87,154411,5,2,1:2:0:0:
200,27,154565,1,2,1:2:0:0:
241,176,154718,5,10,0:0:0:0:
430,33,154872,2,0,P|415:82|408:145,1,99.1799987893067,2|0,1:2|0:0,0:0:0:0:
276,2,155180,1,2,1:2:0:0:
164,134,155334,2,0,B|89:120|120:64|40:53,1,148.76999818396,8|0,0:0|0:0,0:0:0:0:
30,65,155641,5,12,0:0:0:0:
174,27,155795,1,0,1:2:0:0:
46,169,155949,1,0,1:2:0:0:
197,238,156103,5,12,0:0:0:0:
111,83,156257,1,0,1:2:0:0:
261,25,156411,1,0,1:2:0:0:
299,134,156565,5,10,0:0:0:0:
162,13,156718,1,2,1:2:0:0:
350,36,156872,5,2,1:2:0:0:
186,144,157026,1,2,0:0:0:0:
390,308,157180,5,10,0:0:0:0:
352,209,157334,1,8,0:0:0:0:
228,334,157488,1,10,0:0:0:0:
306,372,157641,1,8,3:0:0:0:
266,203,157795,1,8,3:0:0:0:
209,253,157949,1,8,3:0:0:0:
502,365,158103,6,0,P|511:288|443:199,1,163.559997504273,4|2,1:2|1:2,0:0:0:0:
435,145,158565,1,0,1:2:0:0:
320,23,158718,2,0,P|354:42|414:55,1,81.7799987521363,10|0,0:0|0:0,0:0:0:0:
266,203,159026,2,0,P|302:185|360:176,1,81.7799987521363,2|0,1:2|1:2,0:0:0:0:
169,12,159334,6,0,P|113:72|123:166,1,163.559997504273,12|2,0:0|1:2,0:0:0:0:
33,259,159795,1,0,1:2:0:0:
182,379,159949,2,0,P|145:360|98:353,1,81.7799987521363,10|0,0:0|0:0,0:0:0:0:
237,168,160257,2,0,P|244:211|264:261,1,81.7799987521363,2|0,1:2|0:0,0:0:0:0:
31,84,160565,6,0,B|90:66|90:66|108:32|108:32|192:4,1,163.559997504273,12|2,0:0|1:2,0:0:0:0:
226,62,161026,1,2,1:2:0:0:
403,171,161180,2,0,P|386:96|379:-2,1,163.559997504273,8|0,0:0|1:2,0:0:0:0:
402,5,161795,6,0,P|396:91|380:197,1,163.559997504273,12|2,0:0|1:2,0:0:0:0:
470,263,162257,1,2,1:2:0:0:
277,354,162411,1,10,0:0:0:0:
314,287,162565,2,0,P|349:291|397:324,1,81.7799987521363,14|0,0:0|0:0,0:0:0:0:
272,217,162872,2,0,L|221:230,1,40.8899993760681,10|8,0:0|0:0,0:0:0:0:
110,359,163026,6,0,P|49:317|71:215,1,180.959998895508,4|10,1:2|0:0,0:0:0:0:
172,126,163488,2,0,P|192:137|221:143,2,45.239999723877,10|8|0,0:0|0:0|1:2,0:0:0:0:
131,62,163795,1,2,1:2:0:0:
232,227,163949,1,8,0:0:0:0:
391,21,164103,6,0,P|324:22|315:134,1,180.959998895508,6|0,1:2|1:2,0:0:0:0:
451,233,164565,2,0,P|457:190|476:123,1,90.4799994477539,8|10,0:0|0:0,0:0:0:0:
439,81,164795,1,8,0:0:0:0:
439,81,164872,1,2,1:2:0:0:
320,193,165026,1,2,1:2:0:0:
482,330,165180,2,0,P|440:314|385:304,1,90.4799994477539,8|2,0:0|0:0,0:0:0:0:
82,184,165488,6,0,P|115:131|236:120,1,180.959998895508,6|10,1:2|0:0,0:0:0:0:
320,193,165949,2,0,P|312:219|306:247,2,45.239999723877,10|8|2,0:0|0:0|1:2,0:0:0:0:
306,119,166257,1,2,1:2:0:0:
153,270,166411,1,8,0:0:0:0:
248,382,166565,6,0,P|242:294|216:188,1,180.959998895508,6|0,1:2|1:2,0:0:0:0:
46,32,167026,1,8,0:0:0:0:
3,139,167180,1,2,1:2:0:0:
241,83,167334,1,10,0:0:0:0:
145,9,167488,1,2,1:2:0:0:
90,207,167641,1,8,0:0:0:0:
269,292,167795,6,0,P|329:308|400:340,1,135.719999171631,6|0,1:2|0:0,0:0:0:0:
405,354,168103,1,8,0:0:0:0:
421,192,168257,5,8,0:0:0:0:
250,290,168411,1,8,0:0:0:0:
238,162,168565,5,8,0:0:0:0:
433,272,168718,1,8,0:0:0:0:
154,354,168872,5,8,0:0:0:0:
332,130,169026,1,8,0:0:0:0:
153,90,169180,5,10,0:0:0:0:
261,313,169334,1,10,0:0:0:0:
115,210,169488,5,10,0:0:0:0:
306,48,169641,1,10,0:0:0:0:
48,88,169795,5,10,0:0:0:0:
269,202,169949,1,10,0:0:0:0:
214,15,170103,5,10,0:0:0:0:
77,280,170257,1,10,0:0:0:0:
447,137,170411,6,0,B|306:116|345:275|197:241,1,281.880006881836,4|0,1:2|0:0,0:0:0:0:
20,384,171641,6,0,P|42:318|48:237,1,140.940003440918,2|2,0:0|0:0,0:0:0:0:
110,201,172257,2,0,P|105:178|102:141,1,46.9800011469727,2|2,0:0|0:0,0:0:0:0:
56,100,172565,1,2,0:0:0:0:
219,23,172872,6,0,P|240:64|235:122,1,93.9600022939454,2|2,0:0|0:0,0:0:0:0:
98,15,173334,2,0,P|118:9|158:-9,1,46.9800011469727,2|0,0:0|0:0,0:0:0:0:
219,23,173641,1,0,0:0:0:0:
283,125,173795,2,0,P|258:114|230:109,1,46.9800011469727,2|2,0:0|0:0,0:0:0:0:
86,246,174103,6,0,P|128:214|185:213,1,93.9600022939454,2|2,0:0|0:0,0:0:0:0:
277,306,174565,2,0,P|269:331|264:365,1,46.9800011469727,2|0,0:0|0:0,0:0:0:0:
189,285,174872,1,2,0:0:0:0:
294,220,175026,2,0,P|317:230|358:238,1,46.9800011469727,2|2,0:0|0:0,0:0:0:0:
482,364,175334,6,0,P|491:312|466:267,1,93.9600022939454,2|2,0:0|0:0,0:0:0:0:
419,222,175795,2,0,L|441:130,1,93.9600022939454,2|0,0:0|0:0,0:0:0:0:
497,81,176257,1,2,0:0:0:0:
362,10,176565,6,0,B|308:27|325:43|266:59,1,93.9600022939454,2|2,0:0|0:0,0:0:0:0:
239,112,177026,1,2,0:0:0:0:
112,153,177180,2,0,P|127:109|136:45,1,93.9600022939454,2|2,0:0|0:0,0:0:0:0:
246,233,177795,5,2,0:0:0:0:
190,285,177949,2,0,L|127:271,1,46.9800011469727,2|0,0:0|0:0,0:0:0:0:
9,384,178257,1,2,0:0:0:0:
9,384,178411,1,2,0:0:0:0:
51,320,178565,2,0,L|105:337,1,46.9800011469727,2|2,0:0|0:3,0:0:0:0:
155,383,178872,1,0,0:0:0:0:
246,233,179026,5,4,1:2:0:0:
81,101,179180,1,8,0:0:0:0:
44,223,179334,5,8,0:0:0:0:
245,111,179488,2,0,B|230:60|230:3|230:3|196:-12|155:18,1,174.869991728257,4|0,1:2|0:0,0:0:0:0:
165,18,179795,6,0,B|298:49|210:126|336:164,1,233.159988971009,4|8,1:2|0:0,0:0:0:0:
479,40,180257,5,4,1:2:0:0:
479,40,180565,5,0,1:2:0:0:
400,64,180718,1,0,0:0:0:0:
332,162,180872,5,8,1:2:0:0:
468,219,181026,1,0,3:0:0:0:
392,354,181180,6,0,L|384:298,1,45.239999723877,10|0,1:2|3:0,0:0:0:0:
221,104,181334,2,0,L|207:154,1,45.239999723877,2|0,3:0|3:0,0:0:0:0:
101,319,181488,6,0,L|91:271,3,45.239999723877,10|0|0|0,1:2|3:0|3:0|3:0,0:0:0:0:
58,204,181795,6,0,L|14:192,1,45.239999723877,10|0,1:2|3:0,0:0:0:0:
144,52,181949,2,0,L|99:64,3,45.239999723877,2|0|8|0,3:0|3:0|1:2|3:0,0:0:0:0:
223,174,182257,2,0,L|172:160,1,45.239999723877,2|0,3:0|3:0,0:0:0:0:
304,14,182411,1,8,1:2:0:0:
311,37,182488,1,0,3:0:0:0:
316,57,182565,1,0,3:0:0:0:
322,77,182641,1,0,3:0:0:0:
329,100,182718,5,10,1:2:0:0:
369,129,182795,1,0,3:0:0:0:
417,124,182872,1,0,3:0:0:0:
450,88,182949,1,0,3:0:0:0:
455,70,183026,6,0,L|446:20,1,45.239999723877,10|0,1:2|3:0,0:0:0:0:
261,156,183180,2,0,L|248:213,5,45.239999723877,2|0|8|0|0|0,3:0|3:0|1:2|3:0|3:0|3:0,0:0:0:0:
451,306,183641,6,0,L|439:249,1,45.239999723877,10|0,1:2|3:0,0:0:0:0:
290,345,183795,2,0,L|336:362,1,45.239999723877,2|0,3:0|3:0,0:0:0:0:
250,200,183949,1,10,1:2:0:0:
204,188,184026,1,0,3:0:0:0:
153,199,184103,1,0,3:0:0:0:
119,239,184180,1,0,3:0:0:0:
117,262,184257,6,0,L|128:317,1,45.239999723877,10|0,1:2|3:0,0:0:0:0:
203,381,184411,2,0,L|219:317,1,45.239999723877,2|0,3:0|3:0,0:0:0:0:
195,267,184565,5,8,1:2:0:0:
66,352,184718,1,8,3:0:0:0:
7,180,184872,5,8,3:0:0:0:
119,239,185026,1,4,3:0:0:0:
16,271,185180,6,0,P|35:193|53:77,1,180.959998895508,6|8,1:2|0:0,0:0:0:0:
204,188,185641,1,0,1:2:0:0:
268,47,185795,2,0,P|224:69|167:81,1,90.4799994477539,2|0,0:0|1:2,0:0:0:0:
341,255,186103,1,8,0:0:0:0:
229,198,186257,1,0,0:0:0:0:
380,33,186411,5,2,1:2:0:0:
337,126,186565,1,0,1:2:0:0:
485,230,186718,2,0,P|472:191|463:123,1,90.4799994477539,8|0,0:0|1:2,0:0:0:0:
341,255,187026,1,2,0:0:0:0:
457,346,187180,1,0,1:2:0:0:
203,126,187334,6,0,P|166:179|181:277,1,135.719999171631,8|0,0:0|0:0,0:0:0:0:
175,255,187641,6,0,P|200:195|138:86,1,180.959998895508,6|0,1:2|1:2,0:0:0:0:
82,0,188103,1,8,0:0:0:0:
43,67,188257,1,0,0:0:0:0:
162,11,188411,1,0,1:2:0:0:
239,206,188565,5,12,0:0:0:0:
153,95,188718,1,2,0:0:0:0:
142,133,188795,1,2,0:0:0:0:
130,166,188872,6,0,L|117:216,1,45.239999723877,8|8,0:0|0:0,0:0:0:0:
292,95,189026,2,0,L|237:110,1,45.239999723877,0|0,1:2|0:0,0:0:0:0:
325,318,189180,2,0,L|338:254,1,45.239999723877,0|0,1:2|0:0,0:0:0:0:
144,363,189334,1,8,0:0:0:0:
167,381,189411,1,8,0:0:0:0:
205,382,189488,1,0,1:2:0:0:
118,209,189641,1,0,1:2:0:0:
289,57,189795,2,0,B|226:75|226:75|202:115|202:115|135:135,1,174.869991728257,12|0,0:0|0:0,0:0:0:0:
139,55,190103,6,0,B|233:72|197:133|283:156,1,180.959998895508,4|8,1:2|0:0,0:0:0:0:
383,261,190565,1,0,1:2:0:0:
251,324,190718,6,0,L|262:271,1,45.239999723877,8|0,0:0|0:0,0:0:0:0:
395,152,190872,1,0,1:2:0:0:
473,379,191026,5,8,0:0:0:0:
282,155,191180,2,0,P|211:154|146:243,1,174.869991728257,6|0,1:2|0:0,0:0:0:0:
155,240,191488,5,10,0:0:0:0:
333,92,191641,1,10,0:0:0:0:
114,5,191795,1,10,0:0:0:0:
65,65,191949,6,0,P|76:103|81:149,1,76.5600023364259,2|0,0:0|0:0,0:0:0:0:
260,279,192411,6,0,B|345:264|329:348|426:338,1,174.869991728257,6|0,1:2|0:0,0:0:0:0:
424,348,192718,5,10,0:0:0:0:
217,194,192872,1,10,0:0:0:0:
464,88,193026,1,10,0:0:0:0:
377,22,193180,6,0,P|363:80|357:126,1,103.530000631897,2|0,0:0|0:0,0:0:0:0:
344,139,193795,6,0,B|296:113|238:121|238:121|202:73|256:38,1,198.359997578613,4|8,1:0|0:0,0:0:0:0:
307,0,194257,1,0,0:0:0:0:
153,139,194411,2,0,P|108:117|55:108,1,99.1799987893067,0|0,1:2|1:2,0:0:0:0:
303,272,194718,2,0,P|358:229|456:250,1,148.76999818396,8|0,0:0|0:0,0:0:0:0:
438,252,195026,5,2,0:0:0:0:
305,158,195180,1,0,1:2:0:0:
438,111,195334,5,10,0:0:0:0:
314,251,195488,1,8,0:0:0:0:
314,251,195565,1,8,0:0:0:0:
314,251,195641,1,2,1:2:0:0:
439,343,195795,1,0,1:2:0:0:
305,158,195949,5,10,0:0:0:0:
216,323,196103,1,2,0:0:0:0:
260,384,196257,6,0,P|239:296|229:174,1,198.359997578613,6|8,1:2|0:0,0:0:0:0:
81,85,196718,1,2,0:0:0:0:
100,54,196795,1,2,0:0:0:0:
133,46,196872,2,0,P|180:68|241:79,1,99.1799987893067,2|2,1:2|1:2,0:0:0:0:
48,193,197180,1,10,0:0:0:0:
216,323,197334,6,0,P|168:328|106:355,1,99.1799987893067,2|2,1:2|0:0,0:0:0:0:
52,332,197565,1,2,0:0:0:0:
52,332,197641,2,0,P|77:327|108:311,1,49.5899993946533,2|2,1:2|0:0,0:0:0:0:
246,220,197795,2,0,P|220:216|192:200,1,49.5899993946533,10|2,0:0|0:0,0:0:0:0:
137,132,197949,2,0,P|131:161|120:188,1,49.5899993946533,2|2,1:2|0:0,0:0:0:0:
254,349,198103,2,0,P|246:325|243:294,1,49.5899993946533,2|0,1:2|0:0,0:0:0:0:
140,253,198257,5,2,1:2:0:0:
312,141,198411,1,10,0:0:0:0:
451,302,198565,1,2,0:0:0:0:
404,381,198718,6,0,P|410:287|436:161,1,198.359997578613,6|8,1:2|0:0,0:0:0:0:
211,47,199180,2,0,P|222:90|225:147,1,99.1799987893067,2|0,0:0|1:2,0:0:0:0:
430,58,199488,5,2,1:2:0:0:
318,3,199641,1,10,0:0:0:0:
147,212,199795,6,0,P|221:169|333:182,1,198.359997578613,2|2,1:2|1:2,0:0:0:0:
408,161,200180,1,2,0:0:0:0:
408,161,200257,2,0,P|431:206|426:285,1,99.1799987893067,10|2,0:0|0:0,0:0:0:0:
184,367,200565,5,2,1:2:0:0:
265,205,200718,1,2,1:2:0:0:
376,367,200872,5,10,0:0:0:0:
216,297,201026,2,0,L|276:277,1,49.5899993946533,2|0,0:0|0:0,0:0:0:0:
94,66,201180,6,0,P|90:99|79:134,1,58.2899972427522,14|2,0:0|0:0,0:0:0:0:
108,192,201334,2,0,P|112:163|123:122,1,58.2899972427522,2|2,1:2|0:0,0:0:0:0:
0,251,201488,6,0,P|32:311|148:284,1,174.869991728257,14|2,0:0|0:0,0:0:0:0:
184,367,201795,6,0,P|211:372|244:388,1,58.2899972427522,2|2,1:2|0:0,0:0:0:0:
299,342,201949,2,0,P|329:337|372:318,1,58.2899972427522,2|2,1:2|0:0,0:0:0:0:
512,379,202103,6,0,P|457:311|477:224,1,174.869991728257,14|0,0:0|0:0,0:0:0:0:
507,155,202411,5,14,0:0:0:0:
478,194,202488,1,8,0:0:0:0:
432,212,202565,1,8,0:0:0:0:
381,201,202641,1,8,0:0:0:0:
351,158,202718,1,0,1:2:0:0:
421,0,202872,6,0,P|438:54|444:118,1,116.579994485504,6|2,1:2|0:0,0:0:0:0:
275,0,203180,1,12,0:0:0:0:
126,186,203334,2,0,P|131:132|150:55,1,116.579994485504,2|8,0:0|0:0,0:0:0:0:
90,24,203565,1,8,0:0:0:0:
101,11,203641,6,0,B|218:31|146:97|271:126,1,198.359997578613,4|10,1:0|0:0,0:0:0:0:
87,288,204103,2,0,P|131:270|203:260,1,99.1799987893067,2|0,0:0|1:2,0:0:0:0:
51,113,204411,1,2,1:2:0:0:
1,202,204565,1,10,0:0:0:0:
159,338,204718,1,2,1:2:0:0:
181,260,204872,6,0,P|132:268|86:287,1,99.1799987893067,2|0,0:0|1:2,0:0:0:0:
233,193,205180,1,10,0:0:0:0:
409,384,205334,2,0,P|353:328|230:312,1,198.359997578613,2|2,1:2|1:2,0:0:0:0:
453,177,205795,1,10,0:0:0:0:
295,95,205949,1,2,0:0:0:0:
351,307,206103,5,2,1:2:0:0:
494,216,206257,2,0,P|478:167|472:109,1,99.1799987893067,2|8,0:0|0:0,0:0:0:0:
197,345,206565,2,0,P|213:296|219:238,1,99.1799987893067,2|0,0:0|1:2,0:0:0:0:
434,351,206872,5,2,1:2:0:0:
296,243,207026,1,10,0:0:0:0:
504,81,207180,6,0,B|450:99|450:99|427:130|427:130|371:147,1,148.76999818396,6|0,1:2|0:0,0:0:0:0:
365,160,207488,1,2,1:2:0:0:
206,1,207641,1,10,0:0:0:0:
335,56,207795,1,2,1:2:0:0:
135,279,207949,1,10,0:0:0:0:
26,186,208103,6,0,P|46:119|61:32,1,148.76999818396,6|0,1:2|0:0,0:0:0:0:
124,0,208411,1,8,0:0:0:0:
258,122,208565,5,6,1:2:0:0:
113,196,208718,1,2,0:0:0:0:
246,153,208872,1,10,0:0:0:0:
149,112,209026,1,2,0:0:0:0:
221,380,209180,5,2,1:2:0:0:
285,235,209334,1,2,1:2:0:0:
217,268,209488,1,10,0:0:0:0:
296,360,209641,1,2,1:2:0:0:
435,226,209795,6,0,P|418:181|412:113,1,99.1799987893067,0|2,0:0|1:2,0:0:0:0:
279,58,210103,1,10,0:0:0:0:
360,0,210257,1,2,0:0:0:0:
412,103,210411,5,2,1:2:0:0:
270,29,210565,1,2,1:2:0:0:
151,227,210718,6,0,B|217:208|190:167|284:139,1,148.76999818396,8|0,0:0|0:0,0:0:0:0:
291,161,211026,6,0,P|265:167|241:181,1,49.5899993946533,6|2,1:2|0:0,0:0:0:0:
76,84,211180,2,0,P|102:92|131:105,1,49.5899993946533,2|2,0:0|0:0,0:0:0:0:
211,361,211334,6,0,P|214:336|221:313,1,49.5899993946533,10|2,0:0|0:0,0:0:0:0:
52,281,211488,2,0,P|50:257|45:233,1,49.5899993946533,2|2,1:2|0:0,0:0:0:0:
123,174,211641,6,0,P|146:185|175:194,1,49.5899993946533,10|2,0:0|0:0,0:0:0:0:
335,338,211795,2,0,P|307:341|278:354,1,49.5899993946533,2|2,1:2|0:0,0:0:0:0:
390,148,211949,1,10,0:0:0:0:
501,241,212103,6,0,P|426:243|371:145,1,174.869991728257,6|0,1:2|0:0,0:0:0:0:
390,148,212411,1,8,0:0:0:0:
506,134,212565,5,10,0:0:0:0:
372,254,212718,1,8,0:0:0:0:
178,46,212872,6,0,P|240:52|291:109,1,125.280003058594,6|0,1:2|0:0,0:0:0:0:
152,216,213103,6,0,P|110:174|118:91,1,125.280003058594,6|0,1:2|0:0,0:0:0:0:
294,182,213334,6,0,P|275:207|238:224,1,62.6400015292969,6|0,1:2|0:0,0:0:0:0:
169,329,213488,6,0,B|231:304|307:325|344:370|344:370|408:354|392:271|330:255|284:307,1,375.840009175781,6|2,1:2|0:0,0:0:0:0:
17,0,221488,6,0,P|12:28|-3:60,1,45.239999723877,2|0,1:2|0:0,0:0:0:0:
106,209,221641,1,10,0:0:0:0:
147,191,221717,1,8,0:0:0:0:
171,154,221794,1,8,0:0:0:0:
171,110,221871,1,8,0:0:0:0:
146,73,221948,1,8,3:0:0:0:
26,276,222103,6,0,P|79:286|148:322,1,116.579994485504,6|0,1:2|1:2,0:0:0:0:
449,97,222411,2,0,P|388:112|337:153,1,116.579994485504,14|0,0:0|0:0,0:0:0:0:
147,369,222718,6,0,P|143:342|131:302,1,58.2899972427522,0|0,1:2|0:0,0:0:0:0:
162,245,222872,2,0,P|169:280|179:309,1,58.2899972427522,0|0,1:2|0:0,0:0:0:0:
379,384,223026,6,0,P|443:344|413:239,1,174.869991728257,14|0,0:0|0:0,0:0:0:0:
439,237,223334,5,6,1:2:0:0:
262,157,223488,1,8,3:0:0:0:
264,243,223641,5,10,0:0:0:0:
507,50,223795,2,0,P|488:107|483:170,1,116.579994485504,6|0,1:2|0:0,0:0:0:0:
307,17,224103,2,0,P|218:5|162:84,1,174.869991728257,6|0,1:2|0:0,0:0:0:0:
139,98,224411,6,0,P|135:71|125:30,1,58.2899972427522,8|8,0:0|0:0,0:0:0:0:
333,199,224565,5,4,1:0:0:0:
325,223,224872,1,0,1:2:0:0:
318,248,225180,1,0,1:2:0:0:
312,273,225488,1,0,1:2:0:0:
86,376,225795,5,2,1:2:0:0:
69,306,226103,1,0,1:2:0:0:
49,237,226411,1,0,1:2:0:0:
30,167,226718,1,0,1:2:0:0:
382,77,227026,5,2,1:2:0:0:
319,122,227334,1,0,1:2:0:0:
247,98,227641,1,0,1:2:0:0:
236,23,227949,1,0,1:2:0:0:
439,172,228257,5,2,1:2:0:0:
446,198,228565,1,0,1:2:0:0:
454,224,228872,1,0,1:2:0:0:
461,246,229180,1,0,1:2:0:0:
209,329,229488,6,0,P|222:294|226:250,1,73.0799977697755,4|0,1:2|0:0,0:0:0:0:
369,379,229795,2,0,P|357:346|351:302,1,73.0799977697755,8|0,0:0|0:0,0:0:0:0:
242,166,230103,6,0,P|173:160|117:223,1,146.159995539551,2|8,1:2|0:0,0:0:0:0:
60,251,230565,1,0,0:0:0:0:
209,329,230718,5,2,1:2:0:0:
133,384,230872,2,0,P|126:349|125:302,1,73.0799977697755,2|8,0:0|0:0,0:0:0:0:
339,92,231180,2,0,P|328:163|309:238,1,146.159995539551,2|2,0:0|1:2,0:0:0:0:
87,66,231641,1,8,0:0:0:0:
213,15,231795,1,2,0:0:0:0:
219,210,231949,6,0,L|153:188,1,58.2899972427522,14|0,0:0|0:0,0:0:0:0:
381,24,232103,1,8,3:0:0:0:
418,53,232180,1,8,3:0:0:0:
418,100,232257,1,8,3:0:0:0:
213,15,232411,6,0,L|273:2,1,58.2899972427522,14|0,0:0|0:0,0:0:0:0:
92,248,232565,1,8,3:0:0:0:
64,212,232641,1,8,3:0:0:0:
75,165,232718,1,8,3:0:0:0:
425,229,232872,6,0,B|395:278|398:340|398:340|364:360|333:316,1,174.869991728257,12|0,0:0|0:0,0:0:0:0:
344,320,233180,6,0,P|381:332|402:368,1,73.0799977697755,4|2,1:2|0:0,0:0:0:0:
242,244,233488,6,0,P|242:200|289:154,1,90.4799994477539,2|2,0:0|0:0,0:0:0:0:
212,346,233795,6,0,P|187:366|151:371,1,58.2899972427522,10|8,0:0|0:0,0:0:0:0:
328,225,233949,2,0,P|356:230|387:247,1,58.2899972427522,10|8,0:0|0:0,0:0:0:0:
145,192,234103,6,0,P|136:166|136:126,1,58.2899972427522,10|8,0:0|0:0,0:0:0:0:
308,315,234257,2,0,P|307:348|297:379,1,58.2899972427522,10|8,0:0|0:0,0:0:0:0:
333,110,234411,6,0,P|390:67|485:85,1,148.76999818396,4|0,1:0|0:0,0:0:0:0:
509,128,234718,2,0,L|496:234,1,99.1799987893067,8|2,0:0|1:2,0:0:0:0:
378,30,235026,5,8,0:0:0:0:
237,108,235180,1,2,1:2:0:0:
419,160,235334,5,8,0:0:0:0:
246,24,235488,1,0,1:2:0:0:
152,250,235641,5,10,0:0:0:0:
177,237,235718,1,2,0:0:0:0:
201,226,235795,1,2,1:2:0:0:
124,121,235949,5,8,0:0:0:0:
51,303,236103,1,2,1:2:0:0:
201,226,236257,5,8,0:0:0:0:
23,151,236411,1,2,1:2:0:0:
260,322,236565,5,8,0:0:0:0:
203,146,236718,1,2,1:2:0:0:
162,133,236795,1,2,0:0:0:0:
124,121,236872,5,10,0:0:0:0:
51,303,237026,1,2,1:2:0:0:
309,198,237180,5,8,0:0:0:0:
168,41,237334,1,2,1:2:0:0:
260,322,237488,5,8,0:0:0:0:
433,187,237641,1,2,1:2:0:0:
272,62,237795,5,8,0:0:0:0:
509,305,237949,2,0,P|482:226|457:82,1,198.359997578613,6|0,1:2|1:2,0:0:0:0:
200,384,238411,2,0,P|219:313|216:219,1,148.76999818396,8|8,0:0|0:0,0:0:0:0:
240,223,238718,1,2,1:2:0:0:
121,162,238872,1,0,1:2:0:0:
11,316,239026,2,0,B|87:303|64:260|141:241,1,148.76999818396,10|0,0:0|0:0,0:0:0:0:
147,253,239334,5,6,1:2:0:0:
13,62,239488,2,0,P|9:114|-4:172,1,99.1799987893067,2|8,0:0|0:0,0:0:0:0:
181,44,239795,1,10,0:0:0:0:
175,28,239872,1,8,0:0:0:0:
168,12,239949,1,2,1:2:0:0:
85,118,240103,2,0,P|134:129|188:160,1,99.1799987893067,2|8,1:2|0:0,0:0:0:0:
429,23,240411,6,0,P|344:36|294:150,1,198.359997578613,6|0,1:2|1:2,0:0:0:0:
499,267,240872,2,0,P|502:218|519:155,1,99.1799987893067,8|0,0:0|0:0,0:0:0:0:
312,301,241180,1,2,1:2:0:0:
425,374,241334,5,10,0:0:0:0:
417,333,241411,1,8,0:0:0:0:
408,285,241488,1,8,0:0:0:0:
400,237,241565,1,8,0:0:0:0:
390,190,241641,1,8,3:0:0:0:
382,143,241718,1,8,3:0:0:0:
373,98,241795,5,6,1:2:0:0:
512,169,241949,1,0,1:2:0:0:
312,301,242103,6,0,B|259:274|205:271|205:271|187:234|225:199,1,174.869991728257,14|0,0:0|0:0,0:0:0:0:
305,157,242411,6,0,P|291:185|283:227,1,58.2899972427522,0|0,1:2|0:0,0:0:0:0:
157,339,242565,2,0,P|171:311|179:269,1,58.2899972427522,0|0,1:2|0:0,0:0:0:0:
25,73,242718,6,0,P|52:162|139:133,1,174.869991728257,14|0,0:0|0:0,0:0:0:0:
191,122,243026,5,6,1:2:0:0:
133,112,243103,1,8,0:0:0:0:
82,152,243180,1,8,3:0:0:0:
71,213,243257,1,8,3:0:0:0:
100,266,243334,1,10,0:0:0:0:
372,113,243488,6,0,P|355:54|348:-17,1,116.579994485504,6|0,1:2|0:0,0:0:0:0:
212,212,243795,2,0,B|283:187|343:245|343:245|352:295|415:318,1,233.159988971009,6|8,1:2|0:0,0:0:0:0:
431,380,244180,1,8,0:0:0:0:
431,380,244257,6,0,L|449:223,1,148.76999818396,4|0,1:0|0:0,0:0:0:0:
465,223,244565,1,8,0:0:0:0:
251,306,244718,1,2,1:2:0:0:
253,130,244872,5,8,0:0:0:0:
398,311,245026,1,2,1:2:0:0:
138,362,245180,5,8,0:0:0:0:
226,214,245334,1,0,1:2:0:0:
299,378,245488,5,10,0:0:0:0:
99,213,245641,2,0,P|113:167|125:92,1,99.1799987893067,2|8,1:2|0:0,0:0:0:0:
190,80,245949,1,2,1:2:0:0:
323,185,246103,5,8,0:0:0:0:
159,271,246257,1,2,1:2:0:0:
289,76,246411,5,8,0:0:0:0:
432,207,246565,1,0,1:2:0:0:
280,301,246718,5,10,0:0:0:0:
392,49,246872,1,2,1:2:0:0:
479,296,247026,5,8,0:0:0:0:
250,145,247180,1,2,1:2:0:0:
452,108,247334,5,8,0:0:0:0:
340,367,247488,1,2,1:2:0:0:
232,124,247641,5,8,0:0:0:0:
512,219,247795,2,0,B|411:198|431:283|313:264,1,198.359997578613,6|0,1:2|1:2,0:0:0:0:
173,384,248257,2,0,P|213:360|284:358,1,99.1799987893067,8|0,0:0|1:2,0:0:0:0:
135,118,248565,1,2,1:2:0:0:
9,186,248718,2,0,P|62:249|149:242,1,148.76999818396,4|0,1:2|0:0,0:0:0:0:
194,293,249026,5,8,0:0:0:0:
203,276,249103,1,8,0:0:0:0:
199,260,249180,6,0,B|103:245|120:341|13:319,1,198.359997578613,4|8,1:2|0:0,0:0:0:0:
229,162,249641,1,2,0:0:0:0:
229,162,249718,1,2,0:0:0:0:
229,162,249795,1,2,1:2:0:0:
135,118,249949,1,0,1:2:0:0:
282,324,250103,2,0,P|287:276|311:216,1,99.1799987893067,8|0,0:0|0:0,0:0:0:0:
210,76,250411,5,2,1:2:0:0:
371,0,250565,2,0,P|373:42|398:103,1,99.1799987893067,2|10,1:2|0:0,0:0:0:0:
512,238,250872,2,0,P|471:198|382:201,1,148.76999818396,2|0,1:2|0:0,0:0:0:0:
371,192,251180,1,2,1:2:0:0:
250,370,251334,2,0,P|288:354|368:350,1,99.1799987893067,8|2,0:0|0:0,0:0:0:0:
203,106,251641,5,12,0:0:0:0:
101,333,251795,1,0,1:2:0:0:
301,236,251949,1,0,1:2:0:0:
93,131,252103,5,12,0:0:0:0:
250,370,252257,1,0,1:2:0:0:
101,333,252411,1,0,1:2:0:0:
377,86,252565,6,0,L|484:116,1,99.1799987893067,10|2,0:0|1:2,0:0:0:0:
511,182,252795,1,8,0:0:0:0:
511,182,252872,5,2,1:2:0:0:
397,239,253026,1,10,0:0:0:0:
507,263,253180,5,8,3:0:0:0:
383,167,253334,1,8,3:0:0:0:
328,300,253488,5,8,3:0:0:0:
237,249,253641,1,8,3:0:0:0:
214,318,253795,5,8,3:0:0:0:
308,231,253949,1,8,3:0:0:0:
172,76,254103,6,0,B|106:98|106:98|88:132|88:132|30:157,1,163.559997504273,4|2,1:2|1:2,0:0:0:0:
237,249,254565,1,0,1:2:0:0:
61,353,254718,2,0,P|76:315|85:267,1,81.7799987521363,10|0,0:0|0:0,0:0:0:0:
318,133,255026,2,0,P|357:152|424:165,1,81.7799987521363,2|0,1:2|1:2,0:0:0:0:
191,329,255334,6,0,P|244:281|355:297,1,163.559997504273,12|2,0:0|1:2,0:0:0:0:
168,161,255795,1,0,1:2:0:0:
263,28,255949,2,0,P|247:69|239:121,1,81.7799987521363,10|0,0:0|0:0,0:0:0:0:
102,285,256257,2,0,P|88:246|83:187,1,81.7799987521363,2|0,1:2|0:0,0:0:0:0:
483,381,256565,6,0,P|489:304|520:200,1,163.559997504273,12|2,0:0|1:2,0:0:0:0:
332,282,257026,1,2,1:2:0:0:
445,65,257180,2,0,P|462:103|464:156,1,81.7799987521363,8|0,0:0|0:0,0:0:0:0:
393,161,257488,2,0,P|376:123|374:70,1,81.7799987521363,0|0,1:2|1:2,0:0:0:0:
512,221,257795,6,0,B|449:234|449:234|422:266|422:266|355:280,1,163.559997504273,12|2,0:0|1:2,0:0:0:0:
262,374,258257,1,2,1:2:0:0:
394,378,258411,6,0,P|372:367|345:359,1,40.8899993760681,10|0,0:0|0:0,0:0:0:0:
219,263,258565,2,0,P|167:296|90:286,1,122.669998128204,14|0,0:0|0:0,0:0:0:0:
47,328,258872,1,10,0:0:0:0:
28,329,258949,1,8,0:0:0:0:
18,340,259026,6,0,P|62:325|58:204,1,163.559997504273,4|10,1:2|0:0,0:0:0:0:
185,116,259488,1,10,0:0:0:0:
179,134,259565,1,8,0:0:0:0:
176,153,259641,1,0,1:2:0:0:
51,57,259795,1,2,1:2:0:0:
77,125,259949,1,8,0:0:0:0:
216,13,260103,6,0,P|275:6|352:71,1,163.559997504273,6|0,1:2|1:2,0:0:0:0:
484,174,260565,2,0,P|441:179|395:207,1,81.7799987521363,8|10,0:0|0:0,0:0:0:0:
337,185,260795,1,8,0:0:0:0:
337,185,260872,1,2,1:2:0:0:
444,83,261026,1,2,1:2:0:0:
512,264,261180,2,0,P|501:228|495:166,1,81.7799987521363,8|2,0:0|0:0,0:0:0:0:
343,350,261488,6,0,B|260:354|282:284|196:300,1,163.559997504273,6|10,1:2|0:0,0:0:0:0:
98,222,261949,2,0,P|76:217|46:204,2,40.8899993760681,10|8|2,0:0|0:0|1:2,0:0:0:0:
168,193,262257,1,2,1:2:0:0:
70,342,262411,1,8,0:0:0:0:
296,213,262565,6,0,P|276:132|260:21,1,163.559997504273,6|0,1:2|1:2,0:0:0:0:
103,0,263026,2,0,P|83:33|88:88,1,81.7799987521363,8|2,0:0|1:2,0:0:0:0:
13,261,263334,5,10,0:0:0:0:
47,229,263411,1,10,0:0:0:0:
98,222,263488,1,10,0:0:0:0:
147,240,263565,1,10,0:0:0:0:
174,284,263641,1,10,0:0:0:0:
216,312,263718,1,10,0:0:0:0:
262,296,263795,6,0,P|288:254|249:124,1,163.559997504273,4|0,1:2|1:2,0:0:0:0:
103,0,264257,2,0,P|142:16|193:26,1,81.7799987521363,10|0,0:0|0:0,0:0:0:0:
357,147,264565,1,2,1:2:0:0:
213,204,264718,1,0,1:2:0:0:
319,47,264872,1,10,0:0:0:0:
473,194,265026,6,0,P|460:278|450:371,1,163.559997504273,2|0,1:2|1:2,0:0:0:0:
230,160,265488,2,0,P|238:201|242:247,1,81.7799987521363,8|0,0:0|1:2,0:0:0:0:
302,289,265795,1,0,0:0:0:0:
397,215,265949,1,0,1:2:0:0:
438,315,266103,1,8,0:0:0:0:
314,206,266257,1,0,0:0:0:0:
179,332,266411,6,0,P|97:344|13:369,1,163.559997504273,4|10,1:2|0:0,0:0:0:0:
171,237,266872,1,0,0:0:0:0:
35,138,267026,2,0,P|71:156|118:163,1,81.7799987521363,2|0,1:2|1:2,0:0:0:0:
0,264,267334,1,8,0:0:0:0:
71,233,267488,1,0,1:2:0:0:
51,0,267641,6,0,P|8:56|13:154,1,163.559997504273,2|8,0:0|0:0,0:0:0:0:
171,237,268103,1,2,1:2:0:0:
226,185,268257,2,0,P|223:143|193:92,1,81.7799987521363,0|0,1:2|1:2,0:0:0:0:
233,319,268565,2,0,P|288:335|360:370,1,122.669998128204,8|0,0:0|0:0,0:0:0:0:
364,328,268872,6,0,B|287:312|286:382|205:367,1,163.559997504273,4|10,1:2|0:0,0:0:0:0:
341,235,269334,1,0,0:0:0:0:
471,351,269488,2,0,P|453:314|448:257,1,81.7799987521363,2|0,1:2|1:2,0:0:0:0:
319,155,269795,1,10,0:0:0:0:
425,7,269949,6,0,P|481:69|456:173,1,163.559997504273,2|0,1:2|1:2,0:0:0:0:
231,42,270411,1,8,0:0:0:0:
318,0,270565,1,0,1:2:0:0:
247,215,270718,2,0,P|211:189|147:181,1,81.7799987521363,0|0,1:2|1:2,0:0:0:0:
31,89,271026,6,0,P|45:150|51:240,1,122.669998128204,10|0,0:0|0:0,0:0:0:0:
39,234,271334,5,14,0:2:0:0:
146,35,271488,1,0,1:2:0:0:
181,299,271641,1,0,1:2:0:0:
329,77,271795,5,14,0:2:0:0:
174,314,271949,1,0,1:2:0:0:
117,113,272103,1,0,1:2:0:0:
339,290,272257,6,0,B|394:267|451:284|501:322|501:322|562:298|532:220|461:206|418:276|418:276|422:350|363:394|300:390|239:337|265:260|265:260|294:233|299:200|288:166|250:147|250:147|227:121|191:65|259:-25|370:24|365:90|345:127|345:127|321:103|330:75,1,1148.39996495361,14|0,0:2|0:0,0:0:0:0:
