osu file format v14

[General]
AudioFilename: audio.mp3
AudioLeadIn: 0
PreviewTime: 54803
Countdown: 0
SampleSet: None
StackLeniency: 0.7
Mode: 0
LetterboxInBreaks: 0
WidescreenStoryboard: 1

[Editor]
DistanceSpacing: 1
BeatDivisor: 4
GridSize: 4
TimelineZoom: 2.3

[Metadata]
Title:Resolution (TV Size)
TitleUnicode:Resolution (TV Size)
Artist:Tomatsu Haruka
ArtistUnicode:戸松遥
Creator:_Angel_
Version:Normal
Source:ソードアート・オンライン アリシゼーション War of Underworld
Tags:Sword Art Online: Alicization 2nd Season Monstrata
BeatmapID:2198899
BeatmapSetID:1052190

[Difficulty]
HPDrainRate:4
CircleSize:3.4
OverallDifficulty:4
ApproachRate:5
SliderMultiplier:1.1
SliderTickRate:1

[Events]
//Background and Video events
0,0,"997426.jpg",0,0
//Break Periods
//Storyboard Layer 0 (Background)
//Storyboard Layer 1 (Fail)
//Storyboard Layer 2 (Pass)
//Storyboard Layer 3 (Foreground)
//Storyboard Layer 4 (Overlay)
//Storyboard Sound Samples

[TimingPoints]
650,307.692307692308,4,2,1,60,1,0
957,-100,4,2,1,50,0,0
1726,-100,4,2,1,60,0,0
2342,-100,4,2,1,50,0,0
3111,-100,4,2,1,60,0,0
3573,-100,4,2,1,50,0,0
4188,-100,4,2,1,65,0,0
15419,-125,4,2,1,50,0,0
24034,-113.636363636364,4,2,1,60,0,0
25265,-100,4,2,1,65,0,0
32650,-100,4,2,1,60,0,0
34957,-117.647058823529,4,2,1,60,0,0
35726,-117.647058823529,4,2,1,50,0,0
36188,-117.647058823529,4,2,1,60,0,0
36957,-117.647058823529,4,2,1,50,0,0
37419,-117.647058823529,4,2,1,60,0,0
38803,-117.647058823529,4,2,1,50,0,0
39880,-117.647058823529,4,2,1,65,0,0
40650,-117.647058823529,4,2,1,50,0,0
41111,-117.647058823529,4,2,1,65,0,0
41880,-117.647058823529,4,2,1,50,0,0
43726,-111.111111111111,4,2,1,55,0,0
44803,-111.111111111111,4,2,1,60,0,0
52342,-111.111111111111,4,2,1,65,0,0
54803,-90.9090909090909,4,2,1,75,0,1
62188,-100,4,2,1,80,0,1
64188,-100,4,2,1,75,0,1
64573,-90.9090909090909,4,2,1,75,0,0
64650,-90.9090909090909,4,2,1,75,0,1
73265,-90.9090909090909,4,2,1,65,0,1
74496,-133.333333333333,4,2,1,60,0,0
79419,-100,4,2,1,65,0,0
84650,-100,4,2,1,40,0,0
84957,-100,4,2,1,50,0,0
85265,-100,4,2,1,55,0,0
85573,-100,4,2,1,60,0,0
85880,-100,4,2,1,65,0,0
86496,-100,4,2,1,70,0,0

[HitObjects]
64,99,650,5,8,0:0:0:0:
64,99,803,2,0,P|43:159|58:219,1,110,8|0,0:0|0:0,0:0:0:0:
151,158,1419,1,0,0:0:0:0:
151,267,1726,5,8,0:0:0:0:
246,212,2034,1,8,0:0:0:0:
246,212,2188,2,0,P|300:194|366:220,1,110,8|2,0:0|0:0,0:0:0:0:
302,306,2803,1,2,0:0:0:0:
210,366,3111,5,8,0:0:0:0:
210,366,3265,2,0,L|83:363,1,110,8|0,0:0|3:0,0:0:0:0:
8,302,3880,2,0,L|6:231,1,55,0|8,3:0|0:0,0:0:0:0:
19,193,4188,6,0,P|60:218|120:197,1,110,4|8,0:0|0:0,0:0:0:0:
152,158,4650,2,0,P|195:139|266:170,1,110,8|0,0:0|0:0,0:0:0:0:
331,233,5265,1,8,0:0:0:0:
406,153,5573,5,4,0:0:0:0:
327,75,5880,2,0,L|236:175,1,110,10|2,0:0|1:2,0:0:0:0:
227,48,6496,1,10,0:0:0:0:
227,48,6650,6,0,P|180:31|125:59,1,110,2|0,1:2|1:0,0:0:0:0:
92,96,7111,2,0,L|86:217,1,110,8|0,0:0|0:0,0:0:0:0:
160,287,7726,1,8,0:0:0:0:
178,178,8034,6,0,P|231:158|290:182,1,110,4|10,0:0|0:0,0:0:0:0:
340,268,8650,1,2,1:2:0:0:
231,248,8957,1,8,0:0:0:0:
262,353,9265,2,0,P|198:355|155:324,1,110,2|10,0:0|0:0,0:0:0:0:
133,283,9726,2,0,P|69:281|26:312,1,110,2|0,0:0|1:0,0:0:0:0:
3,352,10188,1,4,0:0:0:0:
4,241,10496,6,0,L|9:111,1,110,4|10,0:0|0:2,0:0:0:0:
100,71,11111,2,0,P|153:90|206:73,1,110,2|8,1:2|0:0,0:0:0:0:
238,33,11573,2,0,P|291:14|344:31,1,110,2|0,1:2|1:0,0:0:0:0:
375,71,12034,2,0,L|437:68,2,55,8|0|0,0:0|0:0|1:0,0:0:0:0:
334,109,12496,2,0,P|322:142|353:225,1,110,0|0,1:0|1:0,0:0:0:0:
394,222,12957,5,6,0:0:0:0:
326,372,13419,1,6,0:0:0:0:
487,340,13880,1,6,0:0:0:0:
256,192,13957,12,2,15111,0:0:0:0:
461,50,15419,5,6,1:2:0:0:
461,50,15573,2,0,P|480:106|461:148,1,88,2|2,1:2|0:0,0:0:0:0:
402,185,16188,1,2,0:0:0:0:
364,105,16496,2,0,P|314:90|276:107,1,88,2|2,1:2|1:2,0:0:0:0:
249,131,16957,1,2,1:2:0:0:
210,210,17265,6,0,L|211:308,1,88,0|0,0:0|0:0,0:0:0:0:
135,344,17880,1,2,1:2:0:0:
135,344,18034,2,0,L|131:247,1,88,2|2,1:2|0:0,0:0:0:0:
139,168,18650,2,0,P|89:183|53:173,1,88,2|2,0:0|0:0,0:0:0:0:
38,133,19111,6,0,L|38:36,1,88,2|2,1:2|0:0,0:0:0:0:
79,28,19573,2,0,P|126:43|180:26,1,88,2|2,0:0|0:0,0:0:0:0:
203,17,20034,1,0,0:0:0:0:
208,104,20342,5,2,1:2:0:0:
208,104,20496,2,0,L|297:103,1,88,2|2,1:2|0:0,0:0:0:0:
370,55,21111,1,2,0:0:0:0:
375,142,21419,2,0,L|374:233,1,88,2|0,1:2|1:2,0:0:0:0:
340,258,21880,2,0,P|292:246|253:257,1,88,0|0,1:2|0:0,0:0:0:0:
207,330,22496,5,0,0:0:0:0:
294,335,22803,1,2,1:2:0:0:
294,335,22957,2,0,L|391:340,1,88,0|2,1:2|0:0,0:0:0:0:
426,335,23419,2,0,P|413:300|419:247,1,88,2|0,0:0|0:0,0:0:0:0:
512,240,24034,6,0,L|510:183,2,48.4000014770508,8|8|8,0:0|0:0|0:0,0:0:0:0:
495,285,24496,1,4,0:0:0:0:
427,215,24803,6,0,L|428:155,2,48.4000014770508,8|8|8,0:0|0:0|0:0,0:0:0:0:
398,262,25265,2,0,P|358:237|291:257,1,110,14|8,0:0|0:0,0:0:0:0:
264,292,25726,2,0,P|204:308|143:287,1,110,2|2,1:2|1:2,0:0:0:0:
78,220,26342,6,0,L|75:343,1,110,6|0,1:2|1:0,0:0:0:0:
125,352,26803,2,0,L|122:229,1,110,8|0,0:0|1:0,0:0:0:0:
125,131,27419,1,8,0:0:0:0:
209,201,27726,6,0,L|321:200,1,110,2|10,0:0|0:0,0:0:0:0:
372,186,28188,2,0,P|352:155|371:84,1,110,2|2,1:2|1:2,0:0:0:0:
413,56,28650,1,8,0:0:0:0:
465,152,28957,6,0,P|465:216|429:262,1,110,2|10,0:2|0:2,0:0:0:0:
385,261,29419,2,0,P|344:241|279:263,1,110,10|10,0:2|0:2,0:0:0:0:
253,303,29880,2,0,L|192:310,1,55,8|8,0:0|0:0,0:0:0:0:
144,320,30188,6,0,L|159:197,1,110,4|10,0:0|0:0,0:0:0:0:
189,105,30803,1,10,0:0:0:0:
251,195,31111,1,10,0:0:0:0:
290,89,31419,2,0,L|406:73,1,110,10|10,0:0|0:0,0:0:0:0:
363,178,32034,1,10,0:0:0:0:
320,279,32342,1,10,0:0:0:0:
211,296,32650,6,0,P|156:314|100:290,1,110,4|10,0:0|0:0,0:0:0:0:
157,210,33265,1,8,0:0:0:0:
265,188,33573,1,10,0:0:0:0:
190,107,33880,1,2,1:2:0:0:
190,107,34034,2,0,P|137:94|77:121,1,110,6|2,0:2|1:2,0:0:0:0:
57,219,34650,5,2,3:2:0:0:
1,132,34957,2,0,P|7:65|30:43,1,93.500001783371,6|0,0:2|0:0,0:0:0:0:
71,31,35419,1,2,0:2:0:0:
157,86,35726,2,0,L|157:185,1,93.500001783371,10|0,0:0|0:0,0:0:0:0:
163,230,36188,6,0,P|216:218|257:232,1,93.500001783371,0|0,0:0|0:0,0:0:0:0:
289,265,36650,1,0,0:0:0:0:
365,333,36957,2,0,L|473:331,1,93.500001783371,10|0,0:0|0:0,0:0:0:0:
479,284,37419,6,0,L|476:180,1,93.500001783371,2|0,0:0|0:0,0:0:0:0:
467,139,37880,1,2,0:0:0:0:
377,189,38188,2,0,L|376:246,2,46.7500008916855,8|0|0,0:0|0:0|0:0,0:0:0:0:
372,137,38650,1,0,0:0:0:0:
372,137,38803,6,0,P|324:152|280:141,1,93.500001783371,4|8,0:0|0:0,0:0:0:0:
245,106,39265,2,0,L|245:43,2,46.7500008916855,0|0|0,3:0|3:0|3:0,0:0:0:0:
227,154,39726,1,2,3:2:0:0:
227,154,39880,6,0,L|126:154,1,93.500001783371,10|0,0:0|1:0,0:0:0:0:
97,117,40342,1,2,1:2:0:0:
30,195,40650,2,0,L|32:295,1,93.500001783371,10|0,0:0|0:0,0:0:0:0:
78,309,41111,6,0,P|119:292|171:312,1,93.500001783371,2|0,0:0|0:0,0:0:0:0:
203,340,41573,1,2,0:0:0:0:
305,340,41880,2,0,L|412:341,1,93.500001783371,10|0,0:0|0:0,0:0:0:0:
450,337,42342,6,0,P|434:296|451:242,1,93.500001783371,2|0,1:2|0:0,0:0:0:0:
477,209,42803,1,2,2:1:0:0:
374,213,43111,2,0,L|280:212,1,93.500001783371,10|0,0:0|1:0,0:0:0:0:
171,210,43726,5,6,0:2:0:0:
171,210,43880,1,2,3:2:0:0:
222,125,44188,5,10,0:2:0:0:
280,212,44496,1,10,0:0:0:0:
220,290,44803,2,0,P|176:310|124:289,1,98.9999969787599,14|2,0:2|1:2,0:0:0:0:
90,264,45265,2,0,P|78:215|92:152,1,98.9999969787599,10|10,0:2|0:2,0:0:0:0:
117,130,45726,2,0,L|118:64,1,49.4999984893799,10|8,0:2|0:0,0:0:0:0:
145,39,46034,6,0,P|186:59|239:35,1,98.9999969787599,6|2,0:0|1:2,0:0:0:0:
279,22,46496,2,0,P|320:2|373:26,1,98.9999969787599,2|10,0:2|0:0,0:0:0:0:
405,51,46957,2,0,L|409:105,1,49.4999984893799,2|8,1:2|0:0,0:0:0:0:
462,183,47419,5,6,0:0:0:0:
430,276,47726,1,10,0:0:0:0:
330,277,48034,1,2,0:0:0:0:
287,187,48342,1,10,0:0:0:0:
249,95,48650,6,0,P|199:77|150:101,1,98.9999969787599,6|8,0:0|0:0,0:0:0:0:
121,125,49111,1,2,1:2:0:0:
37,178,49419,1,2,1:2:0:0:
122,227,49726,1,2,0:0:0:0:
122,227,49880,2,0,L|126:331,1,98.9999969787599,4|0,0:0|0:0,0:0:0:0:
211,274,50496,6,0,P|263:254|311:275,1,98.9999969787599,8|0,0:0|0:0,0:0:0:0:
339,300,50957,1,8,0:0:0:0:
339,300,51111,2,0,L|443:300,1,98.9999969787599,8|0,0:0|0:0,0:0:0:0:
398,209,51726,1,8,0:0:0:0:
304,174,52034,1,0,2:0:0:0:
380,111,52342,6,0,P|333:78|278:78,1,98.9999969787599,4|0,0:0|1:0,0:0:0:0:
251,101,52803,2,0,P|200:120|153:107,1,98.9999969787599,4|0,0:0|1:0,0:0:0:0:
128,69,53265,1,4,0:0:0:0:
38,111,53573,6,0,L|36:175,1,49.4999984893799,2|2,0:0|0:0,0:0:0:0:
82,178,53880,2,0,L|82:229,1,49.4999984893799,2|2,0:0|0:0,0:0:0:0:
127,247,54188,2,0,L|131:307,1,49.4999984893799,10|10,0:0|0:0,0:0:0:0:
179,305,54496,2,0,L|187:359,1,49.4999984893799,2|2,3:2|3:2,0:0:0:0:
244,370,54803,6,0,P|271:340|371:350,1,121.000003692627,6|8,3:2|0:0,0:0:0:0:
396,359,55265,2,0,P|437:360|480:286,1,121.000003692627,2|2,1:2|1:2,0:0:0:0:
470,247,55726,1,8,0:0:0:0:
445,140,56034,6,0,P|396:169|336:144,1,121.000003692627,2|8,1:2|0:0,0:0:0:0:
308,102,56496,2,0,L|180:102,1,121.000003692627,2|2,1:2|1:2,0:0:0:0:
132,102,56957,1,8,0:0:0:0:
30,62,57265,5,2,1:2:0:0:
30,62,57419,2,0,L|32:131,1,60.5000018463135,2|8,1:2|0:0,0:0:0:0:
65,165,57726,2,0,P|51:197|82:279,1,121.000003692627,2|2,1:2|1:2,0:0:0:0:
153,353,58342,6,0,P|185:305|167:238,1,121.000003692627,6|0,0:2|1:0,0:0:0:0:
140,202,58803,1,8,0:0:0:0:
155,94,59111,1,2,1:2:0:0:
234,168,59419,1,10,0:2:0:0:
248,60,59726,5,6,0:2:0:0:
248,60,59880,2,0,L|376:62,1,121.000003692627,2|2,0:2|1:2,0:0:0:0:
423,57,60342,2,0,P|413:106|423:136,1,60.5000018463135,2|2,0:0|0:2,0:0:0:0:
449,158,60650,1,8,0:0:0:0:
449,158,60803,2,0,P|405:157|355:212,1,121.000003692627,2|0,1:2|1:0,0:0:0:0:
367,263,61265,1,8,0:0:0:0:
300,349,61573,1,2,0:2:0:0:
300,349,61726,6,0,L|158:346,1,121.000003692627,10|10,0:2|3:2,0:0:0:0:
128,305,62188,5,10,0:0:0:0:
125,176,62496,1,10,0:0:0:0:
261,42,63111,5,10,0:0:0:0:
265,170,63419,1,10,0:0:0:0:
368,94,63726,1,2,0:0:0:0:
368,94,63880,2,0,L|443:95,1,55,6|0,0:0|0:0,0:0:0:0:
472,96,64188,2,0,P|489:180|477:210,1,110,2|8,3:2|0:0,0:0:0:0:
447,243,64650,6,0,P|410:224|335:245,1,121.000003692627,14|8,0:2|0:0,0:0:0:0:
307,289,65111,2,0,P|270:308|195:287,1,121.000003692627,2|2,1:2|1:2,0:0:0:0:
160,247,65573,1,8,0:0:0:0:
80,321,65880,5,2,1:2:0:0:
80,321,66034,2,0,P|55:277|66:198,1,121.000003692627,2|2,1:2|1:2,0:0:0:0:
27,104,66650,2,0,L|168:106,1,121.000003692627,2|0,1:2|0:0,0:0:0:0:
202,103,67111,6,0,P|184:135|221:223,1,121.000003692627,2|8,1:2|0:0,0:0:0:0:
247,247,67573,1,2,1:2:0:0:
295,149,67880,1,2,1:2:0:0:
344,246,68188,6,0,P|398:274|461:250,1,121.000003692627,6|0,0:2|1:0,0:0:0:0:
480,210,68650,1,8,0:0:0:0:
405,130,68957,6,0,L|336:137,1,60.5000018463135,10|6,0:2|0:2,0:0:0:0:
255,72,69419,1,8,0:0:0:0:
255,72,69573,6,0,L|254:208,1,121.000003692627,4|8,0:0|0:0,0:0:0:0:
248,301,70188,6,0,P|211:279|138:298,1,121.000003692627,2|8,1:2|0:0,0:0:0:0:
30,300,70803,2,0,L|30:367,2,60.5000018463135,2|2|8,1:2|1:2|0:0,0:0:0:0:
32,245,71265,2,0,L|35:95,1,121.000003692627,2|2,1:2|1:2,0:0:0:0:
131,74,71880,5,2,0:2:0:0:
131,74,72034,2,0,P|182:91|255:68,1,121.000003692627,4|0,0:0|1:0,0:0:0:0:
287,39,72496,2,0,P|338:22|411:45,1,121.000003692627,4|0,0:0|1:0,0:0:0:0:
440,75,72957,1,4,0:0:0:0:
343,125,73265,5,4,0:0:0:0:
425,195,73573,1,2,0:2:0:0:
420,303,73880,2,0,P|391:345|314:358,1,121.000003692627,2|2,3:2|3:2,0:0:0:0:
264,293,74496,6,0,P|212:272|178:287,1,82.5000031471254,4|2,3:2|1:2,0:0:0:0:
110,326,75111,2,0,L|113:229,1,82.5000031471254,10|2,0:2|1:2,0:0:0:0:
70,163,75726,2,0,L|73:66,1,82.5000031471254,8|2,0:0|1:2,0:0:0:0:
142,22,76342,2,0,L|225:22,1,82.5000031471254,10|2,0:2|1:2,0:0:0:0:
290,84,76957,6,0,L|292:172,1,82.5000031471254,8|2,0:0|1:2,0:0:0:0:
240,242,77573,2,0,L|240:337,1,82.5000031471254,8|0,0:0|1:0,0:0:0:0:
327,298,78188,2,0,L|413:297,1,82.5000031471254,8|2,0:0|1:2,0:0:0:0:
450,277,78650,2,0,P|465:235|446:187,1,82.5000031471254,2|6,1:2|0:2,0:0:0:0:
416,117,79265,1,10,0:0:0:0:
416,117,79419,6,0,P|377:142|312:134,1,110,6|10,0:0|0:0,0:0:0:0:
270,95,79880,2,0,P|216:87|169:114,1,110,2|2,1:0|1:0,0:0:0:0:
105,217,80496,6,0,L|238:223,1,110,2|0,0:0|1:0,0:0:0:0:
275,227,80957,1,8,0:0:0:0:
396,228,81265,1,2,1:2:0:0:
396,228,81419,2,0,P|386:298|338:337,1,110,2|2,1:2|0:0,0:0:0:0:
300,317,81880,6,0,L|173:320,1,110,6|10,0:2|0:2,0:0:0:0:
131,334,82342,1,10,0:2:0:0:
131,334,82496,2,0,P|99:326|73:259,1,110,10|8,0:2|0:0,0:0:0:0:
105,208,82957,2,0,P|153:232|211:206,1,110,6|0,0:2|1:0,0:0:0:0:
154,102,83573,5,2,1:2:0:0:
241,35,83880,1,2,1:2:0:0:
257,143,84188,1,6,1:2:0:0:
390,45,84650,6,0,L|388:172,1,110,8|8,1:2|1:2,0:0:0:0:
489,110,85265,2,0,L|501:224,1,110,8|8,1:2|1:2,0:0:0:0:
391,234,85880,2,0,L|379:350,1,110,8|8,1:2|1:2,0:0:0:0:
487,317,86496,2,0,L|483:380,1,55,8|8,1:2|0:0,0:0:0:0:
379,343,86957,6,0,L|311:345,1,55,8|8,0:0|0:0,0:0:0:0:
303,235,87419,1,8,0:0:0:0:
199,197,87726,2,0,L|198:263,1,55,8|8,0:0|0:0,0:0:0:0:
