osu file format v14

[General]
AudioFilename: audio.mp3
AudioLeadIn: 0
PreviewTime: 54591
Countdown: 0
SampleSet: Soft
StackLeniency: 0.7
Mode: 3
LetterboxInBreaks: 0
SpecialStyle: 0
WidescreenStoryboard: 1

[Editor]
DistanceSpacing: 1.4
BeatDivisor: 4
GridSize: 4
TimelineZoom: 2.4

[Metadata]
Title:Resolution (TV Size)
TitleUnicode:Resolution (TV Size)
Artist:Tomatsu Haruka
ArtistUnicode:戸松遥
Creator:SuzumeAyase
Version:Ferdi's Hard
Source:ソードアート・オンライン アリシゼーション War of Underworld
Tags:sao sword art online alicization 2nd season III 3 A-1 Pictures sho watanabe takahiro furukawa asuna anime j-pop jpop japanese pop op opening Shin Furuya onii_ue yuiazu- ferdixia- syadow-
BeatmapID:3468058
BeatmapSetID:1690140

[Difficulty]
HPDrainRate:8
CircleSize:4
OverallDifficulty:8
ApproachRate:5
SliderMultiplier:1.4
SliderTickRate:1

[Events]
//Background and Video events
0,0,"Alice chan.jpg",0,0
Video,-150,"resolution.mp4"
//Break Periods
//Storyboard Layer 0 (Background)
//Storyboard Layer 1 (Fail)
//Storyboard Layer 2 (Pass)
//Storyboard Layer 3 (Foreground)
//Storyboard Layer 4 (Overlay)
//Storyboard Sound Samples
Sample,74053,0,"tom04.wav",70

[TimingPoints]
515,307.692307692308,4,2,1,70,1,0
15284,-100,4,2,1,50,0,0
25130,-100,4,2,1,70,0,0
54668,-100,4,2,1,70,0,1
62053,-100,4,2,1,70,0,0
64515,-100,4,2,1,70,0,1
74361,-100,4,2,1,70,0,0
79284,-100,4,2,1,70,0,1
84207,-100,4,2,1,70,0,0
84515,-100,4,2,1,40,0,0
85438,-100,4,2,1,55,0,0
86361,-100,4,2,1,100,0,0

[HitObjects]
64,192,515,5,8,0:0:0:0:
448,192,515,1,0,0:0:0:0:
64,192,668,1,8,0:0:0:0:
448,192,668,1,0,0:0:0:0:
192,192,822,1,0,0:0:0:0:
320,192,976,1,0,0:0:0:0:
448,192,1130,1,0,0:0:0:0:
64,192,1284,1,0,0:0:0:0:
320,192,1438,1,0,0:0:0:0:
64,192,1591,1,8,0:0:0:0:
448,192,1591,1,0,0:0:0:0:
192,192,1745,1,0,0:0:0:0:
320,192,1899,1,8,0:0:0:0:
448,192,1899,1,0,0:0:0:0:
320,192,2053,1,8,0:0:0:0:
448,192,2053,128,0,2361:0:0:0:0:
64,192,2361,128,0,2515:0:0:0:0:
192,192,2515,128,0,2668:0:0:0:0:
448,192,2668,128,0,2822:0:0:0:0:
320,192,2822,128,0,2976:0:0:0:0:
64,192,2976,1,8,0:0:0:0:
192,192,2976,1,0,0:0:0:0:
64,192,3130,1,8,0:0:0:0:
192,192,3130,1,0,0:0:0:0:
448,192,3284,1,0,0:0:0:0:
192,192,3438,1,0,0:0:0:70:Tom 1.wav
320,192,3438,1,0,0:0:0:0:
64,192,3591,1,0,0:0:0:0:
192,192,3745,1,2,0:0:0:0:
448,192,3745,1,0,0:0:0:70:Tom 3.wav
64,192,3899,1,8,0:0:0:0:
320,192,3899,1,0,0:0:0:0:
192,192,4053,128,2,4361:0:0:0:0:
320,192,4053,1,4,0:0:0:0:
448,192,4053,1,0,0:0:0:0:
64,192,4361,1,8,0:0:0:0:
448,192,4361,1,0,0:0:0:0:
192,192,4515,1,8,0:0:0:0:
320,192,4515,1,0,0:0:0:0:
64,192,4668,1,2,0:0:0:0:
320,192,4668,128,0,4976:0:0:0:70:Crash 2.wav
448,192,4668,1,0,0:0:0:0:
64,192,4976,1,8,0:0:0:0:
192,192,5053,1,8,0:0:0:0:
320,192,5130,1,8,0:0:0:0:
448,192,5130,1,0,0:0:0:0:
64,192,5207,1,8,0:0:0:0:
192,192,5284,1,8,0:0:0:0:
320,192,5361,1,8,0:0:0:0:
64,192,5438,1,2,0:0:0:0:
192,192,5438,1,4,0:0:0:0:
448,192,5438,1,0,0:0:0:0:
64,192,5591,1,0,0:0:0:0:
192,192,5745,1,8,0:0:0:0:
448,192,5745,1,0,0:0:0:0:
320,192,5899,1,0,0:0:0:0:
64,192,6053,1,2,0:0:0:0:
192,192,6053,1,0,0:0:0:0:
320,192,6207,1,2,0:0:0:0:
448,192,6207,1,0,0:0:0:0:
64,192,6361,1,8,0:0:0:0:
448,192,6361,1,0,0:0:0:0:
64,192,6515,1,2,0:0:0:0:
320,192,6515,1,0,0:0:0:0:
192,192,6668,1,0,0:0:0:0:
320,192,6822,1,2,0:0:0:0:
448,192,6822,1,0,0:0:0:0:
64,192,6976,1,8,0:0:0:0:
320,192,6976,1,0,0:0:0:0:
64,192,7130,1,2,0:0:0:0:
192,192,7130,1,0,0:0:0:0:
448,192,7284,1,0,0:0:0:0:
192,192,7438,1,2,0:0:0:0:
320,192,7438,1,0,0:0:0:0:
64,192,7591,1,8,0:0:0:0:
320,192,7591,1,0,0:0:0:0:
448,192,7745,1,0,0:0:0:0:
64,192,7899,1,2,0:0:0:0:
192,192,7899,1,0,0:0:0:0:
320,192,8053,1,0,0:0:0:0:
64,192,8207,1,8,0:0:0:0:
448,192,8207,1,0,0:0:0:0:
192,192,8361,1,0,0:0:0:0:
320,192,8515,1,2,0:0:0:0:
448,192,8515,1,0,0:0:0:0:
64,192,8668,1,2,0:0:0:0:
192,192,8668,1,0,0:0:0:0:
64,192,8822,1,8,0:0:0:0:
320,192,8822,1,0,0:0:0:0:
192,192,8976,1,2,0:0:0:0:
320,192,8976,1,0,0:0:0:0:
448,192,9130,128,0,9438:0:0:0:0:
64,192,9284,1,2,0:0:0:0:
192,192,9438,1,8,0:0:0:0:
320,192,9438,1,0,0:0:0:0:
64,192,9591,128,0,9899:0:0:0:0:
320,192,9745,1,2,0:0:0:0:
192,192,9899,1,2,0:0:0:0:
448,192,9899,1,0,0:0:0:0:
192,192,10053,1,8,0:0:0:0:
320,192,10053,128,0,10361:0:0:0:70:Crash 2.wav
64,192,10361,1,2,0:0:0:0:
192,192,10361,1,4,0:0:0:0:
448,192,10361,1,0,0:0:0:0:
320,192,10515,1,0,0:0:0:0:
64,192,10668,1,8,0:0:0:0:
192,192,10668,1,0,0:0:0:0:
448,192,10822,1,0,0:0:0:0:
192,192,10976,1,2,0:0:0:0:
320,192,10976,1,0,0:0:0:0:
64,192,11130,1,2,0:0:0:0:
448,192,11130,1,0,0:0:0:0:
64,192,11284,1,8,0:0:0:0:
320,192,11284,1,0,0:0:0:0:
192,192,11438,1,2,0:0:0:0:
320,192,11438,1,0,0:0:0:0:
448,192,11591,1,0,0:0:0:0:
64,192,11745,1,2,0:0:0:0:
192,192,11745,1,0,0:0:0:0:
320,192,11899,1,8,0:0:0:0:
448,192,11899,1,0,0:0:0:0:
192,192,12053,1,0,0:0:0:0:
64,192,12207,1,2,0:0:0:0:
448,192,12207,1,0,0:0:0:0:
192,192,12361,1,2,0:0:0:0:
448,192,12361,1,0,0:0:0:0:
64,192,12515,1,8,0:0:0:0:
192,192,12515,1,0,0:0:0:0:
320,192,12668,1,0,0:0:0:0:
64,192,12822,1,8,0:0:0:0:
192,192,12822,1,4,0:0:0:0:
448,192,12822,1,0,0:0:0:0:
320,192,12976,1,2,0:0:0:0:
64,192,13130,1,2,0:0:0:0:
192,192,13130,1,0,0:0:0:0:
64,192,13284,1,8,0:0:0:0:
320,192,13284,1,0,0:0:0:70:Crash 2.wav
448,192,13284,1,0,0:0:0:0:
192,192,13438,1,2,0:0:0:0:
320,192,13591,1,2,0:0:0:0:
448,192,13591,1,0,0:0:0:0:
64,192,13745,128,8,15284:0:0:0:0:
192,192,13745,1,4,0:0:0:0:
448,192,13745,1,0,0:0:0:0:
320,192,14976,1,0,0:0:0:0:
192,192,15284,1,2,0:0:0:0:
320,192,15284,1,4,0:0:0:0:
448,192,15284,1,0,0:0:0:0:
448,192,15438,1,2,0:0:0:0:
192,192,15591,1,0,0:0:0:0:
320,192,15745,1,0,0:0:0:0:
64,192,15899,1,0,0:0:0:0:
448,192,16053,1,0,0:0:0:0:
320,192,16207,1,0,0:0:0:0:
64,192,16361,1,2,0:0:0:0:
192,192,16515,1,0,0:0:0:0:
320,192,16668,1,2,0:0:0:0:
320,192,16822,1,2,0:0:0:0:
448,192,16976,1,0,0:0:0:0:
64,192,17130,1,0,0:0:0:0:
192,192,17284,1,0,0:0:0:0:
448,192,17438,1,0,0:0:0:0:
320,192,17591,1,0,0:0:0:0:
64,192,17745,1,2,0:0:0:0:
64,192,17899,1,2,0:0:0:0:
192,192,18053,1,0,0:0:0:0:
320,192,18207,1,0,0:0:0:0:
448,192,18361,1,0,0:0:0:0:
64,192,18515,1,0,0:0:0:0:
320,192,18668,1,0,0:0:0:0:
192,192,18822,1,0,0:0:0:0:
448,192,18976,128,2,19284:0:0:0:0:
64,192,19130,1,0,0:0:0:0:
320,192,19284,1,0,0:0:0:0:
64,192,19438,128,2,19591:0:0:0:0:
448,192,19591,128,0,19745:0:0:0:0:
192,192,19745,128,2,19899:0:0:0:0:
320,192,19899,128,0,20053:0:0:0:0:
64,192,20053,128,0,20207:0:0:0:0:
448,192,20207,1,2,0:0:0:0:
448,192,20361,1,2,0:0:0:0:
192,192,20515,1,0,0:0:0:0:
64,192,20668,1,0,0:0:0:0:
320,192,20822,1,0,0:0:0:0:
448,192,20976,1,0,0:0:0:0:
64,192,21130,1,0,0:0:0:0:
320,192,21284,1,2,0:0:0:0:
192,192,21438,1,0,0:0:0:0:
448,192,21591,1,2,0:0:0:0:
448,192,21745,1,2,0:0:0:0:
192,192,21899,1,0,0:0:0:0:
64,192,22053,1,0,0:0:0:0:
448,192,22207,1,0,0:0:0:0:
320,192,22361,1,0,0:0:0:0:
192,192,22515,1,0,0:0:0:0:
64,192,22668,128,2,23130:0:0:0:0:
448,192,22822,1,2,0:0:0:0:
320,192,22976,1,0,0:0:0:0:
192,192,23130,1,0,0:0:0:0:
448,192,23284,128,0,23745:0:0:0:0:
64,192,23438,1,0,0:0:0:0:
192,192,23591,1,0,0:0:0:0:
320,192,23745,1,0,0:0:0:0:
64,192,23899,1,2,0:0:0:0:
192,192,23899,1,0,0:0:0:0:
320,192,24053,1,8,0:0:0:0:
448,192,24053,1,0,0:0:0:0:
320,192,24207,1,8,0:0:0:0:
448,192,24207,1,0,0:0:0:0:
64,192,24361,1,2,0:0:0:0:
448,192,24361,1,0,0:0:0:70:Crash 2.wav
320,192,24515,1,0,0:0:0:0:
64,192,24668,1,8,0:0:0:0:
192,192,24668,1,0,0:0:0:0:
64,192,24822,1,8,0:0:0:0:
192,192,24822,1,0,0:0:0:0:
320,192,24976,1,8,0:0:0:0:
192,192,25053,1,8,0:0:0:0:
64,192,25130,1,2,0:0:0:0:
320,192,25130,1,4,0:0:0:0:
448,192,25130,1,0,0:0:0:0:
192,192,25284,1,0,0:0:0:0:
64,192,25438,1,8,0:0:0:0:
448,192,25438,1,0,0:0:0:0:
320,192,25591,1,0,0:0:0:0:
192,192,25668,1,2,0:0:0:0:
64,192,25745,1,2,0:0:0:0:
448,192,25745,1,0,0:0:0:0:
320,192,25899,1,2,0:0:0:0:
64,192,26053,1,8,0:0:0:0:
192,192,26053,1,0,0:0:0:0:
320,192,26207,1,2,0:0:0:0:
64,192,26361,1,0,0:0:0:0:
448,192,26515,1,2,0:0:0:0:
64,192,26668,1,8,0:0:0:0:
320,192,26668,1,0,0:0:0:0:
192,192,26822,1,0,0:0:0:0:
320,192,26899,1,8,0:0:0:0:
64,192,26976,1,2,0:0:0:0:
448,192,26976,1,0,0:0:0:0:
192,192,27130,1,2,0:0:0:0:
320,192,27284,1,8,0:0:0:0:
448,192,27284,1,0,0:0:0:0:
64,192,27438,1,0,0:0:0:0:
192,192,27515,1,8,0:0:0:0:
64,192,27591,1,2,0:0:0:0:
320,192,27591,1,0,0:0:0:0:
448,192,27745,1,0,0:0:0:0:
192,192,27899,1,8,0:0:0:0:
320,192,27899,1,0,0:0:0:0:
64,192,28053,1,0,0:0:0:0:
192,192,28130,1,8,0:0:0:0:
320,192,28207,1,2,0:0:0:0:
448,192,28207,1,0,0:0:0:0:
64,192,28361,1,2,0:0:0:0:
192,192,28515,1,8,0:0:0:0:
320,192,28515,1,0,0:0:0:0:
448,192,28668,1,0,0:0:0:0:
64,192,28822,1,2,0:0:0:0:
192,192,28822,1,0,0:0:0:0:
320,192,28976,1,0,0:0:0:0:
64,192,29130,1,8,0:0:0:0:
448,192,29130,1,0,0:0:0:0:
320,192,29284,1,8,0:0:0:0:
192,192,29361,1,8,0:0:0:0:
64,192,29438,1,8,0:0:0:0:
448,192,29438,1,0,0:0:0:0:
192,192,29591,1,8,0:0:0:0:
448,192,29591,1,0,0:0:0:0:
192,192,29745,1,8,0:0:0:0:
320,192,29745,1,0,0:0:0:0:
64,192,29899,1,8,0:0:0:0:
320,192,29899,1,0,0:0:0:0:
64,192,30053,1,2,0:0:0:0:
192,192,30053,1,4,0:0:0:0:
448,192,30053,1,0,0:0:0:0:
64,192,30361,1,8,0:0:0:0:
448,192,30361,1,0,0:0:0:0:
320,192,30668,1,8,0:0:0:0:
448,192,30668,1,0,0:0:0:0:
192,192,30822,1,2,0:0:0:0:
448,192,30822,1,0,0:0:0:0:
64,192,30976,1,8,0:0:0:0:
320,192,30976,1,0,0:0:0:0:
64,192,31130,1,2,0:0:0:0:
192,192,31130,1,0,0:0:0:0:
320,192,31284,1,8,0:0:0:0:
448,192,31284,1,0,0:0:0:0:
192,192,31591,1,8,0:0:0:0:
320,192,31591,1,0,0:0:0:0:
64,192,31745,1,2,0:0:0:0:
320,192,31745,1,0,0:0:0:0:
192,192,31899,1,8,0:0:0:0:
448,192,31899,1,0,0:0:0:0:
320,192,32053,1,2,0:0:0:0:
448,192,32053,1,0,0:0:0:0:
64,192,32207,1,8,0:0:0:0:
192,192,32207,1,0,0:0:0:0:
192,192,32515,1,2,0:0:0:0:
320,192,32515,128,4,32822:0:0:0:0:
448,192,32515,1,0,0:0:0:0:
64,192,32822,1,8,0:0:0:0:
448,192,32822,1,0,0:0:0:0:
64,192,32976,1,0,0:0:0:0:
192,192,33053,1,8,0:0:0:0:
320,192,33130,1,2,0:0:0:0:
448,192,33130,1,0,0:0:0:0:
192,192,33284,1,2,0:0:0:0:
64,192,33438,128,8,33745:0:0:0:0:
448,192,33438,1,0,0:0:0:0:
192,192,33745,1,2,0:0:0:0:
320,192,33745,1,0,0:0:0:0:
64,192,33899,1,8,0:0:0:0:
448,192,33899,128,0,34207:0:0:0:70:Crash 2.wav
64,192,34207,1,8,0:0:0:0:
192,192,34207,1,0,0:0:0:0:
320,192,34361,1,8,0:0:0:0:
448,192,34361,1,0,0:0:0:0:
192,192,34515,1,0,0:0:0:70:Tom 1.wav
320,192,34668,1,0,0:0:0:70:Tom 2.wav
64,192,34822,128,2,35130:0:0:0:0:
448,192,34822,1,4,0:0:0:0:
320,192,35130,1,2,0:0:0:0:
320,192,35284,128,2,35591:0:0:0:0:
192,192,35591,1,8,0:0:0:0:
448,192,35591,1,0,0:0:0:0:
320,192,35899,1,0,0:0:0:0:
64,192,36053,1,2,0:0:0:0:
192,192,36053,128,0,36361:0:0:0:0:
448,192,36361,1,2,0:0:0:0:
448,192,36515,128,2,36822:0:0:0:0:
64,192,36822,1,8,0:0:0:0:
320,192,36822,1,0,0:0:0:0:
192,192,37130,1,0,0:0:0:0:
320,192,37284,1,2,0:0:0:0:
448,192,37284,128,0,37591:0:0:0:0:
64,192,37591,1,2,0:0:0:0:
64,192,37745,128,2,38053:0:0:0:0:
192,192,38053,1,8,0:0:0:0:
320,192,38053,1,0,0:0:0:0:
64,192,38361,1,0,0:0:0:0:
320,192,38515,1,8,0:0:0:0:
448,192,38515,1,0,0:0:0:0:
64,192,38668,1,2,0:0:0:0:
192,192,38668,1,0,0:0:0:70:Crash 2.wav
320,192,38822,1,0,0:0:0:0:
64,192,38976,1,8,0:0:0:0:
448,192,38976,1,0,0:0:0:0:
192,192,39130,1,0,0:0:0:70:Tom 1.wav
320,192,39284,1,0,0:0:0:70:Tom 2.wav
64,192,39438,1,0,0:0:0:70:Tom 3.wav
192,192,39591,1,0,0:0:0:70:tom04.wav
320,192,39745,1,2,0:0:0:0:
448,192,39745,128,4,40053:0:0:0:0:
192,192,40053,1,2,0:0:0:0:
192,192,40207,128,2,40515:0:0:0:0:
64,192,40515,1,8,0:0:0:0:
320,192,40515,1,0,0:0:0:0:
192,192,40822,1,0,0:0:0:0:
320,192,40976,128,2,41284:0:0:0:0:
448,192,40976,1,0,0:0:0:0:
64,192,41284,1,2,0:0:0:0:
64,192,41438,128,2,41745:0:0:0:0:
192,192,41745,1,8,0:0:0:0:
448,192,41745,1,0,0:0:0:0:
320,192,42053,1,0,0:0:0:0:
64,192,42207,128,2,42515:0:0:0:0:
192,192,42207,1,0,0:0:0:0:
448,192,42515,1,2,0:0:0:0:
448,192,42668,128,2,42976:0:0:0:0:
192,192,42976,1,8,0:0:0:0:
320,192,42976,1,0,0:0:0:0:
64,192,43284,1,2,0:0:0:0:
448,192,43284,1,0,0:0:0:0:
64,192,43591,1,8,0:0:0:0:
192,192,43591,1,0,0:0:0:0:
448,192,43591,1,0,0:0:0:0:
320,192,43745,128,0,44053:0:0:0:0:
192,192,44053,1,2,0:0:0:0:
448,192,44053,1,0,0:0:0:70:Crash 2.wav
192,192,44361,1,2,0:0:0:0:
320,192,44361,1,0,0:0:0:70:Crash 2.wav
64,192,44668,1,2,0:0:0:0:
320,192,44668,1,4,0:0:0:0:
448,192,44668,128,0,44976:0:0:0:0:
64,192,44976,1,2,0:0:0:0:
192,192,44976,1,0,0:0:0:0:
320,192,45130,1,8,0:0:0:0:
448,192,45130,1,0,0:0:0:0:
64,192,45284,1,0,0:0:0:0:
192,192,45361,1,8,0:0:0:0:
320,192,45438,1,2,0:0:0:0:
448,192,45438,1,0,0:0:0:0:
64,192,45591,1,2,0:0:0:0:
448,192,45591,1,0,0:0:0:0:
192,192,45745,1,8,0:0:0:0:
320,192,45745,1,0,0:0:0:0:
64,192,45899,128,2,46207:0:0:0:0:
192,192,45899,1,0,0:0:0:70:Crash 2.wav
448,192,45899,1,0,0:0:0:0:
320,192,46207,1,2,0:0:0:0:
448,192,46207,1,0,0:0:0:0:
64,192,46361,1,8,0:0:0:0:
192,192,46361,1,0,0:0:0:0:
448,192,46515,1,0,0:0:0:0:
320,192,46591,1,8,0:0:0:0:
64,192,46668,1,2,0:0:0:0:
192,192,46668,1,0,0:0:0:0:
64,192,46822,1,2,0:0:0:0:
448,192,46822,1,0,0:0:0:0:
320,192,46976,1,8,0:0:0:0:
448,192,46976,1,0,0:0:0:0:
192,192,47130,1,0,0:0:0:0:
64,192,47284,128,2,47591:0:0:0:0:
320,192,47284,1,4,0:0:0:0:
448,192,47284,1,0,0:0:0:0:
192,192,47591,1,8,0:0:0:0:
448,192,47591,128,0,47899:0:0:0:0:
64,192,47899,1,2,0:0:0:0:
192,192,47899,128,0,48207:0:0:0:0:
448,192,48053,1,2,0:0:0:0:
64,192,48207,1,8,0:0:0:0:
320,192,48207,128,0,48515:0:0:0:0:
64,192,48515,128,2,48822:0:0:0:0:
192,192,48515,1,4,0:0:0:0:
448,192,48515,1,0,0:0:0:0:
192,192,48822,1,8,0:0:0:0:
448,192,48822,1,0,0:0:0:0:
320,192,48976,1,2,0:0:0:0:
448,192,48976,1,0,0:0:0:0:
64,192,49130,1,8,0:0:0:0:
192,192,49130,1,0,0:0:0:0:
64,192,49284,1,2,0:0:0:0:
448,192,49284,1,0,0:0:0:0:
192,192,49438,1,8,0:0:0:0:
320,192,49438,1,0,0:0:0:0:
320,192,49591,1,0,0:0:0:0:
64,192,49745,1,2,0:0:0:0:
192,192,49745,1,4,0:0:0:0:
448,192,49745,1,0,0:0:0:0:
320,192,50053,1,0,0:0:0:0:
64,192,50207,1,2,0:0:0:0:
192,192,50207,1,0,0:0:0:0:
320,192,50361,1,8,0:0:0:0:
448,192,50361,1,0,0:0:0:70:Crash 2.wav
64,192,50668,1,2,0:0:0:0:
192,192,50668,1,0,0:0:0:0:
448,192,50822,1,8,0:0:0:0:
320,192,50899,1,8,0:0:0:0:
64,192,50976,1,2,0:0:0:0:
192,192,50976,1,0,0:0:0:0:
64,192,51130,1,8,0:0:0:0:
448,192,51130,1,0,0:0:0:0:
192,192,51438,1,2,0:0:0:0:
320,192,51438,1,0,0:0:0:0:
64,192,51591,1,8,0:0:0:0:
320,192,51591,1,0,0:0:0:0:
192,192,51899,1,2,0:0:0:0:
320,192,51899,1,0,0:0:0:0:
64,192,52207,1,8,0:0:0:0:
192,192,52207,1,4,0:0:0:0:
448,192,52207,1,0,0:0:0:0:
320,192,52361,1,2,0:0:0:0:
64,192,52515,1,2,0:0:0:0:
192,192,52515,1,0,0:0:0:0:
64,192,52668,1,8,0:0:0:0:
320,192,52668,1,0,0:0:0:70:Crash 2.wav
448,192,52668,1,0,0:0:0:0:
192,192,52822,1,2,0:0:0:0:
320,192,52976,1,2,0:0:0:0:
448,192,52976,1,0,0:0:0:0:
64,192,53130,1,8,0:0:0:0:
192,192,53130,1,4,0:0:0:0:
448,192,53130,1,0,0:0:0:0:
320,192,53284,1,2,0:0:0:0:
64,192,53438,1,8,0:0:0:0:
448,192,53438,1,0,0:0:0:0:
448,192,53591,1,2,0:0:0:0:
64,192,53745,1,8,0:0:0:0:
192,192,53745,1,0,0:0:0:0:
64,192,53899,1,2,0:0:0:0:
448,192,54053,1,8,0:0:0:0:
320,192,54130,1,8,0:0:0:0:
64,192,54207,1,0,0:0:0:70:Tom 1.wav
192,192,54284,1,0,0:0:0:70:Tom 1.wav
320,192,54361,1,0,0:0:0:70:Tom 2.wav
448,192,54438,1,0,0:0:0:70:Tom 2.wav
64,192,54515,1,0,0:0:0:70:Tom 3.wav
192,192,54591,1,0,0:0:0:70:Tom 3.wav
64,192,54668,1,2,0:0:0:0:
320,192,54668,1,4,0:0:0:0:
448,192,54668,1,0,0:0:0:0:
192,192,54822,1,0,0:0:0:0:
64,192,54976,1,8,0:0:0:0:
448,192,54976,1,0,0:0:0:0:
64,192,55130,1,2,0:0:0:0:
192,192,55130,1,0,0:0:0:0:
320,192,55284,1,0,0:0:0:0:
64,192,55438,1,2,0:0:0:0:
448,192,55438,1,0,0:0:0:0:
192,192,55591,1,8,0:0:0:0:
320,192,55591,1,0,0:0:0:0:
64,192,55745,1,0,0:0:0:0:
192,192,55822,1,8,0:0:0:0:
320,192,55899,1,2,0:0:0:0:
448,192,55899,1,0,0:0:0:0:
192,192,56053,1,2,0:0:0:0:
448,192,56053,1,0,0:0:0:0:
64,192,56207,1,8,0:0:0:0:
320,192,56207,1,0,0:0:0:0:
64,192,56361,1,2,0:0:0:0:
192,192,56361,1,0,0:0:0:0:
320,192,56515,1,0,0:0:0:0:
64,192,56668,1,2,0:0:0:0:
448,192,56668,1,0,0:0:0:0:
192,192,56822,1,8,0:0:0:0:
320,192,56822,1,0,0:0:0:0:
448,192,56976,1,0,0:0:0:0:
320,192,57053,1,8,0:0:0:0:
64,192,57130,1,2,0:0:0:0:
192,192,57130,1,0,0:0:0:0:
64,192,57284,1,2,0:0:0:0:
448,192,57284,1,0,0:0:0:0:
192,192,57438,1,8,0:0:0:0:
320,192,57438,1,0,0:0:0:0:
192,192,57591,1,2,0:0:0:0:
448,192,57591,1,0,0:0:0:0:
320,192,57745,1,0,0:0:0:0:
64,192,57899,1,2,0:0:0:0:
192,192,57899,1,0,0:0:0:0:
64,192,58053,1,8,0:0:0:0:
448,192,58053,1,0,0:0:0:0:
192,192,58207,1,2,0:0:0:0:
320,192,58207,128,4,58515:0:0:0:0:
448,192,58207,1,0,0:0:0:0:
64,192,58515,1,2,0:0:0:0:
192,192,58515,1,0,0:0:0:0:
320,192,58668,1,8,0:0:0:0:
448,192,58668,1,0,0:0:0:0:
192,192,58745,1,8,0:0:0:0:
64,192,58822,1,0,0:0:0:0:
320,192,58899,1,8,0:0:0:0:
192,192,58976,1,2,0:0:0:0:
448,192,58976,1,0,0:0:0:0:
64,192,59130,1,2,0:0:0:0:
320,192,59130,1,0,0:0:0:0:
64,192,59284,128,8,59591:0:0:0:0:
192,192,59284,1,0,0:0:0:70:Crash 2.wav
448,192,59284,1,0,0:0:0:0:
192,192,59591,1,2,0:0:0:0:
320,192,59591,1,4,0:0:0:0:
448,192,59591,1,0,0:0:0:0:
320,192,59745,1,0,0:0:0:0:
192,192,59899,1,8,0:0:0:0:
448,192,59899,1,0,0:0:0:0:
64,192,60053,1,0,0:0:0:0:
192,192,60130,1,8,0:0:0:0:
320,192,60207,1,2,0:0:0:0:
448,192,60207,1,0,0:0:0:0:
64,192,60361,1,2,0:0:0:0:
448,192,60361,1,0,0:0:0:0:
192,192,60515,1,8,0:0:0:0:
320,192,60515,1,0,0:0:0:0:
64,192,60668,1,2,0:0:0:0:
192,192,60668,128,4,60976:0:0:0:0:
448,192,60668,1,0,0:0:0:0:
320,192,60976,1,2,0:0:0:0:
448,192,60976,1,0,0:0:0:0:
64,192,61130,1,8,0:0:0:0:
320,192,61130,1,0,0:0:0:0:
192,192,61284,1,0,0:0:0:0:
320,192,61438,1,2,0:0:0:0:
448,192,61438,1,0,0:0:0:0:
64,192,61591,1,8,0:0:0:0:
192,192,61668,1,8,0:0:0:0:
320,192,61745,1,8,0:0:0:0:
448,192,61745,1,0,0:0:0:0:
64,192,61822,1,8,0:0:0:0:
192,192,61899,1,0,0:0:0:70:Tom 1.wav
320,192,61976,1,0,0:0:0:0:
64,192,62053,1,2,0:0:0:0:
192,192,62053,1,4,0:0:0:0:
448,192,62053,1,0,0:0:0:0:
192,192,62207,1,2,0:0:0:0:
320,192,62207,1,0,0:0:0:0:
64,192,62361,1,8,0:0:0:0:
448,192,62361,1,0,0:0:0:70:Crash 2.wav
64,192,62668,1,2,0:0:0:0:
192,192,62668,1,0,0:0:0:0:
320,192,62822,1,2,0:0:0:0:
448,192,62822,1,0,0:0:0:0:
64,192,62976,1,8,0:0:0:0:
448,192,62976,1,4,0:0:0:0:
64,192,63284,1,2,0:0:0:0:
192,192,63284,1,0,0:0:0:70:Crash 2.wav
448,192,63284,1,0,0:0:0:0:
320,192,63438,1,0,0:0:0:70:Tom 1.wav
64,192,63591,1,8,0:0:0:0:
320,192,63591,1,0,0:0:0:0:
448,192,63591,1,0,0:0:0:0:
64,192,63745,1,2,0:0:0:0:
192,192,63745,128,0,64053:0:0:0:70:Crash 2.wav
448,192,63745,1,0,0:0:0:0:
64,192,64053,1,2,0:0:0:0:
320,192,64053,128,4,64361:0:0:0:0:
448,192,64053,1,0,0:0:0:0:
64,192,64361,1,8,0:0:0:0:
192,192,64438,1,8,0:0:0:0:
64,192,64515,1,2,0:0:0:0:
320,192,64515,1,4,0:0:0:0:
448,192,64515,1,0,0:0:0:0:
192,192,64668,1,0,0:0:0:0:
64,192,64822,1,8,0:0:0:0:
448,192,64822,1,0,0:0:0:0:
320,192,64976,1,2,0:0:0:0:
448,192,64976,1,0,0:0:0:0:
192,192,65130,1,0,0:0:0:0:
64,192,65284,1,2,0:0:0:0:
320,192,65284,1,0,0:0:0:0:
192,192,65438,1,8,0:0:0:0:
320,192,65438,1,0,0:0:0:0:
448,192,65591,1,0,0:0:0:0:
320,192,65668,1,8,0:0:0:0:
64,192,65745,1,2,0:0:0:0:
192,192,65745,1,0,0:0:0:0:
320,192,65899,1,2,0:0:0:0:
448,192,65899,1,0,0:0:0:0:
64,192,66053,1,8,0:0:0:0:
448,192,66053,1,0,0:0:0:0:
64,192,66207,1,2,0:0:0:0:
192,192,66207,1,0,0:0:0:0:
320,192,66361,1,0,0:0:0:0:
192,192,66515,1,2,0:0:0:0:
448,192,66515,1,0,0:0:0:0:
192,192,66668,1,8,0:0:0:0:
320,192,66668,1,0,0:0:0:0:
448,192,66822,1,0,0:0:0:0:
320,192,66899,1,8,0:0:0:0:
64,192,66976,1,2,0:0:0:0:
192,192,66976,1,0,0:0:0:0:
320,192,67130,1,2,0:0:0:0:
448,192,67130,1,0,0:0:0:0:
64,192,67284,1,8,0:0:0:0:
192,192,67284,1,0,0:0:0:0:
64,192,67438,1,2,0:0:0:0:
448,192,67438,1,0,0:0:0:0:
320,192,67591,1,0,0:0:0:0:
64,192,67745,1,2,0:0:0:0:
192,192,67745,1,0,0:0:0:0:
64,192,67899,1,8,0:0:0:0:
320,192,67899,1,0,0:0:0:0:
192,192,68053,1,2,0:0:0:0:
320,192,68053,1,4,0:0:0:0:
448,192,68053,128,0,68361:0:0:0:0:
192,192,68361,1,2,0:0:0:0:
320,192,68361,1,0,0:0:0:0:
64,192,68515,1,8,0:0:0:0:
320,192,68515,1,0,0:0:0:0:
192,192,68668,1,0,0:0:0:0:
320,192,68822,1,8,0:0:0:0:
448,192,68822,1,0,0:0:0:0:
64,192,68976,128,2,69284:0:0:0:0:
192,192,68976,1,0,0:0:0:70:Crash 2.wav
192,192,69284,1,8,0:0:0:0:
320,192,69284,1,0,0:0:0:0:
64,192,69438,1,2,0:0:0:0:
320,192,69438,1,4,0:0:0:0:
448,192,69438,1,0,0:0:0:0:
192,192,69591,1,0,0:0:0:0:
64,192,69745,1,8,0:0:0:0:
448,192,69745,1,0,0:0:0:0:
320,192,69899,1,0,0:0:0:0:
64,192,70053,1,2,0:0:0:0:
192,192,70053,1,0,0:0:0:0:
320,192,70207,1,2,0:0:0:0:
448,192,70207,1,0,0:0:0:0:
64,192,70361,1,8,0:0:0:0:
448,192,70361,1,0,0:0:0:0:
192,192,70515,1,0,0:0:0:0:
320,192,70668,1,2,0:0:0:0:
448,192,70668,1,0,0:0:0:0:
192,192,70822,1,2,0:0:0:0:
448,192,70822,1,0,0:0:0:0:
64,192,70976,1,8,0:0:0:0:
192,192,70976,1,0,0:0:0:0:
320,192,71130,1,2,0:0:0:0:
448,192,71130,1,0,0:0:0:0:
192,192,71284,1,0,0:0:0:0:
64,192,71438,1,2,0:0:0:0:
320,192,71438,1,0,0:0:0:0:
64,192,71591,1,8,0:0:0:0:
448,192,71591,1,0,0:0:0:0:
192,192,71745,1,0,0:0:0:0:
64,192,71899,1,8,0:0:0:0:
320,192,71899,1,4,0:0:0:0:
448,192,71899,1,0,0:0:0:0:
192,192,72053,1,2,0:0:0:0:
192,192,72207,1,2,0:0:0:0:
64,192,72361,1,8,0:0:0:0:
320,192,72361,1,0,0:0:0:70:Crash 2.wav
448,192,72361,1,0,0:0:0:0:
320,192,72515,1,2,0:0:0:0:
192,192,72668,1,2,0:0:0:0:
192,192,72822,1,8,0:0:0:0:
320,192,72822,1,4,0:0:0:0:
448,192,72822,1,0,0:0:0:0:
64,192,72976,1,0,0:0:0:0:
64,192,73130,1,2,0:0:0:0:
192,192,73130,1,0,0:0:0:70:Crash 2.wav
320,192,73130,1,0,0:0:0:0:
448,192,73284,1,8,0:0:0:0:
320,192,73361,1,8,0:0:0:0:
64,192,73438,128,8,73745:0:0:0:0:
192,192,73438,1,0,0:0:0:0:
320,192,73591,1,0,0:0:0:70:Tom 1.wav
192,192,73745,128,0,74053:0:0:0:70:Tom 2.wav
448,192,73899,1,0,0:0:0:70:Tom 2.wav
320,192,74053,128,2,74361:0:0:0:0:
64,192,74207,1,0,0:0:0:0:
64,192,74361,1,2,0:0:0:0:
192,192,74361,1,4,0:0:0:0:
448,192,74361,1,0,0:0:0:0:
64,192,74668,1,2,0:0:0:0:
448,192,74668,1,0,0:0:0:0:
320,192,74822,1,2,0:0:0:0:
64,192,74976,1,8,0:0:0:0:
192,192,74976,1,0,0:0:0:0:
192,192,75284,1,2,0:0:0:0:
64,192,75591,1,8,0:0:0:0:
320,192,75591,1,0,0:0:0:70:Crash 2.wav
448,192,75591,1,0,0:0:0:0:
320,192,75899,1,2,0:0:0:0:
448,192,75899,1,0,0:0:0:0:
192,192,76053,1,2,0:0:0:0:
64,192,76207,1,8,0:0:0:0:
448,192,76207,1,0,0:0:0:0:
64,192,76515,1,2,0:0:0:0:
192,192,76822,1,8,0:0:0:0:
320,192,76822,1,4,0:0:0:0:
448,192,76822,1,0,0:0:0:0:
64,192,77130,1,2,0:0:0:0:
448,192,77130,1,0,0:0:0:0:
192,192,77284,1,2,0:0:0:0:
320,192,77438,1,8,0:0:0:0:
448,192,77438,1,0,0:0:0:0:
320,192,77745,1,2,0:0:0:0:
64,192,78053,1,8,0:0:0:0:
192,192,78053,1,0,0:0:0:70:Crash 2.wav
448,192,78053,1,0,0:0:0:0:
64,192,78361,1,2,0:0:0:0:
320,192,78361,128,0,78515:0:0:0:0:
192,192,78515,128,2,78668:0:0:0:0:
320,192,78668,1,8,0:0:0:0:
448,192,78668,128,0,78822:0:0:0:0:
64,192,78822,128,2,79130:0:0:0:0:
192,192,78822,1,0,0:0:0:0:
192,192,79130,1,8,0:0:0:0:
320,192,79207,1,8,0:0:0:0:
64,192,79284,1,2,0:0:0:0:
192,192,79284,1,4,0:0:0:0:
448,192,79284,1,0,0:0:0:0:
320,192,79438,1,0,0:0:0:0:
192,192,79591,1,8,0:0:0:0:
448,192,79591,1,0,0:0:0:0:
64,192,79745,1,0,0:0:0:0:
192,192,79822,1,8,0:0:0:0:
320,192,79899,1,2,0:0:0:0:
448,192,79899,1,0,0:0:0:0:
64,192,80053,1,2,0:0:0:0:
192,192,80053,1,0,0:0:0:0:
64,192,80207,1,8,0:0:0:0:
320,192,80207,1,0,0:0:0:0:
192,192,80361,1,2,0:0:0:0:
320,192,80361,1,4,0:0:0:0:
448,192,80361,128,0,80668:0:0:0:0:
64,192,80668,1,2,0:0:0:0:
192,192,80668,1,0,0:0:0:0:
320,192,80822,1,8,0:0:0:0:
448,192,80822,1,0,0:0:0:0:
320,192,80976,1,0,0:0:0:70:Tom 1.wav
192,192,81053,1,0,0:0:0:70:Tom 2.wav
64,192,81130,1,2,0:0:0:0:
448,192,81130,1,0,0:0:0:0:
320,192,81284,1,2,0:0:0:0:
448,192,81284,1,0,0:0:0:0:
64,192,81438,1,8,0:0:0:0:
192,192,81438,1,0,0:0:0:0:
320,192,81591,1,0,0:0:0:0:
64,192,81745,1,2,0:0:0:0:
192,192,81745,1,4,0:0:0:0:
448,192,81745,1,0,0:0:0:0:
320,192,81899,1,0,0:0:0:0:
64,192,82053,1,8,0:0:0:0:
448,192,82053,1,0,0:0:0:0:
192,192,82207,1,0,0:0:0:0:
64,192,82284,1,8,0:0:0:0:
320,192,82361,1,2,0:0:0:0:
448,192,82361,1,0,0:0:0:0:
64,192,82515,1,2,0:0:0:0:
192,192,82515,1,0,0:0:0:0:
192,192,82668,1,8,0:0:0:0:
448,192,82668,1,0,0:0:0:0:
64,192,82822,128,2,83130:0:0:0:0:
320,192,82822,1,4,0:0:0:0:
448,192,82822,1,0,0:0:0:0:
192,192,83130,1,2,0:0:0:0:
320,192,83130,1,0,0:0:0:0:
64,192,83284,1,8,0:0:0:0:
448,192,83284,1,0,0:0:0:0:
192,192,83438,1,2,0:0:0:0:
320,192,83438,1,0,0:0:0:0:
320,192,83591,1,8,0:0:0:0:
448,192,83591,1,0,0:0:0:0:
64,192,83745,1,2,0:0:0:0:
192,192,83745,1,0,0:0:0:0:
192,192,83899,1,8,0:0:0:0:
320,192,83899,1,0,0:0:0:0:
64,192,84053,1,2,0:0:0:0:
320,192,84053,1,4,0:0:0:0:
448,192,84053,128,0,84361:0:0:0:0:
192,192,84361,128,0,84515:0:0:0:0:
320,192,84515,128,8,84668:0:0:0:0:
448,192,84515,1,2,0:0:0:0:
64,192,84668,128,8,84822:0:0:0:0:
192,192,84822,1,8,0:0:0:0:
320,192,84822,1,2,0:0:0:0:
448,192,84976,128,8,85130:0:0:0:0:
64,192,85130,1,8,0:0:0:0:
320,192,85130,1,2,0:0:0:0:
192,192,85284,1,8,0:0:0:0:
320,192,85361,1,8,0:0:0:0:
64,192,85438,1,8,0:0:0:0:
448,192,85438,1,2,0:0:0:0:
192,192,85515,1,8,0:0:0:0:
320,192,85591,1,8,0:0:0:0:
192,192,85668,1,8,0:0:0:0:
64,192,85745,1,8,0:0:0:0:
448,192,85745,1,2,0:0:0:0:
320,192,85822,1,8,0:0:0:0:
192,192,85899,1,8,0:0:0:0:
320,192,85976,1,8,0:0:0:0:
64,192,86053,1,8,0:0:0:0:
448,192,86053,1,2,0:0:0:0:
192,192,86130,1,8,0:0:0:0:
320,192,86207,1,8,0:0:0:0:
448,192,86284,1,8,0:0:0:0:
64,192,86361,1,2,0:0:0:0:
192,192,86361,1,4,0:0:0:70:Crash 2.wav
320,192,86515,1,4,0:0:0:0:
448,192,86515,1,2,0:0:0:0:
64,192,86822,1,8,0:0:0:0:
448,192,86822,1,0,0:0:0:0:
64,192,86976,1,8,0:0:0:0:
448,192,86976,1,0,0:0:0:0:
192,192,87284,1,8,0:0:0:0:
320,192,87284,1,0,0:0:0:0:
64,192,87591,1,8,0:0:0:0:
448,192,87591,1,0,0:0:0:0:
64,192,87745,1,8,0:0:0:0:
448,192,87745,1,0,0:0:0:0:
