osu file format v14

[General]
AudioFilename: audio.mp3
AudioLeadIn: 0
PreviewTime: 54736
Countdown: 0
SampleSet: Soft
StackLeniency: 0.4
Mode: 0
LetterboxInBreaks: 0
WidescreenStoryboard: 0

[Editor]
Bookmarks: 660,5583,15429,25275,30198,34967,44813,49890,54813,74506,79429,87890
DistanceSpacing: 2
BeatDivisor: 2
GridSize: 4
TimelineZoom: 1.7

[Metadata]
Title:Resolution (TV Size)
TitleUnicode:Resolution (TV Size)
Artist:Tomatsu Haruka
ArtistUnicode:戸松遥
Creator:Sotarks
Version:Haruki's Normal
Source:ソードアート・オンライン アリシゼーション War of Underworld
Tags:Sword Art Online: Alicization 2nd Season III SAO 3 A-1 Pictures Serizawa Haruki Jack J_a_c_k Kowari Reform Kujinn SMOKELIND female japanese vocalist anime Kirito Asuna Alice Eugeo
BeatmapID:2195531
BeatmapSetID:1050479

[Difficulty]
HPDrainRate:3
CircleSize:3
OverallDifficulty:4
ApproachRate:5
SliderMultiplier:1
SliderTickRate:1

[Events]
//Background and Video events
0,0,"bg.jpg",0,0
Video,0,"video.mp4"
//Break Periods
//Storyboard Layer 0 (Background)
//Storyboard Layer 1 (Fail)
//Storyboard Layer 2 (Pass)
//Storyboard Layer 3 (Foreground)
//Storyboard Layer 4 (Overlay)
//Storyboard Sound Samples

[TimingPoints]
660,307.692307692308,4,2,22,42,1,0
4198,-100,4,2,22,52,0,0
5583,-100,4,2,22,62,0,0
13967,-100,4,2,22,42,0,0
25275,-100,4,2,22,52,0,0
44813,-100,4,2,22,62,0,0
49890,-100,4,2,22,52,0,0
53583,-100,4,2,22,62,0,0
54813,-100,4,2,22,72,0,1
74506,-100,4,2,22,72,0,0
84198,-100,4,2,22,62,0,0

[Colours]
Combo1 : 249,85,147
Combo2 : 253,120,0
Combo3 : 255,242,6

[HitObjects]
230,160,660,6,0,L|279:164,1,50,10|8,0:0|0:0,0:0:0:0:
280,164,1736,1,8,0:0:0:0:
338,246,2044,2,0,L|387:241,1,50,8|8,0:0|0:0,0:0:0:0:
388,241,3121,6,0,L|392:191,1,50,10|8,0:0|0:0,0:0:0:0:
440,103,3583,2,0,P|392:91|344:103,1,100,8|8,0:3|0:3,0:0:0:0:
301,124,4044,1,8,0:0:0:0:
301,124,4198,2,0,B|252:137|252:137|204:124,1,100,6|8,1:2|0:2,0:2:0:0:
160,114,4660,1,8,0:2:0:0:
160,114,4813,1,6,1:2:0:0:
60,123,5121,2,8,L|55:73,2,50,8|8|8,0:2|0:2|0:2,0:2:0:0:
64,173,5583,5,4,1:2:0:0:
73,272,5890,1,10,0:2:0:0:
158,325,6198,2,0,P|206:337|254:325,1,100,2|8,1:2|0:2,0:0:0:0:
298,300,6660,2,0,L|306:200,1,100,2|0,1:2|1:2,0:2:0:0:
311,150,7121,1,8,0:2:0:0:
402,107,7429,2,0,L|406:57,2,50,0|0|8,1:2|1:2|0:2,0:0:0:0:
484,165,8044,5,0,1:2:0:0:
475,264,8352,1,10,0:2:0:0:
389,315,8660,2,0,P|341:327|293:315,1,100,0|8,1:2|0:2,0:0:0:0:
203,270,9275,2,0,B|154:257|154:257|106:270,1,100,2|8,0:2|0:2,0:0:0:0:
62,286,9736,1,2,0:2:0:0:
62,286,9890,2,0,L|66:335,2,50,0|0|12,1:2|1:2|0:2,0:0:0:0:
53,187,10506,5,4,1:2:0:0:
135,129,10813,1,10,0:2:0:0:
226,172,11121,2,0,P|274:184|322:172,1,100,2|8,1:2|0:2,0:0:0:0:
367,150,11583,2,0,L|375:50,1,100,2|0,1:2|1:2,0:2:0:0:
380,0,12044,1,8,0:2:0:0:
480,9,12352,2,0,L|475:58,1,50,0|0,1:2|1:2,0:0:0:0:
471,109,12660,1,10,0:2:0:0:
512,200,12967,6,0,P|524:248|512:296,1,100,14|0,0:2|1:2,0:2:0:0:
480,335,13429,2,0,B|431:322|431:322|383:335,1,100,14|0,0:2|1:2,0:2:0:0:
337,354,13890,2,0,B|289:377|241:354|241:354|251:301|216:261|216:261|261:230|264:178|264:178|207:174|181:130,1,400,14|0,0:2|0:2,0:2:0:0:
134,40,15429,6,0,L|84:44,1,50,6|0,1:2|1:2,0:0:0:0:
0,169,16044,2,0,P|-12:217|0:265,1,100
30,305,16506,1,0,1:2:0:0:
130,314,16813,2,0,L|179:318,1,50,0|0,1:2|1:2,0:0:0:0:
237,236,17275,2,0,L|336:227,1,100,0|0,0:2|0:2,0:0:0:0:
436,218,17890,6,0,L|440:168,1,50,2|0,1:2|1:2,0:0:0:0:
445,118,18198,1,0,0:0:0:0:
357,70,18506,2,0,P|309:58|261:70,1,100
185,135,19121,2,0,P|173:183|185:231,1,100,2|0,1:2|0:2,0:2:0:0:
215,271,19583,1,0,1:2:0:0:
173,362,19890,2,0,L|123:366,1,50,0|0,1:2|0:3,0:2:0:0:
24,375,20352,6,0,L|28:325,1,50,2|0,1:2|1:2,0:0:0:0:
32,275,20660,1,0,0:0:0:0:
123,232,20967,2,0,L|114:132,1,100
109,82,21429,1,0,1:2:0:0:
209,73,21736,2,0,L|213:122,1,50,0|0,1:2|1:2,0:0:0:0:
299,175,22198,2,0,P|347:187|395:175,1,100,0|0,0:2|0:2,0:0:0:0:
480,122,22813,6,0,L|485:73,1,50,2|0,1:2|1:2,0:0:0:0:
489,22,23121,1,0,0:0:0:0:
390,31,23429,2,0,L|290:39,1,100,0|0,0:2|0:2,0:2:0:0:
300,140,24044,2,0,L|349:135,2,50,2|8|8,1:2|0:2|0:2,0:0:0:0:
250,144,24506,1,4,1:2:0:0:
150,153,24813,2,0,L|154:103,2,50,8|8|8,0:2|0:2|0:2,0:0:0:0:
116,190,25275,6,0,L|120:239,1,50,6|0,1:2|0:2,0:2:0:0:
129,339,25736,1,2,0:2:0:0:
220,382,26044,1,0,1:2:0:0:
278,300,26352,2,0,P|290:252|278:204,1,100,2|0,1:2|1:2,0:2:0:0:
254,160,26813,1,8,0:2:0:0:
262,61,27121,2,0,L|212:56,2,50,0|0|8,1:2|1:2|0:2,0:0:0:0:
306,34,27583,1,0,0:2:0:0:
306,34,27736,6,0,L|405:25,1,100,2|8,1:2|0:2,0:2:0:0:
455,20,28198,1,2,0:2:0:0:
512,102,28506,1,2,1:2:0:0:
474,197,28813,1,0,0:2:0:0:
474,197,28967,2,0,L|374:205,1,100,2|8,1:2|0:2,0:2:0:0:
324,210,29429,1,10,0:2:0:0:
266,128,29736,2,0,L|216:123,1,50,2|12,1:2|0:2,0:0:0:0:
116,114,30198,5,4,1:2:0:0:
159,205,30506,1,10,0:2:0:0:
101,287,30813,2,0,P|89:335|101:383,1,100,10|10,0:2|0:2,0:0:0:0:
189,335,31429,1,10,0:2:0:0:
280,378,31736,1,10,0:2:0:0:
361,320,32044,2,0,L|352:220,1,100,10|14,0:2|0:2,0:0:0:0:
344,121,32660,5,6,1:2:0:0:
261,177,32967,1,8,0:2:0:0:
176,123,33275,2,0,P|128:111|80:123,1,100,0|8,1:2|0:2,0:2:0:0:
0,181,33890,1,4,1:2:0:0:
0,181,34044,1,8,0:2:0:0:
42,272,34352,2,0,L|91:276,1,50,8|8,0:2|0:2,0:0:0:0:
129,310,34660,2,0,L|178:305,1,50,8|4,0:3|0:3,0:0:0:0:
228,300,34967,6,0,B|215:251|215:251|228:203,1,100,6|0,1:2|1:2,0:2:0:0:
240,154,35429,1,0,1:2:0:0:
324,101,35736,2,0,P|372:89|420:101,1,100,8|0,0:2|0:2,0:2:0:0:
462,129,36198,2,0,L|453:228,1,100,0|0,1:2|1:2,0:2:0:0:
448,279,36660,1,0,1:2:0:0:
496,366,36967,2,0,P|448:378|400:366,1,100,8|0,0:2|0:2,0:2:0:0:
356,342,37429,6,0,B|307:329|307:329|259:342,1,100,2|0,1:2|1:2,0:2:0:0:
211,354,37890,1,0,1:2:0:0:
120,311,38198,2,0,L|115:261,1,50,8|0,0:0|0:0,0:0:0:0:
107,162,38660,1,8,0:2:0:0:
193,108,38967,1,8,0:2:0:0:
193,108,39121,2,0,L|197:58,2,50,8|8|4,0:2|0:3|0:3,0:0:0:0:
293,137,39736,1,4,0:3:0:0:
293,137,39890,6,0,B|342:150|342:150|390:137,1,100,6|0,1:2|1:2,0:2:0:0:
438,124,40352,1,0,1:2:0:0:
495,206,40660,1,8,0:2:0:0:
432,342,41121,2,0,L|332:350,1,100,0|0,1:2|1:2,0:2:0:0:
282,355,41583,1,0,1:2:0:0:
183,364,41890,1,8,0:2:0:0:
221,219,42352,6,0,B|234:170|234:170|221:122,1,100,0|0,1:2|1:2,0:2:0:0:
208,74,42813,1,0,1:2:0:0:
108,65,43121,2,0,L|112:15,2,50,8|0|0,0:2|0:0|1:2,0:2:0:0:
51,147,43736,2,0,L|55:196,1,50,10|12,0:2|0:3,0:0:0:0:
65,296,44198,1,0,1:2:0:0:
156,339,44506,1,0,1:2:0:0:
237,281,44813,6,0,P|285:269|333:281,1,100,6|0,1:2|1:2,0:2:0:0:
377,305,45275,1,8,0:2:0:0:
471,266,45583,1,0,1:2:0:0:
471,266,45736,2,0,L|475:216,1,50,0|8,1:2|0:2,0:0:0:0:
445,175,46044,2,0,B|436:75,1,100,6|0,1:2|1:2,0:2:0:0:
431,25,46506,1,8,0:2:0:0:
331,34,46813,2,0,L|335:83,1,50,0|0,1:2|1:2,0:0:0:0:
339,134,47121,1,8,0:2:0:0:
348,234,47429,5,6,1:2:0:0:
445,256,47736,1,10,0:2:0:0:
496,170,48044,1,2,1:2:0:0:
431,95,48352,1,10,0:2:0:0:
339,134,48660,2,0,P|291:146|243:134,1,100,2|8,1:2|0:2,0:2:0:0:
202,106,49121,2,0,L|152:110,1,50,2|8,1:2|0:2,0:0:0:0:
113,142,49429,2,0,L|63:137,1,50,2|8,1:2|0:2,0:0:0:0:
55,236,49890,6,0,B|154:244|154:244|195:273,1,150,4|0,1:2|1:2,0:2:0:0:
234,306,50506,2,0,P|222:258|234:210,1,100,8|0,0:2|1:2,0:2:0:0:
305,138,51121,1,0,1:2:0:0:
305,138,51275,2,0,P|353:126|401:138,1,100,8|0,0:2|1:2,0:2:0:0:
442,167,51736,1,8,0:2:0:0:
451,267,52044,1,0,1:2:0:0:
370,325,52352,6,0,L|270:317,1,100,12|0,0:2|1:2,0:0:0:0:
220,312,52813,2,0,L|215:262,2,50,8|0|0,1:2|1:2|1:2,0:0:0:0:
224,362,53275,2,0,L|174:358,1,50,8|0,1:2|1:2,0:0:0:0:
124,353,53583,1,10,1:2:0:0:
42,295,53890,1,10,1:2:0:0:
50,196,54198,2,0,L|54:146,1,50,10|10,1:2|0:3,0:0:0:0:
86,107,54506,2,0,L|81:57,1,50,6|4,1:3|0:3,0:0:0:0:
76,7,54813,6,0,L|125:11,1,50,6|2,1:2|0:2,0:0:0:0:
226,20,55275,2,0,P|214:68|226:116,1,100,2|2,1:2|1:2,0:2:0:0:
255,156,55736,1,8,0:2:0:0:
246,255,56044,2,0,L|295:259,1,50,2|2,1:2|0:2,0:0:0:0:
396,268,56506,2,0,P|384:220|396:172,1,100,2|2,1:2|1:2,0:2:0:0:
425,132,56967,1,8,0:2:0:0:
417,33,57275,6,0,L|466:27,2,50,2|2|8,1:2|0:2|0:2,0:0:0:0:
367,37,57736,1,2,1:2:0:0:
285,95,58044,2,0,L|235:90,1,50,2|8,1:2|0:2,0:0:0:0:
185,86,58352,2,0,B|198:135|198:135|185:183,1,100,6|0,1:2|1:2,0:2:0:0:
172,231,58813,1,8,0:2:0:0:
230,314,59121,1,2,1:2:0:0:
329,304,59429,1,10,0:2:0:0:
371,214,59736,6,0,L|420:210,2,50,6|2|8,1:2|0:2|0:2,0:0:0:0:
318,135,60352,1,0,1:2:0:0:
318,135,60506,2,0,L|313:85,1,50,2|8,1:2|0:2,0:0:0:0:
342,45,60813,2,0,P|390:33|438:45,1,100,6|0,1:2|1:2,0:2:0:0:
480,72,61275,1,8,0:2:0:0:
492,175,61583,1,2,1:2:0:0:
492,175,61736,2,0,L|500:274,1,100,8|0,0:2|1:2,0:0:0:0:
505,325,62198,5,10,0:2:0:0:
408,299,62506,2,0,B|359:286|359:286|311:299,1,100,10|0,0:2|1:2,0:2:0:0:
266,314,62967,1,0,1:2:0:0:
266,314,63121,1,10,0:2:0:0:
215,228,63429,2,0,P|203:180|215:132,1,100,10|10,0:2|0:2,0:2:0:0:
247,94,63890,1,2,1:2:0:0:
165,36,64198,1,2,1:2:0:0:
78,83,64506,1,8,0:2:0:0:
78,83,64660,6,0,L|73:132,1,50,6|2,1:2|0:2,0:0:0:0:
16,214,65121,2,0,L|24:313,1,100,2|2,1:2|1:2,0:2:0:0:
29,364,65583,1,8,0:2:0:0:
128,355,65890,2,0,L|123:305,1,50,2|2,1:2|0:2,0:0:0:0:
166,214,66352,2,0,L|174:114,1,100,2|2,1:2|1:2,0:2:0:0:
179,64,66813,1,8,0:2:0:0:
279,73,67121,6,0,L|274:122,2,50,2|2|8,1:2|0:2|0:2,0:0:0:0:
283,23,67583,1,2,1:2:0:0:
383,14,67890,2,0,L|432:9,1,50,2|8,1:2|0:2,0:0:0:0:
476,35,68198,2,0,P|488:83|476:131,1,100,6|0,1:2|1:2,0:2:0:0:
445,171,68660,1,8,0:2:0:0:
352,200,68967,1,10,0:2:0:0:
352,200,69121,2,0,B|303:213|303:213|255:200,1,100,6|8,1:2|0:2,0:0:0:0:
206,187,69583,5,4,1:2:0:0:
214,88,69890,1,8,0:2:0:0:
262,0,70198,2,0,P|214:-12|166:0,1,100,2|8,1:2|0:2,0:0:0:0:
78,45,70813,2,0,L|73:-5,2,50,2|2|8,1:2|1:2|0:2,0:0:0:0:
82,95,71275,1,2,1:2:0:0:
0,152,71583,2,0,L|-5:201,1,50,2|8,1:2|0:2,0:2:0:0:
58,280,72044,6,0,P|106:292|154:280,1,100,12|2,0:2|1:2,0:0:0:0:
194,250,72506,2,0,L|293:258,1,100,10|0,0:2|1:2,0:0:0:0:
332,290,72967,2,0,L|431:282,1,100,8|0,0:2|1:2,0:0:0:0:
474,191,73583,1,2,1:2:0:0:
417,109,73890,1,10,1:2:0:0:
459,18,74198,1,6,0:3:0:0:
359,26,74506,6,0,L|259:35,1,100,14|0,0:2|1:2,0:2:0:0:
213,43,74967,1,0,1:2:0:0:
213,43,75121,2,0,P|225:91|213:139,1,100,8|0,0:2|1:2,0:2:0:0:
162,225,75736,2,0,B|149:274|149:274|162:322,1,100,14|0,0:2|1:2,0:2:0:0:
178,374,76198,1,0,1:2:0:0:
178,374,76352,2,0,L|78:365,1,100,8|0,0:2|1:2,0:2:0:0:
2,300,76967,6,0,P|-10:252|2:204,1,100,14|0,0:2|1:2,0:2:0:0:
31,164,77429,1,0,1:2:0:0:
31,164,77583,2,0,L|22:64,1,100,8|0,0:2|1:2,0:2:0:0:
104,7,78198,1,14,0:2:0:0:
195,50,78506,2,0,L|244:45,1,50,0|0,1:2|1:2,0:0:0:0:
280,10,78813,2,0,L|329:14,1,50,8|4,0:2|1:2,0:0:0:0:
410,84,79275,1,8,0:2:0:0:
410,84,79429,6,0,P|422:132|410:180,1,100,6|10,1:2|0:2,0:2:0:0:
380,220,79890,1,2,1:2:0:0:
281,229,80198,2,0,L|231:232,1,50,2|8,1:2|0:2,0:0:0:0:
193,200,80506,2,0,L|93:191,1,100,6|0,1:2|1:2,0:2:0:0:
44,187,80967,1,8,0:2:0:0:
36,286,81275,2,0,L|85:290,1,50,2|2,1:2|1:2,0:0:0:0:
136,294,81583,1,8,0:2:0:0:
178,384,81890,5,6,1:2:0:0:
277,375,82198,1,10,0:2:0:0:
323,288,82506,1,2,1:2:0:0:
323,288,82660,2,0,L|318:238,1,50,2|8,1:2|0:2,0:0:0:0:
286,200,82967,2,0,P|274:152|286:104,1,100,6|0,1:2|1:2,0:2:0:0:
314,62,83429,1,8,0:2:0:0:
414,71,83736,2,0,L|418:21,2,50,10|2|8,0:2|1:2|0:2,0:0:0:0:
446,110,84198,6,0,B|469:158|446:206|446:206|459:254,1,150,6|0,1:2|1:2,0:2:0:0:
472,303,84813,1,0,1:2:0:0:
382,346,85121,1,0,1:2:0:0:
300,288,85429,1,0,1:2:0:0:
308,189,85736,1,0,1:2:0:0:
226,131,86044,2,0,P|178:119|130:131,1,100,0|0,1:2|1:2,0:0:0:0:
90,159,86506,1,0,1:2:0:0:
90,159,86660,1,4,1:2:0:0:
99,258,86967,6,0,L|103:307,1,50,10|10,1:2|1:2,0:0:0:0:
195,350,87429,1,10,1:2:0:0:
276,292,87736,2,0,L|271:242,1,50,10|10,1:2|1:2,0:0:0:0:
