osu file format v14

[General]
AudioFilename: audio.mp3
AudioLeadIn: 0
PreviewTime: 54765
Countdown: 0
SampleSet: Soft
StackLeniency: 0.4
Mode: 0
LetterboxInBreaks: 0
WidescreenStoryboard: 1

[Editor]
Bookmarks: 86023
DistanceSpacing: 1
BeatDivisor: 8
GridSize: 32
TimelineZoom: 2.1

[Metadata]
Title:Resolution (TV Size)
TitleUnicode:Resolution (TV Size)
Artist:Tomatsu Haruka
ArtistUnicode:戸松遥
Creator:Doormat
Version:Haruto's Red Rose
Source:ソードアート・オンライン アリシゼーション War of Underworld
Tags:Kibbleru Kyle73 Winnie Kocari Haruto Haruto_Aizawa sword art online sao alicization season three 3 kirito asuna eugeo alice opening
BeatmapID:2195344
BeatmapSetID:1050419

[Difficulty]
HPDrainRate:6
CircleSize:4.1
OverallDifficulty:8.8
ApproachRate:9.3
SliderMultiplier:1.65
SliderTickRate:1

[Events]
//Background and Video events
0,0,"asuna.png",0,0
Video,0,"resolution.mp4"
//Break Periods
//Storyboard Layer 0 (Background)
//Storyboard Layer 1 (Fail)
//Storyboard Layer 2 (Pass)
//Storyboard Layer 3 (Foreground)
//Storyboard Layer 4 (Overlay)
//Storyboard Sound Samples

[TimingPoints]
650,307.692307692308,4,2,1,60,1,0
5573,-100,4,2,1,60,0,0
13880,-250,4,2,1,60,0,0
13957,-250,4,2,1,60,0,0
14803,-250,4,2,1,5,0,0
14957,-250,4,2,1,30,0,0
15342,-250,4,2,1,20,0,0
15419,-142.857142857143,4,2,1,40,0,0
17573,-200,4,2,1,40,0,0
18034,-142.857142857143,4,2,1,40,0,0
23726,-100,4,2,1,40,0,0
24034,-100,4,2,1,40,0,0
24496,-100,4,2,1,50,0,0
25265,-100,4,2,1,60,0,0
29880,-83.3333333333333,4,2,1,60,0,0
30188,-100,4,2,1,60,0,0
34957,-125,4,2,1,50,0,0
43419,-83.3333333333333,4,2,1,50,0,0
43726,-100,4,2,1,50,0,0
44803,-100,4,2,1,60,0,0
47111,-83.3333333333333,4,2,1,60,0,0
47419,-100,4,2,1,60,0,0
49880,-125,4,2,1,50,0,0
51111,-125,4,2,1,60,0,0
52342,-100,4,2,1,80,0,0
52650,-100,4,2,1,80,0,0
52957,-100,4,2,1,80,0,0
53265,-100,4,2,1,80,0,0
53573,-100,4,2,1,80,0,0
54803,-100,4,2,1,80,0,1
62188,-100,4,2,1,80,0,1
64188,-90.9090909090909,4,2,1,80,0,1
64573,-100,4,2,1,80,0,0
64650,-100,4,2,1,80,0,1
69573,-100,4,2,1,70,0,1
74496,-125,4,2,1,50,0,0
79419,-100,4,2,1,70,0,0
84188,-100,4,2,1,70,0,0
85265,-71.4285714285714,4,2,1,70,0,0
86957,-71.4285714285714,4,2,1,80,0,0

[Colours]
Combo1 : 45,100,180
Combo2 : 250,230,0
Combo3 : 150,185,230
Combo4 : 240,200,20

[HitObjects]
129,80,496,5,0,0:0:0:0:
135,98,650,5,8,1:2:0:0:
257,231,803,2,0,P|311:221|357:213,1,82.5,8|0,1:2|0:0,0:0:0:0:
103,316,1111,2,0,P|145:284|164:168,1,165,0|0,0:0|0:0,0:0:0:0:
135,98,1573,1,0,0:0:0:0:
82,217,1726,6,0,P|41:224|0:231,1,82.5,8|0,1:2|0:0,0:0:0:0:
239,118,2034,1,8,1:2:0:0:
239,118,2188,6,0,P|279:110|320:103,1,82.5,8|0,1:2|0:0,0:0:0:0:
14,15,2496,5,0,3:0:0:0:
39,46,2572,1,0,3:0:0:0:
44,86,2650,2,0,P|50:105|51:126,1,41.25,0|0,3:0|3:0,0:0:0:0:
135,250,2803,2,0,P|160:218|167:177,1,82.5,0|0,3:0|0:0,0:0:0:0:
239,118,3111,5,8,1:2:0:0:
82,327,3265,1,8,1:2:0:0:
82,327,3419,1,0,0:0:0:0:
239,118,3573,6,0,L|249:200,1,82.5,8|0,0:3|0:0,0:0:0:0:
239,118,3880,1,8,0:3:0:0:
449,325,4034,1,8,0:0:0:0:
385,263,4188,6,0,B|310:246|301:300|223:286,1,165,4|8,1:2|1:2,0:0:0:0:
225,286,4650,1,8,1:2:0:0:
470,233,4803,2,0,B|482:193|482:193|470:151,1,82.5,4|0,1:2|1:0,0:0:0:0:
357,346,5111,5,8,3:0:0:0:
318,358,5187,1,8,3:0:0:0:
277,351,5264,1,8,3:0:0:0:
245,326,5341,1,8,3:0:0:0:
225,286,5419,2,0,L|233:235,1,41.25,8|8,3:0|3:0,0:0:0:0:
297,3,5573,6,0,B|306:70|306:70|330:91|330:91|342:160,2,165,4|8|0,1:2|0:0|1:0,0:0:0:0:
341,155,6342,1,0,1:0:0:0:
405,36,6496,1,8,0:0:0:0:
223,97,6650,6,0,P|166:107|97:28,1,165,0|0,1:0|1:0,0:0:0:0:
97,35,7111,1,8,0:0:0:0:
259,171,7265,1,0,1:0:0:0:
60,243,7419,2,0,P|109:226|150:209,1,82.5,0|0,0:0|1:0,0:0:0:0:
303,37,7726,2,0,P|265:22|225:9,1,82.5,8|0,0:0|0:0,0:0:0:0:
259,171,8034,6,0,B|235:264|297:237|271:330,2,165,0|8|0,1:0|0:0|1:0,0:0:0:0:
258,171,8803,1,0,1:0:0:0:
197,379,8957,1,8,0:0:0:0:
359,277,9111,1,0,1:0:0:0:
173,145,9265,6,0,P|167:93|159:54,1,82.5,0|0,0:0|1:0,0:0:0:0:
359,277,9573,2,0,P|365:225|373:186,1,82.5,8|0,0:0|0:0,0:0:0:0:
419,120,9880,5,0,1:0:0:0:
413,363,10034,1,0,1:0:0:0:
275,162,10188,1,12,0:0:0:0:
504,244,10342,1,0,0:0:0:0:
271,312,10496,6,0,B|196:295|187:349|109:335,2,165,4|8|0,1:2|0:0|1:0,0:0:0:0:
271,312,11265,1,0,1:0:0:0:
136,244,11419,1,8,0:0:0:0:
13,383,11573,2,0,P|24:336|28:291,1,82.5,0|0,1:0|0:0,0:0:0:0:
143,80,11880,5,0,1:0:0:0:
136,244,12034,2,0,P|125:197|121:152,1,82.5,8|0,0:0|0:0,0:0:0:0:
170,0,12342,1,0,1:0:0:0:
58,105,12496,1,0,1:0:0:0:
207,143,12650,5,8,0:0:0:0:
143,80,12803,5,0,0:0:0:0:
450,234,12957,5,12,1:2:0:0:
292,118,13111,1,0,1:2:0:0:
271,312,13265,1,0,1:2:0:0:
361,237,13419,5,12,1:2:0:0:
333,195,13573,1,0,1:2:0:0:
311,239,13727,1,0,1:2:0:0:
335,224,13880,6,0,P|237:210|185:385,1,313.5,12|0,1:2|0:0,0:0:0:0:
183,382,15419,1,6,1:2:0:0:
270,311,15573,6,0,L|336:304,1,57.7499982376099,2|2,1:2|0:3,0:0:0:0:
292,118,15880,2,0,P|314:155|331:233,1,115.49999647522,2|2,0:2|0:2,0:0:0:0:
292,118,16342,1,2,0:3:0:0:
392,367,16496,6,0,P|405:346|413:307,1,57.7499982376099,2|0,1:2|0:0,0:0:0:0:
230,207,16803,1,0,1:0:0:0:
230,207,16957,2,0,P|216:186|185:162,1,57.7499982376099,2|0,1:3|0:0,0:0:0:0:
390,124,17265,2,0,P|395:100|389:60,1,57.7499982376099,2|0,0:3|0:0,0:0:0:0:
323,200,17573,6,0,L|333:263,1,61.875,2|0,0:3|0:0,0:0:0:0:
336,277,17880,5,2,1:2:0:0:
277,342,18034,2,0,B|223:331|215:368|163:355,2,115.49999647522,2|2|2,1:2|0:2|0:2,0:0:0:0:
277,342,18803,1,2,0:3:0:0:
501,284,18957,1,2,0:2:0:0:
501,284,19111,6,0,P|467:237|394:234,1,115.49999647522,2|2,1:2|0:2,0:0:0:0:
177,195,19573,2,0,P|211:148|284:145,1,115.49999647522,2|2,1:2|1:2,0:0:0:0:
331,84,20034,2,0,B|323:57|323:57|329:28,1,57.7499982376099,0|0,0:0|0:0,0:0:0:0:
345,167,20342,5,2,1:2:0:0:
345,167,20496,2,0,B|352:193|352:193|346:222,1,57.7499982376099,2|2,1:2|0:3,0:0:0:0:
465,98,20803,2,0,P|432:108|400:116,1,57.7499982376099,2|2,0:2|0:3,0:0:0:0:
208,227,21111,2,0,P|235:234|263:242,1,57.7499982376099,2|2,0:2|0:3,0:0:0:0:
432,384,21419,6,0,B|448:318|412:333|423:266,1,115.49999647522,2|0,1:2|1:0,0:0:0:0:
350,355,21880,2,0,P|322:335|282:337,1,57.7499982376099,2|0,1:3|0:0,0:0:0:0:
508,279,22188,2,0,P|520:232|505:166,1,115.49999647522,2|2,0:3|0:3,0:0:0:0:
508,279,22650,1,2,0:0:0:0:
367,208,22803,5,2,1:2:0:0:
367,208,22957,2,0,L|244:184,1,115.49999647522,0|2,1:0|0:2,0:0:0:0:
206,116,23419,2,0,P|217:81|222:55,1,57.7499982376099,2|0,0:2|0:0,0:0:0:0:
287,279,23726,2,0,P|276:314|266:366,1,82.5,0|2,0:0|0:0,0:0:0:0:
367,208,24034,5,2,1:3:0:0:
367,208,24188,1,2,1:3:0:0:
115,131,24342,1,2,1:3:0:0:
358,340,24496,2,0,P|422:341|465:292,1,123.75,8|0,1:2|0:0,0:0:0:0:
469,282,24803,5,2,1:3:0:0:
451,175,24957,5,2,1:3:0:0:
429,46,25111,5,0,3:0:0:0:
425,27,25188,5,0,3:0:0:0:
421,8,25265,6,0,B|356:28|356:28|340:55|340:55|278:78,1,165,6|8,1:2|0:0,0:0:0:0:
93,215,25726,2,0,P|120:169|120:120,1,82.5,2|0,3:2|1:0,0:0:0:0:
93,215,26034,1,2,1:2:0:0:
92,9,26188,1,8,0:0:0:0:
162,52,26342,6,0,P|211:119|211:197,1,165,2|0,1:2|1:0,0:0:0:0:
275,257,26803,2,0,B|311:238|311:238|352:248,1,82.5,8|0,0:0|0:0,0:0:0:0:
127,144,27111,2,0,B|91:163|91:163|50:153,1,82.5,0|0,1:0|1:0,0:0:0:0:
265,0,27419,1,8,0:0:0:0:
171,355,27573,5,2,0:2:0:0:
171,355,27726,1,2,1:2:0:0:
160,274,27880,6,0,L|172:359,1,82.5,0|10,0:0|0:2,0:0:0:0:
210,198,28188,1,2,3:2:0:0:
210,198,28265,1,0,3:0:0:0:
210,198,28342,1,0,1:0:0:0:
75,285,28496,1,2,1:2:0:0:
258,377,28650,1,8,0:0:0:0:
127,144,28803,5,2,0:2:0:0:
275,257,28957,2,0,P|314:246|355:238,1,82.5,2|0,1:2|1:0,0:0:0:0:
86,365,29265,1,8,0:0:0:0:
271,135,29419,1,0,3:0:0:0:
281,119,29496,1,0,3:0:0:0:
283,103,29573,2,0,L|274:60,1,41.25,8|0,1:3|3:0,0:0:0:0:
346,1,29726,2,0,L|355:44,1,41.25,8|0,1:3|3:0,0:0:0:0:
210,198,29880,6,0,B|150:179|150:179|136:155|136:155|80:134,1,148.49999546814,4|0,1:3|0:0,0:0:0:0:
81,135,30188,6,0,P|95:88|101:51,1,82.5,4|0,1:2|0:0,0:0:0:0:
36,11,30496,1,8,1:2:0:0:
83,268,30650,1,0,1:0:0:0:
235,90,30803,5,8,1:2:0:0:
210,198,30957,1,0,1:0:0:0:
317,159,31111,5,8,1:2:0:0:
321,181,31265,1,0,1:0:0:0:
404,160,31419,6,0,P|446:155|489:168,1,82.5,8|0,1:2|1:0,0:0:0:0:
235,90,31726,2,0,P|193:95|150:82,1,82.5,8|0,1:2|1:0,0:0:0:0:
268,344,32034,6,0,P|277:291|282:259,1,82.5,8|0,1:2|1:0,0:0:0:0:
346,4,32342,2,0,P|352:44|359:85,1,82.5,8|0,1:2|1:0,0:0:0:0:
190,289,32650,6,0,P|121:291|82:210,1,165,12|8,1:2|1:2,0:0:0:0:
0,376,33111,1,0,3:0:0:0:
0,376,33188,1,0,3:0:0:0:
0,376,33265,2,0,B|35:352|35:352|74:362,1,82.5,8|0,1:2|1:0,0:0:0:0:
227,148,33573,2,0,B|192:172|192:172|153:162,1,82.5,8|0,1:2|0:0,0:0:0:0:
74,127,33880,5,0,1:0:0:0:
368,257,34034,2,0,P|419:258|449:197,1,123.75,8|0,1:2|0:0,0:0:0:0:
445,184,34342,5,0,1:0:0:0:
421,95,34496,1,8,1:3:0:0:
383,13,34650,5,4,1:3:0:0:
345,149,34804,5,4,1:3:0:0:
300,312,34957,6,0,B|240:301|233:346|169:333,1,132,4|0,1:2|1:0,0:0:0:0:
114,276,35419,1,0,1:0:0:0:
114,276,35726,2,0,L|134:133,1,132,10|0,1:0|0:0,0:0:0:0:
304,336,36188,6,0,L|284:193,1,132,0|0,1:0|1:0,0:0:0:0:
345,149,36650,1,0,1:0:0:0:
345,149,36957,2,0,P|394:184|464:179,1,132,10|0,1:0|0:0,0:0:0:0:
306,73,37419,6,0,P|257:38|187:43,1,132,0|0,1:0|1:0,0:0:0:0:
123,98,37880,1,0,1:0:0:0:
127,102,38188,2,0,B|154:162|154:162|136:229,1,132,10|0,1:0|0:0,0:0:0:0:
136,225,38650,1,8,3:0:0:0:
136,225,38803,1,4,1:2:0:0:
43,378,38957,5,0,1:0:0:0:
27,162,39111,1,8,0:0:0:0:
136,225,39265,5,8,0:3:0:0:
124,314,39419,1,4,0:3:0:0:
236,284,39573,5,4,0:3:0:0:
233,263,39726,1,4,0:3:0:0:
303,209,39880,6,0,P|357:206|409:277,1,132,4|0,1:2|1:0,0:0:0:0:
197,384,40342,1,0,1:0:0:0:
197,384,40650,6,0,B|206:331|206:331|225:315|225:315|232:261,1,132,10|0,1:0|0:0,0:0:0:0:
165,213,41111,2,0,P|131:220|97:223,1,66,0|2,1:0|0:3,0:0:0:0:
309,345,41419,1,0,1:0:0:0:
309,345,41573,2,0,P|343:352|377:355,1,66,0|0,1:0|0:0,0:0:0:0:
232,152,41880,1,10,1:0:0:0:
232,152,42034,2,0,L|221:48,1,99,0|0,0:0|0:0,0:0:0:0:
220,35,42342,6,0,P|270:32|321:99,1,132,0|0,1:0|1:0,0:0:0:0:
64,268,42803,2,0,P|114:271|165:204,1,132,0|10,1:0|1:0,0:0:0:0:
112,144,43265,1,0,0:0:0:0:
309,344,43419,2,0,B|292:255|350:289|333:196,1,148.49999546814,0|0,1:0|0:0,0:0:0:0:
333,188,43726,6,0,L|417:201,1,82.5,4|8,1:2|3:0,0:0:0:0:
423,202,43957,1,8,3:0:0:0:
434,204,44034,1,8,3:0:0:0:
229,307,44188,6,0,L|147:319,1,82.5,4|0,1:2|0:0,0:0:0:0:
333,188,44496,2,0,L|414:175,1,82.5,4|0,1:2|0:0,0:0:0:0:
233,92,44803,6,0,B|168:72|168:72|152:45|152:45|90:22,1,165,6|2,1:2|1:2,0:0:0:0:
90,246,45265,2,0,P|108:201|117:156,1,82.5,10|2,0:2|3:2,0:0:0:0:
118,157,45496,1,0,3:0:0:0:
119,148,45573,1,2,1:2:0:0:
351,19,45726,2,0,P|335:57|325:97,1,82.5,2|8,1:2|0:0,0:0:0:0:
210,261,46034,6,0,P|262:189|349:196,1,165,6|2,1:2|1:2,0:0:0:0:
392,352,46496,2,0,B|379:313|379:313|390:270,1,82.5,10|2,0:2|3:2,0:0:0:0:
393,263,46726,1,0,3:0:0:0:
396,254,46803,1,2,1:2:0:0:
422,173,46957,1,2,1:2:0:0:
286,334,47111,2,0,B|215:319|208:369|142:356,1,148.49999546814,8|0,0:0|0:0,0:0:0:0:
126,348,47419,5,6,1:2:0:0:
107,271,47573,1,0,0:0:0:0:
47,370,47726,5,10,0:2:0:0:
88,194,47880,1,0,3:0:0:0:
88,194,47957,1,0,3:0:0:0:
88,194,48034,1,2,1:2:0:0:
18,142,48188,1,0,1:0:0:0:
186,251,48342,6,0,P|233:242|275:235,1,82.5,10|0,0:2|0:0,0:0:0:0:
28,290,48650,1,6,1:2:0:0:
28,290,48957,5,8,0:0:0:0:
88,13,49111,1,2,1:2:0:0:
186,251,49265,5,8,0:0:0:0:
156,115,49419,1,2,1:2:0:0:
251,176,49573,5,12,0:0:0:0:
257,151,49727,1,0,0:0:0:0:
356,115,49880,6,0,P|412:126|488:141,1,132,4|0,1:2|0:0,0:0:0:0:
356,115,50342,1,0,1:0:0:0:
292,299,50496,2,0,P|316:268|319:230,1,66,8|0,0:0|0:0,0:0:0:0:
222,119,50803,2,0,P|246:150|249:188,1,66,0|0,1:0|0:0,0:0:0:0:
186,232,51111,5,0,1:0:0:0:
186,232,51265,2,0,B|122:218|116:263|57:251,1,132,8|0,0:0|1:0,0:0:0:0:
356,115,51726,2,0,B|413:103|420:148|483:134,1,132,8|0,0:0|1:0,0:0:0:0:
483,134,52188,1,0,0:0:0:0:
243,44,52342,1,4,1:2:0:0:
243,44,52650,5,0,1:0:0:0:
282,297,52803,1,12,1:2:0:0:
483,134,52957,1,0,1:0:0:0:
125,245,53111,5,0,1:0:0:0:
420,359,53264,1,12,1:2:0:0:
372,45,53418,1,0,1:0:0:0:
293,207,53573,6,0,P|288:168|279:113,1,82.5,12|0,1:2|1:0,0:0:0:0:
420,359,53880,2,0,P|425:320|434:265,1,82.5,12|0,1:2|1:0,0:0:0:0:
389,199,54188,1,8,3:0:0:0:
356,193,54264,1,8,3:0:0:0:
323,195,54341,1,8,3:0:0:0:
293,207,54418,1,8,3:0:0:0:
266,227,54495,5,8,3:0:0:0:
242,249,54572,1,8,3:0:0:0:
216,269,54649,1,8,3:0:0:0:
186,281,54726,1,8,3:0:0:0:
153,283,54803,5,6,1:2:0:0:
16,86,54957,2,0,L|113:104,1,82.5,2|8,0:0|0:0,0:0:0:0:
170,186,55265,6,0,P|186:130|169:13,1,165,2|2,1:2|1:2,0:0:0:0:
337,352,55726,2,0,P|334:310|345:271,1,82.5,8|0,0:0|3:0,0:0:0:0:
388,190,55957,5,0,3:0:0:0:
394,207,56034,1,2,1:2:0:0:
428,280,56188,1,2,1:2:0:0:
486,58,56342,5,8,0:0:0:0:
337,352,56496,2,0,P|292:346|246:340,1,82.5,2|0,1:2|0:0,0:0:0:0:
478,209,56803,5,2,1:2:0:0:
298,171,56957,5,8,0:0:0:0:
81,125,57111,5,0,3:0:0:0:
81,125,57188,1,0,3:0:0:0:
81,125,57265,1,2,1:2:0:0:
134,327,57419,1,2,1:2:0:0:
149,236,57573,5,8,0:0:0:0:
149,236,57726,2,0,P|108:236|72:255,1,82.5,2|0,1:2|0:0,0:0:0:0:
178,148,58034,2,0,P|198:112|200:71,1,82.5,2|8,1:2|0:0,0:0:0:0:
242,216,58342,6,0,P|318:240|356:311,1,165,6|0,1:2|1:0,0:0:0:0:
304,384,58803,1,8,0:0:0:0:
435,264,58957,1,0,3:0:0:0:
435,264,59034,1,0,3:0:0:0:
435,264,59111,2,0,L|421:182,1,82.5,2|0,1:2|1:0,0:0:0:0:
192,66,59419,2,0,L|178:148,1,82.5,10|0,0:2|0:0,0:0:0:0:
114,209,59726,5,6,1:2:0:0:
280,122,59880,2,0,P|335:117|377:107,1,82.5,0|8,0:0|0:0,0:0:0:0:
122,0,60188,1,2,3:2:0:0:
122,0,60265,1,0,3:0:0:0:
122,0,60342,1,2,1:2:0:0:
242,217,60496,1,2,1:2:0:0:
97,124,60650,1,8,0:0:0:0:
1,384,60803,6,0,B|-15:308|44:302|24:224,1,165,6|0,1:2|1:0,0:0:0:0:
9,140,61265,1,8,0:0:0:0:
204,368,61419,1,0,0:0:0:0:
204,368,61573,2,0,P|149:359|100:352,1,82.5,0|8,1:0|3:0,0:0:0:0:
109,352,61803,1,8,3:0:0:0:
94,349,61880,2,0,L|103:294,1,41.25,8|8,3:0|3:0,0:0:0:0:
154,239,62034,2,0,L|147:198,1,41.25,8|0,3:0|3:0,0:0:0:0:
97,124,62188,5,8,1:2:0:0:
204,368,62342,1,0,1:0:0:0:
204,368,62496,2,0,P|215:313|227:272,1,82.5,8|0,1:2|0:0,0:0:0:0:
390,27,62803,5,8,1:2:0:0:
304,222,62957,1,0,1:0:0:0:
304,222,63111,2,0,P|293:167|281:126,1,82.5,8|0,1:2|0:0,0:0:0:0:
125,36,63419,5,8,1:2:0:0:
381,163,63573,1,8,1:3:0:0:
143,321,63726,1,8,1:2:0:0:
143,321,63880,2,0,P|170:285|174:230,1,82.5,4|0,1:2|0:0,0:0:0:0:
231,172,64188,2,0,P|224:128|198:92,1,90.7500027694703,4|0,1:2|0:0,0:0:0:0:
348,314,64496,5,0,3:0:0:0:
348,314,64573,1,0,3:0:0:0:
348,314,64650,2,0,B|429:322|413:259|502:274,1,165,6|8,1:2|0:0,0:0:0:0:
302,86,65111,2,0,P|355:137|356:242,1,165,2|2,1:2|1:2,0:0:0:0:
238,323,65573,2,0,P|273:284|271:232,1,82.5,8|0,0:0|3:0,0:0:0:0:
231,172,65803,5,0,3:0:0:0:
226,193,65880,1,2,1:2:0:0:
277,255,66034,5,2,1:2:0:0:
167,121,66188,1,8,0:0:0:0:
348,314,66342,2,0,P|393:303|438:294,1,82.5,2|0,1:2|0:0,0:0:0:0:
157,242,66650,2,0,P|112:253|67:262,1,82.5,2|8,1:2|0:0,0:0:0:0:
305,122,66957,5,0,3:0:0:0:
305,122,67034,1,0,3:0:0:0:
305,122,67111,2,0,P|305:73|326:18,1,82.5,2|2,1:2|1:2,0:0:0:0:
471,114,67419,1,8,0:0:0:0:
471,114,67573,2,0,P|430:105|390:95,1,82.5,2|0,1:2|0:0,0:0:0:0:
237,223,67880,2,0,P|196:231|156:241,1,82.5,2|8,1:2|0:0,0:0:0:0:
347,339,68188,6,0,B|325:241|392:275|369:179,1,165,6|0,1:2|1:0,0:0:0:0:
305,122,68650,1,8,0:0:0:0:
437,307,68803,1,0,0:0:0:0:
512,39,68957,1,2,1:2:0:0:
237,223,69111,2,0,P|193:222|130:129,1,165,10|8,0:2|0:0,0:0:0:0:
347,339,69573,6,0,P|391:338|454:245,2,165,4|8|2,1:2|0:0|1:2,0:0:0:0:
322,254,70342,1,0,1:0:0:0:
193,380,70496,2,0,P|185:323|180:286,1,82.5,8|0,0:0|0:0,0:0:0:0:
350,85,70803,5,2,1:2:0:0:
322,254,70957,2,0,P|330:197|335:160,1,82.5,2|8,1:2|0:0,0:0:0:0:
492,155,71265,2,0,B|426:134|426:134|410:107|410:107|349:84,1,165,2|2,1:2|1:2,0:0:0:0:
181,298,71726,1,8,0:0:0:0:
181,298,71880,1,0,0:0:0:0:
268,116,72034,5,12,1:2:0:0:
443,358,72188,1,0,1:0:0:0:
181,298,72342,1,0,1:0:0:0:
349,84,72496,5,12,1:2:0:0:
301,378,72650,1,0,1:0:0:0:
70,189,72803,1,0,1:0:0:0:
322,254,72957,5,12,1:2:0:0:
62,374,73111,1,0,1:0:0:0:
204,45,73265,2,0,P|214:99|219:132,1,82.5,4|0,1:2|3:0,0:0:0:0:
322,254,73573,6,0,P|328:213|336:172,1,82.5,8|8,0:2|3:2,0:0:0:0:
417,137,73880,1,8,0:3:0:0:
236,212,74034,1,8,3:3:0:0:
404,305,74188,1,4,0:3:0:0:
336,365,74342,5,4,3:3:0:0:
336,365,74419,1,0,3:0:0:0:
336,365,74496,2,0,P|290:344|185:329,1,132,4|2,1:2|1:2,0:0:0:0:
210,328,74957,1,0,1:0:0:0:
152,263,75111,2,0,L|164:192,1,66,10|0,0:2|0:0,0:0:0:0:
88,383,75419,2,0,L|76:312,1,66,2|0,1:2|0:0,0:0:0:0:
221,126,75726,6,0,P|259:116|311:192,1,132,4|2,1:2|1:2,0:0:0:0:
221,126,76188,1,0,1:0:0:0:
366,247,76342,2,0,P|408:253|460:177,1,132,10|2,0:2|1:2,0:0:0:0:
460,190,76803,1,0,0:0:0:0:
336,365,76957,6,0,B|265:348|294:318|223:303,1,132,4|2,1:2|1:2,0:0:0:0:
140,334,77419,1,2,1:2:0:0:
280,168,77573,2,0,B|295:200|295:200|284:236,1,66,8|0,0:0|0:0,0:0:0:0:
365,142,77880,2,0,B|350:110|350:110|361:74,1,66,0|0,1:0|0:0,0:0:0:0:
304,13,78188,6,0,P|263:1|199:66,1,132,4|2,1:2|1:2,0:0:0:0:
200,54,78650,1,2,1:2:0:0:
259,245,78803,1,10,0:2:0:0:
300,381,78957,2,0,B|371:366|342:336|413:319,1,132,2|2,1:2|3:2,0:0:0:0:
432,318,79342,1,0,3:0:0:0:
455,324,79419,6,0,L|441:222,1,82.5,6|0,1:2|0:0,0:0:0:0:
200,54,79726,1,10,0:2:0:0:
349,218,79880,1,2,3:2:0:0:
349,218,79957,1,0,3:0:0:0:
349,218,80034,6,0,L|363:116,1,82.5,0|2,1:0|1:2,0:0:0:0:
423,75,80342,1,8,0:0:0:0:
222,302,80496,2,0,B|143:284|135:342|59:326,1,165,6|0,1:2|1:0,0:0:0:0:
283,376,80957,6,0,P|309:338|315:291,1,82.5,8|2,0:0|3:2,0:0:0:0:
315,289,81188,1,0,3:0:0:0:
313,277,81265,1,2,1:2:0:0:
213,134,81419,6,0,P|239:172|245:219,1,82.5,2|12,1:2|0:0,0:0:0:0:
79,372,81726,1,2,0:2:0:0:
222,302,81880,6,0,B|161:325|161:325|145:352|145:352|79:373,1,165,6|10,1:2|0:2,0:0:0:0:
340,193,82342,1,2,3:2:0:0:
340,193,82419,1,0,3:0:0:0:
340,193,82496,2,0,L|353:101,1,82.5,2|2,1:2|1:2,0:0:0:0:
351,111,82803,1,8,0:0:0:0:
512,354,82957,2,0,P|441:311|361:291,1,165,6|0,1:2|1:0,0:0:0:0:
79,372,83419,5,12,0:0:0:0:
111,54,83573,1,0,1:0:0:0:
222,302,83726,5,8,1:2:0:0:
182,132,83880,1,0,1:0:0:0:
269,196,84034,5,8,1:2:0:0:
270,180,84188,6,0,B|366:162|317:128|417:106,1,165,4|0,1:2|0:0,0:0:0:0:
143,231,84650,6,0,L|91:223,3,41.25,0|0|0|0,3:0|3:0|3:0|3:0,0:0:0:0:
222,302,84957,2,0,L|274:310,3,41.25,0|0|0|0,3:0|3:0|3:0|3:0,0:0:0:0:
100,384,85265,6,0,P|119:353|123:318,3,57.7499982376099,0|0|0|0,3:0|3:0|3:0|3:0,0:0:0:0:
247,201,85573,2,0,P|239:173|223:149,3,57.7499982376099,0|0|0|0,3:0|3:0|3:0|3:0,0:0:0:0:
85,222,85880,6,0,L|142:230,3,57.7499982376099,0|0|0|0,3:0|3:0|3:0|3:0,0:0:0:0:
62,197,86188,1,0,3:0:0:0:
46,160,86264,1,0,3:0:0:0:
48,120,86341,5,0,3:0:0:0:
83,73,86419,5,0,3:0:0:0:
138,57,86496,5,0,3:0:0:0:
310,283,86650,2,0,B|373:258|373:258|390:230|390:230|459:208,1,173.24999471283,0|0,1:2|0:0,0:0:0:0:
477,201,86957,5,8,1:2:0:0:
231,384,87111,1,8,1:2:0:0:
328,157,87419,5,8,1:2:0:0:
396,374,87726,5,8,1:2:0:0:
299,59,87880,1,8,1:2:0:0:
