osu file format v14

[General]
AudioFilename: audio.mp3
AudioLeadIn: 0
PreviewTime: 54765
Countdown: 0
SampleSet: Soft
StackLeniency: 0.5
Mode: 0
LetterboxInBreaks: 0
WidescreenStoryboard: 1

[Editor]
Bookmarks: 87715
DistanceSpacing: 1.4
BeatDivisor: 1
GridSize: 4
TimelineZoom: 1.6

[Metadata]
Title:Resolution (TV Size)
TitleUnicode:Resolution (TV Size)
Artist:Tomatsu Haruka
ArtistUnicode:戸松遥
Creator:Doormat
Version:Fragrant Olive
Source:ソードアート・オンライン アリシゼーション War of Underworld
Tags:Kibbleru Kyle73 Winnie Kocari Haruto Haruto_Aizawa sword art online sao alicization season three 3 kirito asuna eugeo alice opening
BeatmapID:2195342
BeatmapSetID:1050419

[Difficulty]
HPDrainRate:6
CircleSize:4
OverallDifficulty:9
ApproachRate:9.3
SliderMultiplier:1.7
SliderTickRate:1

[Events]
//Background and Video events
0,0,"asuna.png",0,0
Video,0,"resolution.mp4"
//Break Periods
//Storyboard Layer 0 (Background)
//Storyboard Layer 1 (Fail)
//Storyboard Layer 2 (Pass)
//Storyboard Layer 3 (Foreground)
//Storyboard Layer 4 (Overlay)
//Storyboard Sound Samples

[TimingPoints]
650,307.692307692308,4,2,1,60,1,0
650,-111.111111111111,4,2,1,60,0,0
5573,-100,4,2,1,60,0,0
14803,-100,4,2,1,5,0,0
14957,-100,4,2,1,30,0,0
15419,-166.666666666667,4,2,1,40,0,0
24496,-100,4,2,1,50,0,0
25265,-100,4,2,1,60,0,0
34957,-133.333333333333,4,2,1,50,0,0
35726,-333.333333333333,4,2,1,50,0,0
36188,-133.333333333333,4,2,1,50,0,0
36957,-333.333333333333,4,2,1,50,0,0
37419,-133.333333333333,4,2,1,50,0,0
38188,-333.333333333333,4,2,1,50,0,0
38650,-133.333333333333,4,2,1,50,0,0
40650,-333.333333333333,4,2,1,50,0,0
41111,-133.333333333333,4,2,1,50,0,0
41880,-333.333333333333,4,2,1,50,0,0
42342,-133.333333333333,4,2,1,50,0,0
43726,-133.333333333333,4,2,1,50,0,0
44803,-100,4,2,1,60,0,0
49880,-133.333333333333,4,2,1,50,0,0
51111,-133.333333333333,4,2,1,60,0,0
52342,-100,4,2,1,80,0,0
54803,-100,4,2,1,80,0,1
62188,-100,4,2,1,80,0,1
63880,-100,4,2,1,80,0,1
64188,-100,4,2,1,80,0,1
64496,-100,4,2,1,80,0,0
64650,-100,4,2,1,80,0,1
69573,-100,4,2,1,70,0,1
74496,-133.333333333333,4,2,1,50,0,0
79419,-100,4,2,1,70,0,0
84188,-111.111111111111,4,2,1,70,0,0
85573,-100,4,2,1,70,0,0
86650,-100,4,2,1,70,0,0
86957,-100,4,2,1,80,0,0

[Colours]
Combo1 : 45,100,180
Combo2 : 250,230,0
Combo3 : 150,185,230
Combo4 : 240,200,20

[HitObjects]
176,128,650,5,8,1:2:0:0:
420,188,803,1,8,1:2:0:0:
420,188,1111,6,0,L|432:100,1,76.4999976654053,0|0,0:0|0:0,0:0:0:0:
264,60,1419,2,0,L|275:144,1,76.4999976654053,0|0,0:0|0:0,0:0:0:0:
196,316,1726,6,0,P|159:306|121:300,1,76.4999976654053,8|0,1:2|0:0,0:0:0:0:
184,140,2034,1,8,1:2:0:0:
368,188,2188,2,0,P|405:182|442:172,1,76.4999976654053,8|0,1:2|0:0,0:0:0:0:
136,68,2496,5,0,3:0:0:0:
136,68,2573,1,0,3:0:0:0:
136,68,2650,1,0,3:0:0:0:
136,68,2726,1,0,3:0:0:0:
136,68,2803,2,0,P|99:62|62:52,1,76.4999976654053,0|0,3:0|0:0,0:0:0:0:
344,68,3111,5,8,1:2:0:0:
140,252,3265,1,8,1:2:0:0:
140,252,3573,6,0,L|48:244,1,76.4999976654053,8|0,0:3|0:0,0:0:0:0:
164,128,3880,1,8,0:3:0:0:
224,332,4034,1,8,0:0:0:0:
412,204,4188,6,0,P|352:168|268:216,1,152.999995330811,4|8,1:2|1:2,0:0:0:0:
356,320,4650,1,8,1:2:0:0:
332,48,4803,1,4,1:2:0:0:
480,172,4957,1,0,1:0:0:0:
208,195,5111,5,8,3:0:0:0:
170,193,5187,1,8,3:0:0:0:
138,174,5264,1,8,3:0:0:0:
119,141,5341,1,8,3:0:0:0:
119,103,5418,1,8,3:0:0:0:
137,70,5495,1,8,3:0:0:0:
169,49,5573,6,0,P|210:55|253:56,1,85,4|0,1:2|0:0,0:0:0:0:
108,256,5880,2,0,P|65:256|23:263,1,85,8|0,0:0|0:0,0:0:0:0:
119,141,6188,1,0,1:0:0:0:
204,364,6342,1,0,1:0:0:0:
252,172,6496,1,8,0:0:0:0:
71,333,6650,6,0,P|24:312|32:200,1,170,0|0,1:0|1:0,0:0:0:0:
172,108,7111,1,8,0:0:0:0:
32,88,7265,1,0,1:0:0:0:
256,200,7419,1,0,0:0:0:0:
232,28,7573,1,0,1:0:0:0:
64,228,7726,1,8,0:0:0:0:
40,56,7880,1,0,0:0:0:0:
341,45,8034,6,0,P|329:85|324:127,1,85,0|0,1:0|0:0,0:0:0:0:
172,252,8342,2,0,P|167:209|154:169,1,85,8|0,0:0|0:0,0:0:0:0:
48,28,8650,1,0,1:0:0:0:
260,68,8803,2,0,L|342:45,1,85,0|8,1:0|0:0,0:0:0:0:
84,228,9111,6,0,L|1:205,1,85,0|0,1:0|0:0,0:0:0:0:
160,100,9419,1,0,1:0:0:0:
188,316,9573,1,8,0:0:0:0:
60,120,9727,1,0,0:0:0:0:
252,168,9880,1,0,1:0:0:0:
20,296,10034,1,0,1:0:0:0:
248,372,10188,2,0,P|276:324|236:252,1,127.5,12|0,0:0|0:0,0:0:0:0:
288,252,10496,6,0,P|328:264|369:276,1,85,4|0,1:2|0:0,0:0:0:0:
172,132,10803,2,0,P|131:144|90:155,1,85,8|0,0:0|0:0,0:0:0:0:
208,16,11111,1,0,1:0:0:0:
92,252,11265,1,0,1:0:0:0:
40,76,11419,1,8,0:0:0:0:
260,192,11573,6,0,P|316:204|396:120,1,170,0|0,1:0|1:0,0:0:0:0:
252,48,12034,1,8,0:0:0:0:
120,276,12188,1,0,0:0:0:0:
108,68,12342,1,0,1:0:0:0:
308,228,12496,1,0,1:0:0:0:
312,20,12650,2,0,L|212:8,1,85,8|0,0:0|0:0,0:0:0:0:
20,192,12957,5,12,1:2:0:0:
248,332,13111,1,0,1:2:0:0:
248,332,13265,1,0,1:2:0:0:
128,64,13419,5,12,1:2:0:0:
72,320,13573,1,0,1:2:0:0:
72,320,13726,1,0,1:2:0:0:
340,176,13880,5,12,1:2:0:0:
256,192,13957,12,0,14803,0:0:0:0:
364,64,14957,5,2,3:0:0:0:
364,64,15034,1,2,3:0:0:0:
364,64,15111,1,2,3:0:0:0:
192,244,15419,5,6,1:2:0:0:
192,244,15573,2,0,L|124:232,1,50.9999984436036,2|2,1:2|0:3,0:0:0:0:
260,304,15880,2,0,L|203:343,1,50.9999984436036,2|2,0:2|0:3,0:0:0:0:
350,298,16188,2,0,L|338:366,1,50.9999984436036,2|2,0:2|0:3,0:0:0:0:
420,208,16496,6,0,P|370:214|331:184,1,101.999996887207,2|0,1:2|1:0,0:0:0:0:
300,108,16957,1,2,1:3:0:0:
300,108,17265,1,2,0:3:0:0:
300,108,17573,1,2,0:3:0:0:
248,173,17727,1,2,0:2:0:0:
383,121,17880,5,2,1:2:0:0:
248,173,18034,2,0,L|180:156,1,50.9999984436036,2|2,1:2|0:3,0:0:0:0:
312,251,18342,2,0,L|331:318,1,50.9999984436036,2|2,0:2|0:3,0:0:0:0:
347,157,18650,2,0,L|395:106,1,50.9999984436036,2|2,0:2|0:3,0:0:0:0:
408,232,18957,1,2,0:2:0:0:
248,173,19111,6,0,P|224:149|244:69,1,101.999996887207,2|2,1:2|0:2,0:0:0:0:
452,40,19573,1,2,1:2:0:0:
372,20,19726,1,0,0:0:0:0:
352,100,19880,1,2,1:2:0:0:
432,120,20034,2,0,P|455:128|480:134,1,50.9999984436036,0|0,0:0|0:0,0:0:0:0:
416,304,20342,5,2,1:2:0:0:
416,304,20496,2,0,P|410:279|401:255,1,50.9999984436036,2|2,1:2|0:3,0:0:0:0:
296,356,20803,2,0,P|309:334|320:311,1,50.9999984436036,2|2,0:2|0:3,0:0:0:0:
174,307,21111,2,0,P|198:301|222:292,1,50.9999984436036,2|2,0:2|0:3,0:0:0:0:
116,128,21419,6,0,P|111:177|74:211,1,101.999996887207,2|0,1:2|1:0,0:0:0:0:
0,248,21880,1,2,1:3:0:0:
0,248,22188,1,2,0:3:0:0:
0,248,22496,1,2,0:3:0:0:
5,165,22650,1,2,0:0:0:0:
68,294,22803,5,2,1:2:0:0:
4,165,22957,2,0,P|12:114|15:63,1,101.999996887207,0|2,1:0|0:2,0:0:0:0:
140,108,23419,2,0,P|132:158|129:209,1,101.999996887207,2|0,0:2|0:0,0:0:0:0:
208,284,23880,1,2,0:0:0:0:
233,178,24034,5,2,1:3:0:0:
104,315,24188,1,2,1:3:0:0:
100,182,24342,1,2,1:3:0:0:
237,311,24496,1,8,1:2:0:0:
237,311,24803,5,2,1:3:0:0:
100,182,24957,1,2,1:3:0:0:
280,127,25111,5,0,3:0:0:0:
280,127,25188,1,0,3:0:0:0:
280,127,25265,1,6,1:2:0:0:
100,182,25419,2,0,P|40:168|4:152,1,85,2|8,1:2|0:0,0:0:0:0:
152,48,25726,1,2,3:2:0:0:
152,48,25803,1,0,3:0:0:0:
152,48,25880,1,0,1:0:0:0:
232,272,26034,2,0,L|216:368,1,85,2|8,1:2|0:0,0:0:0:0:
440,247,26342,6,0,P|420:165|408:81,1,170,2|0,1:2|1:0,0:0:0:0:
232,24,26803,2,0,P|224:76|208:124,1,85,8|0,0:0|0:0,0:0:0:0:
64,236,27111,1,0,1:0:0:0:
96,76,27265,1,0,1:0:0:0:
196,284,27419,2,0,L|312:260,1,85,8|2,0:0|0:2,0:0:0:0:
96,76,27726,6,0,P|53:70|13:56,1,85,2|0,1:2|0:0,0:0:0:0:
80,224,28034,1,10,0:2:0:0:
208,16,28188,1,2,3:2:0:0:
208,16,28265,1,0,3:0:0:0:
208,16,28342,1,0,1:0:0:0:
272,172,28496,2,0,P|314:166|354:152,1,85,2|8,1:2|0:0,0:0:0:0:
480,232,28803,1,2,0:2:0:0:
288,372,28957,6,0,L|276:284,1,85,2|0,1:2|1:0,0:0:0:0:
176,140,29265,1,8,0:0:0:0:
372,176,29419,5,0,3:0:0:0:
372,176,29496,1,0,3:0:0:0:
372,176,29573,1,8,1:3:0:0:
128,272,29726,1,8,1:3:0:0:
202,102,29880,1,4,1:3:0:0:
298,346,30033,1,4,1:3:0:0:
320,64,30188,1,4,1:2:0:0:
320,64,30496,5,8,1:2:0:0:
72,184,30650,1,0,1:0:0:0:
272,344,30803,5,8,1:2:0:0:
176,100,30957,1,0,1:0:0:0:
392,156,31111,5,8,1:2:0:0:
168,272,31265,1,0,1:0:0:0:
292,72,31419,5,8,1:2:0:0:
392,300,31573,1,0,1:0:0:0:
432,52,31726,5,8,1:2:0:0:
156,160,31880,1,0,1:0:0:0:
504,232,32034,5,8,1:2:0:0:
276,104,32188,1,0,1:0:0:0:
276,384,32342,5,8,1:2:0:0:
368,128,32496,1,0,1:0:0:0:
72,220,32650,1,12,1:2:0:0:
72,220,32957,5,8,1:2:0:0:
328,292,33111,1,0,3:0:0:0:
328,292,33188,1,0,3:0:0:0:
328,292,33265,1,8,1:2:0:0:
124,68,33419,1,0,1:0:0:0:
368,128,33573,2,0,P|416:144|460:148,1,85,8|0,1:2|0:0,0:0:0:0:
260,0,33880,5,0,1:0:0:0:
143,204,34034,2,0,P|64:224|0:164,1,170,8|0,1:2|1:0,0:0:0:0:
152,8,34496,5,8,1:3:0:0:
83,138,34650,1,4,1:3:0:0:
52,38,34803,1,4,1:3:0:0:
182,107,34957,6,0,P|228:96|320:88,1,127.500004863739,4|0,1:2|1:0,0:0:0:0:
268,220,35419,1,0,1:0:0:0:
268,220,35726,2,0,L|216:212,1,50.9999984436036,10|0,1:0|0:0,0:0:0:0:
120,280,36188,6,0,P|127:311|133:342,1,63.7500024318696,0|2,1:0|0:3,0:0:0:0:
28,320,36496,1,0,1:0:0:0:
40,220,36650,2,0,P|47:188|53:157,1,63.7500024318696,0|0,1:0|0:0,0:0:0:0:
196,104,36957,2,0,L|204:156,1,50.9999984436036,10|0,1:0|0:0,0:0:0:0:
216,300,37419,6,0,P|277:308|327:271,1,127.500004863739,0|0,1:0|1:0,0:0:0:0:
424,320,37880,2,0,L|417:383,1,63.7500024318696,0|0,1:0|0:0,0:0:0:0:
327,270,38188,2,0,L|321:218,1,50.9999984436036,10|0,1:0|0:0,0:0:0:0:
444,368,38650,1,8,3:0:0:0:
444,368,38726,1,8,3:0:0:0:
444,368,38803,1,4,1:2:0:0:
415,134,38957,5,0,1:0:0:0:
227,277,39111,1,8,0:0:0:0:
444,368,39265,1,8,0:3:0:0:
362,260,39419,5,4,0:3:0:0:
280,151,39573,1,4,0:3:0:0:
415,134,39726,1,4,0:3:0:0:
227,277,39880,6,0,P|167:269|87:253,1,127.500004863739,4|0,1:2|1:0,0:0:0:0:
180,148,40342,1,0,1:0:0:0:
180,148,40650,2,0,L|184:96,1,50.9999984436036,10|0,1:0|0:0,0:0:0:0:
328,204,41111,6,0,P|332:238|340:272,1,63.7500024318696,0|2,1:0|0:3,0:0:0:0:
428,216,41419,1,0,1:0:0:0:
396,116,41573,2,0,P|362:111|328:104,1,63.7500024318696,0|0,1:0|0:0,0:0:0:0:
184,264,41880,2,0,L|234:260,1,50.9999984436036,10|0,1:0|0:0,0:0:0:0:
400,324,42342,6,0,P|434:273|410:211,1,127.500004863739,0|0,1:0|1:0,0:0:0:0:
288,164,42803,2,0,P|252:176|204:184,1,63.7500024318696,0|0,1:0|0:0,0:0:0:0:
336,72,43110,1,10,1:0:0:0:
380,212,43265,1,0,0:0:0:0:
428,119,43419,2,0,P|425:88|427:56,1,63.7500024318696,0|0,1:0|0:0,0:0:0:0:
208,40,43726,5,4,1:2:0:0:
248,212,43880,1,8,3:0:0:0:
248,212,43957,1,8,3:0:0:0:
248,212,44034,1,8,3:0:0:0:
314,106,44188,2,0,P|360:96|392:96,1,63.7500024318696,4|0,1:2|0:0,0:0:0:0:
142,146,44496,2,0,P|110:143|79:135,1,63.7500024318696,4|0,1:2|0:0,0:0:0:0:
276,332,44803,6,0,P|328:270|410:274,1,170,6|2,1:2|1:2,0:0:0:0:
280,92,45265,1,10,0:2:0:0:
424,124,45419,1,2,3:2:0:0:
424,124,45496,1,0,3:0:0:0:
424,124,45573,1,2,1:2:0:0:
240,220,45726,2,0,P|192:212|140:188,1,85,2|8,1:2|0:0,0:0:0:0:
376,344,46034,6,0,P|428:348|480:240,1,170,6|2,1:2|1:2,0:0:0:0:
444,76,46496,1,10,0:2:0:0:
264,240,46650,1,2,3:2:0:0:
264,240,46726,1,0,3:0:0:0:
264,240,46803,1,2,1:2:0:0:
292,64,46957,1,2,1:2:0:0:
440,260,47111,2,0,L|532:240,1,85,8|0,0:0|0:0,0:0:0:0:
292,64,47419,6,0,P|251:50|217:26,1,85,6|0,1:2|0:0,0:0:0:0:
160,256,47726,2,0,P|194:231|234:218,1,85,10|0,0:2|3:0,0:0:0:0:
234,218,47957,1,0,3:0:0:0:
234,218,48034,1,2,1:2:0:0:
76,112,48188,1,0,1:0:0:0:
8,296,48342,2,0,L|36:400,1,85,10|0,0:2|0:0,0:0:0:0:
268,304,48650,6,0,P|326:246|306:163,1,170,6|8,1:2|0:0,0:0:0:0:
192,44,49111,1,2,1:2:0:0:
408,92,49265,1,8,0:0:0:0:
168,168,49419,1,2,1:2:0:0:
384,216,49573,2,0,P|432:200|488:192,1,85,12|0,0:0|0:0,0:0:0:0:
192,280,49880,6,0,P|128:284|84:240,1,127.500004863739,4|0,1:2|0:0,0:0:0:0:
168,168,50342,1,0,1:0:0:0:
312,244,50496,2,0,P|376:248|420:204,1,127.500004863739,8|0,0:0|1:0,0:0:0:0:
336,132,50957,1,0,0:0:0:0:
192,280,51111,5,0,1:0:0:0:
336,132,51265,2,0,P|320:88|312:4,1,127.500004863739,8|0,0:0|1:0,0:0:0:0:
143,79,51726,2,0,P|143:111|128:176,1,95.6250036478044,8|0,0:0|0:0,0:0:0:0:
140,196,52034,2,0,L|224:180,1,63.7500024318696,0|0,1:0|0:0,0:0:0:0:
0,216,52342,5,4,1:2:0:0:
252,316,52496,1,0,1:0:0:0:
8,196,52650,1,0,1:0:0:0:
200,40,52803,5,12,1:2:0:0:
64,308,52957,1,0,1:0:0:0:
176,28,53111,1,0,1:0:0:0:
256,352,53265,5,12,1:2:0:0:
120,108,53419,1,0,1:0:0:0:
412,172,53573,5,12,1:2:0:0:
48,228,53726,1,0,1:0:0:0:
396,316,53880,5,12,1:2:0:0:
96,76,54034,1,0,1:0:0:0:
31,361,54188,5,8,3:0:0:0:
14,328,54264,1,8,3:0:0:0:
11,291,54341,1,8,3:0:0:0:
23,256,54418,1,8,3:0:0:0:
48,228,54495,1,8,3:0:0:0:
81,213,54572,1,8,3:0:0:0:
118,211,54649,1,8,3:0:0:0:
153,225,54726,1,8,3:0:0:0:
179,250,54803,5,6,1:2:0:0:
240,72,54957,2,0,L|152:56,1,85,2|8,0:0|0:0,0:0:0:0:
224,308,55265,2,0,L|307:292,1,85,2|0,1:2|0:0,0:0:0:0:
464,148,55573,1,2,1:2:0:0:
244,112,55726,1,8,0:0:0:0:
444,344,55880,5,0,3:0:0:0:
444,344,55957,1,0,3:0:0:0:
444,344,56034,1,2,1:2:0:0:
224,308,56188,2,0,P|183:298|144:281,1,85,2|8,1:2|0:0,0:0:0:0:
383,175,56496,2,0,P|424:164|463:147,1,85,2|0,1:2|0:0,0:0:0:0:
344,32,56803,1,2,1:2:0:0:
328,280,56957,1,8,0:0:0:0:
472,62,57111,5,0,3:0:0:0:
472,62,57188,1,0,3:0:0:0:
472,62,57265,1,2,1:2:0:0:
224,176,57419,2,0,P|182:167|142:151,1,85,2|8,1:2|0:0,0:0:0:0:
368,288,57726,2,0,P|407:272|449:263,1,85,2|0,1:2|0:0,0:0:0:0:
328,128,58034,1,2,1:2:0:0:
252,336,58188,1,8,0:0:0:0:
68,200,58342,6,0,P|118:135|199:142,1,170,6|0,1:2|1:0,0:0:0:0:
384,276,58803,2,0,P|388:220|396:184,1,85,8|0,0:0|3:0,0:0:0:0:
393,191,59034,1,0,3:0:0:0:
393,191,59111,1,2,1:2:0:0:
508,324,59265,1,0,1:0:0:0:
300,364,59419,2,0,P|236:352|208:340,1,85,10|0,0:2|0:0,0:0:0:0:
292,147,59726,6,0,P|346:86|429:88,1,170,6|8,1:2|0:0,0:0:0:0:
208,16,60188,1,2,3:2:0:0:
208,16,60265,1,0,3:0:0:0:
208,16,60342,1,2,1:2:0:0:
172,212,60496,2,0,L|80:192,1,85,2|8,1:2|0:0,0:0:0:0:
259,343,60803,6,0,P|301:274|382:276,1,170,6|0,1:2|1:0,0:0:0:0:
328,80,61265,2,0,P|280:76|216:60,1,85,8|0,0:0|0:0,0:0:0:0:
55,248,61573,1,0,1:0:0:0:
235,324,61726,1,8,3:0:0:0:
256,299,61802,1,8,3:0:0:0:
265,269,61879,1,8,3:0:0:0:
261,238,61956,1,8,3:0:0:0:
244,211,62033,1,8,3:0:0:0:
156,56,62188,5,8,1:2:0:0:
432,116,62342,1,0,1:0:0:0:
156,36,62496,2,0,P|108:52|72:56,1,85,8|0,1:2|0:0,0:0:0:0:
276,224,62803,5,8,1:2:0:0:
0,284,62957,1,0,1:0:0:0:
272,84,63111,5,8,1:2:0:0:
332,360,63265,1,0,1:0:0:0:
252,84,63419,2,0,P|266:44|271:1,1,85,8|0,1:2|0:0,0:0:0:0:
96,108,63726,5,8,1:2:0:0:
344,228,63880,2,0,L|428:216,1,85,4|0,1:2|0:0,0:0:0:0:
96,376,64189,2,0,L|12:364,1,85,4|0,1:2|0:0,0:0:0:0:
180,156,64496,5,0,3:0:0:0:
180,156,64573,1,0,3:0:0:0:
180,156,64650,1,6,1:2:0:0:
272,320,64803,2,0,L|189:340,1,85,2|8,0:0|0:0,0:0:0:0:
240,96,65111,2,0,L|322:75,1,85,2|0,1:2|0:0,0:0:0:0:
508,184,65419,1,2,1:2:0:0:
440,4,65573,1,8,0:0:0:0:
312,264,65726,5,0,3:0:0:0:
312,264,65803,1,0,3:0:0:0:
312,264,65880,1,2,1:2:0:0:
240,96,66034,2,0,P|252:48|256:12,1,85,2|8,1:2|0:0,0:0:0:0:
20,119,66342,2,0,P|87:165|78:245,1,170,2|2,1:2|1:2,0:0:0:0:
152,48,66803,1,8,0:0:0:0:
224,304,66957,5,0,3:0:0:0:
224,304,67034,1,0,3:0:0:0:
224,304,67111,1,2,1:2:0:0:
344,160,67265,2,0,L|248:144,1,85,2|8,1:2|0:0,0:0:0:0:
360,28,67573,1,2,1:2:0:0:
452,244,67726,5,0,0:0:0:0:
344,160,67880,1,2,1:2:0:0:
470,108,68034,1,8,0:0:0:0:
325,296,68188,6,0,P|244:306|187:247,1,170,6|0,1:2|1:0,0:0:0:0:
152,80,68650,1,8,0:0:0:0:
253,145,68803,1,0,0:0:0:0:
86,181,68957,1,2,1:2:0:0:
255,168,69111,2,0,P|331:136|351:57,1,170,10|8,0:2|0:0,0:0:0:0:
36,100,69573,6,0,P|-14:164|8:243,2,170,4|8|2,1:2|0:0|1:2,0:0:0:0:
156,208,70342,1,0,1:0:0:0:
244,40,70496,2,0,L|144:20,1,85,8|0,0:0|0:0,0:0:0:0:
316,192,70803,5,2,1:2:0:0:
152,316,70957,2,0,L|135:232,1,85,2|8,1:2|0:0,0:0:0:0:
352,292,71265,2,0,L|335:375,1,85,2|0,1:2|0:0,0:0:0:0:
472,240,71573,1,2,1:2:0:0:
292,168,71726,2,0,P|244:180|180:176,1,85,8|0,0:0|0:0,0:0:0:0:
336,16,72034,5,12,1:2:0:0:
436,332,72188,1,0,1:0:0:0:
512,93,72342,1,0,1:0:0:0:
192,296,72496,5,12,1:2:0:0:
496,212,72650,1,0,1:0:0:0:
288,88,72803,1,0,1:0:0:0:
512,360,72957,5,12,1:2:0:0:
400,52,73111,1,0,1:0:0:0:
212,248,73265,5,4,1:2:0:0:
212,248,73342,1,0,3:0:0:0:
212,248,73419,1,0,3:0:0:0:
408,168,73573,1,8,0:2:0:0:
270,110,73726,1,8,3:2:0:0:
350,306,73880,5,8,0:3:0:0:
212,248,74034,1,8,3:3:0:0:
270,110,74188,1,4,0:3:0:0:
408,168,74342,1,4,3:3:0:0:
212,248,74496,6,0,P|148:240|100:228,1,95.6250036478044,4|0,1:2|0:0,0:0:0:0:
96,224,74803,2,0,L|106:286,1,63.7500024318696,2|0,1:2|1:0,0:0:0:0:
60,144,75111,2,0,L|0:121,1,63.7500024318696,10|0,0:2|0:0,0:0:0:0:
147,152,75419,2,0,L|196:111,1,63.7500024318696,2|0,1:2|0:0,0:0:0:0:
352,63,75726,6,0,P|384:116|360:184,1,127.500004863739,4|2,1:2|1:2,0:0:0:0:
284,124,76188,1,0,1:0:0:0:
381,289,76342,2,0,P|349:237|373:169,1,127.500004863739,10|2,0:2|1:2,0:0:0:0:
449,229,76804,1,0,0:0:0:0:
320,364,76957,6,0,P|258:348|195:340,1,127.500004863739,4|2,1:2|1:2,0:0:0:0:
88,360,77419,1,2,1:2:0:0:
0,236,77573,2,0,P|63:227|124:212,1,127.500004863739,8|0,0:0|1:0,0:0:0:0:
216,152,78034,1,0,0:0:0:0:
240,348,78188,6,0,P|292:368|356:308,1,127.500004863739,4|2,1:2|1:2,0:0:0:0:
344,224,78650,1,2,1:2:0:0:
448,312,78803,1,10,0:2:0:0:
448,312,78957,2,0,L|516:296,1,63.7500024318696,2|0,1:2|0:0,0:0:0:0:
364,112,79265,5,2,3:2:0:0:
364,112,79342,1,0,3:0:0:0:
363,111,79419,2,0,P|280:116|232:182,1,170,6|10,1:2|0:2,0:0:0:0:
328,0,79880,1,2,3:2:0:0:
328,0,79957,1,0,3:0:0:0:
328,0,80034,1,0,1:0:0:0:
384,216,80188,2,0,L|484:200,1,85,2|8,1:2|0:0,0:0:0:0:
239,352,80496,6,0,P|160:369|100:313,1,170,6|0,1:2|1:0,0:0:0:0:
40,144,80957,1,8,0:0:0:0:
0,336,81111,1,2,3:2:0:0:
0,336,81188,1,0,3:0:0:0:
0,336,81265,1,2,1:2:0:0:
192,276,81419,2,0,L|176:184,1,85,2|12,1:2|0:0,0:0:0:0:
212,384,81726,1,2,0:2:0:0:
12,208,81880,6,0,P|0:126|63:74,1,170,6|10,1:2|0:2,0:0:0:0:
252,20,82342,1,2,3:2:0:0:
252,20,82419,1,0,3:0:0:0:
252,20,82496,1,2,1:2:0:0:
268,216,82650,2,0,L|176:208,1,85,2|8,1:2|0:0,0:0:0:0:
360,44,82957,6,0,P|384:96|504:104,1,170,6|0,1:2|1:0,0:0:0:0:
452,28,83419,1,12,0:0:0:0:
336,236,83573,1,0,1:0:0:0:
498,190,83726,5,8,1:2:0:0:
275,134,83880,1,0,1:0:0:0:
338,355,84034,1,8,1:2:0:0:
394,132,84188,6,0,P|412:88|336:16,1,152.999995330811,4|0,1:2|0:0,0:0:0:0:
192,115,84650,1,0,3:0:0:0:
184,162,84726,1,0,3:0:0:0:
151,196,84803,1,0,3:0:0:0:
105,205,84880,1,0,3:0:0:0:
61,187,84957,5,0,3:0:0:0:
107,154,85033,1,0,3:0:0:0:
164,159,85110,1,0,3:0:0:0:
204,198,85187,1,0,3:0:0:0:
212,254,85265,1,0,3:0:0:0:
218,309,85342,1,0,3:0:0:0:
259,348,85419,1,0,3:0:0:0:
315,352,85496,1,0,3:0:0:0:
362,320,85573,2,0,L|355:277,1,42.5,0|0,3:0|3:0,0:0:0:0:
456,200,85726,5,0,3:0:0:0:
456,200,85803,1,0,3:0:0:0:
456,200,85880,2,0,L|462:242,1,42.5,0|0,3:0|3:0,0:0:0:0:
340,180,86034,5,0,3:0:0:0:
340,180,86111,1,0,3:0:0:0:
340,180,86188,2,0,L|333:137,1,42.5,0|0,3:0|3:0,0:0:0:0:
432,52,86342,5,0,3:0:0:0:
432,52,86419,1,0,3:0:0:0:
432,52,86496,2,0,L|438:94,1,42.5,0|0,3:0|3:0,0:0:0:0:
468,284,86650,1,0,1:2:0:0:
32,196,86957,5,8,1:2:0:0:
320,72,87111,1,8,1:2:0:0:
32,196,87419,5,8,1:2:0:0:
468,284,87726,5,8,1:2:0:0:
208,138,87880,1,8,1:2:0:0:
