osu file format v14

[General]
AudioFilename: audio.mp3
AudioLeadIn: 0
PreviewTime: 55516
Countdown: 0
SampleSet: Soft
StackLeniency: 0.7
Mode: 0
LetterboxInBreaks: 0
WidescreenStoryboard: 1

[Editor]
DistanceSpacing: 1
BeatDivisor: 4
GridSize: 4
TimelineZoom: 2.899999

[Metadata]
Title:Q&A Recital! (TV Size)
TitleUnicode:Q&A Recital! (TV Size)
Artist:Tomatsu Haruka
ArtistUnicode:戸松遥
Creator:Shocko
Version:Normal
Source:となりの怪物くん
Tags:my little monster tonari no kaibutsu kun anime opening nao tomori baar vendel japanese 吉田 雫 Yoshida Shizuku 山口 賢二 Yamaguchi Kenji 吉田 春 Yoshida Haru 夏目 あさ子 Natsume Asako 名古屋 Nagoya 大島 千づる Ōshima Chizuru 佐々原 宗平 Sasahara Sōhei
BeatmapID:2230981
BeatmapSetID:1064739

[Difficulty]
HPDrainRate:4
CircleSize:3
OverallDifficulty:3
ApproachRate:6
SliderMultiplier:1.2
SliderTickRate:1

[Events]
//Background and Video events
0,0,"akirukuraii.jpg",0,0
Video,1025,"video.mp4"
//Break Periods
2,11870,18532
//Storyboard Layer 0 (Background)
//Storyboard Layer 1 (Fail)
//Storyboard Layer 2 (Pass)
//Storyboard Layer 3 (Foreground)
//Storyboard Layer 4 (Overlay)
//Storyboard Sound Samples

[TimingPoints]
791,329.67032967033,4,2,1,70,1,0
1121,329.67032967033,4,2,1,70,1,0
56505,-100,4,2,1,70,0,1
77604,-100,4,2,1,70,0,0

[Colours]
Combo1 : 255,255,128
Combo2 : 128,255,128
Combo3 : 128,255,255
Combo4 : 252,82,218
Combo5 : 255,128,192

[HitObjects]
18,31,791,5,4,0:3:0:0:
18,31,1120,6,0,P|-11:81|5:157,1,120,4|8,3:2|0:0,0:0:0:0:
38,183,1615,1,0,0:0:0:0:
38,183,1780,2,0,P|104:173|170:167,1,120,8|8,0:0|0:0,0:0:0:0:
277,171,2439,2,0,P|287:202|294:232,1,60,8|0,0:0|0:0,0:0:0:0:
344,260,2769,2,0,P|333:291|327:321,1,60,8|0,0:0|0:0,0:0:0:0:
299,370,3099,1,8,0:0:0:0:
299,370,3263,2,0,L|426:361,1,120,0|0,3:0|3:0,0:0:0:0:
477,346,3758,6,0,P|482:310|476:267,1,60,8|0,0:0|0:0,0:0:0:0:
452,169,4252,1,0,0:0:0:0:
452,169,4417,2,0,L|528:163,2,60,8|0|8,0:0|3:0|0:0,0:0:0:0:
406,208,4912,2,0,L|339:203,1,60,0|8,3:0|0:0,0:0:0:0:
306,248,5241,2,0,L|322:118,1,120,0|0,3:0|3:0,0:0:0:0:
365,88,5736,2,0,P|331:83|306:71,1,60,8|0,0:0|3:0,0:0:0:0:
261,33,6066,1,8,0:0:0:0:
165,105,6395,6,0,P|175:171|180:236,1,120,4|8,3:2|0:0,0:0:0:0:
221,262,6890,1,0,0:0:0:0:
221,262,7055,2,0,P|213:293|214:325,1,60,8|0,0:0|3:0,0:0:0:0:
259,359,7384,1,8,0:0:0:0:
259,359,7549,2,0,P|202:340|141:340,1,120,0|0,3:0|0:0,0:0:0:0:
90,369,8044,2,0,P|93:332|94:299,1,60,8|0,0:0|0:0,0:0:0:0:
48,270,8373,2,0,P|39:211|61:156,1,120,8|8,0:0|0:0,0:0:0:0:
146,70,9033,6,0,L|7:60,2,120,8|8|8,0:0|0:0|0:0,0:0:0:0:
197,101,9857,2,0,L|271:94,1,60,0|8,3:0|0:0,0:0:0:0:
308,65,10186,2,0,P|277:121|297:186,1,120,0|0,3:0|3:0,0:0:0:0:
330,215,10681,1,8,0:0:0:0:
401,311,11011,6,0,P|408:280|413:250,1,60,0|8,3:2|0:0,0:0:0:0:
482,238,11340,2,0,P|475:207|470:177,1,60,8|8,0:0|0:0,0:0:0:0:
436,129,11670,1,4,3:2:0:0:
59,321,19582,5,4,3:2:0:0:
59,321,19747,2,0,L|-18:311,2,60,0|8|0,3:0|0:0|0:0,0:0:0:0:
109,289,20241,2,0,P|114:260|110:228,1,60,4|0,3:2|3:0,0:0:0:0:
65,189,20571,1,8,0:0:0:0:
65,189,20736,6,0,L|195:174,1,120,4|0,3:2|3:0,0:0:0:0:
233,141,21230,2,0,L|231:208,1,60,8|8,0:0|0:0,0:0:0:0:
216,259,21560,1,0,3:0:0:0:
262,369,21890,1,8,0:0:0:0:
338,277,22219,6,0,P|404:261|467:289,1,120,4|8,3:2|0:0,0:0:0:0:
444,156,22879,2,0,L|431:75,1,60,0|0,3:0|3:0,0:0:0:0:
403,45,23208,1,8,0:0:0:0:
331,153,23538,2,0,L|197:146,1,120,0|8,3:0|0:0,0:0:0:0:
98,104,24197,2,0,P|106:136|109:176,1,60,0|0,3:0|3:0,0:0:0:0:
149,207,24527,2,0,P|141:239|138:279,1,60,8|0,0:0|0:0,0:0:0:0:
98,311,24857,6,0,L|224:304,1,120,0|8,3:0|0:0,0:0:0:0:
327,255,25516,2,0,L|338:317,1,60,0|0,3:0|3:0,0:0:0:0:
362,368,25846,1,8,0:0:0:0:
459,298,26175,2,0,P|470:236|463:165,1,120,0|8,3:0|0:0,0:0:0:0:
382,92,26835,1,0,3:0:0:0:
382,92,27000,2,0,L|323:102,1,60,0|8,3:0|0:0,0:0:0:0:
279,144,27329,1,0,0:0:0:0:
279,144,27494,6,0,P|226:118|159:125,1,120,0|8,3:0|0:0,0:0:0:0:
60,179,28153,2,0,L|68:261,1,60,0|0,3:0|3:0,0:0:0:0:
86,295,28483,1,8,0:0:0:0:
198,338,28813,2,0,L|327:330,1,120,0|8,3:0|0:0,0:0:0:0:
425,276,29472,2,0,P|425:247|417:216,1,60,0|0,3:0|3:0,0:0:0:0:
366,184,29802,1,8,0:0:0:0:
409,87,30131,5,4,3:2:0:0:
409,87,30296,2,0,L|478:82,2,60,0|8|0,3:0|0:0|0:0,0:0:0:0:
363,47,30791,2,0,P|332:47|304:55,1,60,4|0,3:2|3:0,0:0:0:0:
272,106,31121,1,8,0:0:0:0:
272,106,31285,6,0,L|286:236,1,120,4|8,3:2|0:0,0:0:0:0:
324,270,31780,2,0,L|250:280,1,60,8|4,0:0|0:3,0:0:0:0:
229,326,32110,2,0,L|169:317,1,60,8|0,0:3|3:0,0:0:0:0:
116,290,32439,1,8,0:0:0:0:
15,223,32769,6,0,P|57:182|115:184,1,120,4|8,3:2|0:0,0:0:0:0:
195,94,33428,2,0,P|233:88|278:69,1,60,0|0,3:0|3:0,0:0:0:0:
290,129,33758,1,8,0:0:0:0:
290,129,33923,2,0,P|337:103|418:124,1,120,4|0,3:2|3:0,0:0:0:0:
449,146,34417,1,8,0:0:0:0:
428,264,34747,2,0,L|353:267,1,60,0|0,3:0|3:0,0:0:0:0:
328,311,35077,1,8,0:0:0:0:
328,311,35241,6,0,L|203:304,1,120,4|0,3:2|3:0,0:0:0:0:
149,317,35736,1,8,0:0:0:0:
78,212,36066,2,0,P|76:183|66:155,1,60,0|4,3:0|0:3,0:0:0:0:
19,117,36395,1,8,0:0:0:0:
19,117,36560,2,0,P|45:68|121:54,1,120,4|0,3:2|3:0,0:0:0:0:
161,68,37055,1,8,0:0:0:0:
253,143,37384,1,0,3:0:0:0:
327,49,37714,2,0,P|354:73|367:96,1,60,8|8,0:0|0:0,0:0:0:0:
425,106,38044,6,0,P|401:162|424:241,1,120,4|10,3:2|0:0,0:0:0:0:
363,329,38703,2,0,L|288:335,1,60,0|0,3:0|3:0,0:0:0:0:
257,294,39033,1,8,0:0:0:0:
257,294,39197,2,0,P|204:318|131:302,1,120,4|0,3:2|3:0,0:0:0:0:
92,278,39692,1,8,0:0:0:0:
177,189,40022,2,0,L|161:103,1,60,0|0,3:0|3:0,0:0:0:0:
121,89,40351,1,8,0:0:0:0:
121,89,40516,6,0,L|267:96,1,120,4|0,3:2|3:0,0:0:0:0:
294,67,41011,1,8,0:0:0:0:
400,122,41340,2,0,L|387:184,1,60,0|0,3:0|3:0,0:0:0:0:
344,222,41670,1,8,0:0:0:0:
344,222,41835,2,0,P|356:273|353:351,1,120,4|0,3:2|3:0,0:0:0:0:
308,378,42329,1,8,0:0:0:0:
199,327,42659,2,0,L|118:331,1,60,0|0,3:0|3:0,0:0:0:0:
78,333,42989,1,8,0:0:0:0:
37,220,43318,6,0,P|103:220|170:230,1,120,4|8,3:2|0:0,0:0:0:0:
215,244,43813,2,0,P|236:174|215:117,1,120,0|0,0:0|3:0,0:0:0:0:
179,89,44307,1,8,0:0:0:0:
287,37,44637,2,0,L|411:50,1,120,0|8,3:0|0:0,0:0:0:0:
489,136,45296,2,0,P|485:165|484:195,1,60,0|0,3:0|3:0,0:0:0:0:
503,253,45626,1,8,0:0:0:0:
395,282,45956,6,0,L|266:286,1,120,4|8,3:2|0:0,0:0:0:0:
221,258,46450,2,0,L|225:337,1,60,4|0,3:2|0:0,0:0:0:0:
197,372,46780,1,0,3:0:0:0:
197,372,46945,2,0,P|131:380|74:355,1,120,12|8,0:0|0:0,0:0:0:0:
21,257,47604,1,0,3:0:0:0:
26,137,47934,1,0,3:0:0:0:
143,162,48263,2,0,P|178:154|213:152,1,60,0|8,3:0|0:0,0:0:0:0:
246,110,48593,6,0,P|298:133|379:111,1,120,4|8,3:2|0:0,0:0:0:0:
466,71,49252,2,0,L|457:141,1,60,0|0,3:0|3:0,0:0:0:0:
426,181,49582,1,8,0:0:0:0:
463,294,49912,2,0,P|427:280|337:272,1,120,0|8,3:0|0:0,0:0:0:0:
255,349,50571,1,0,3:0:0:0:
255,349,50736,2,0,L|262:264,1,60,0|8,3:0|0:0,0:0:0:0:
216,246,51066,1,0,0:0:0:0:
216,246,51230,6,0,P|232:186|227:119,1,120,0|8,3:0|0:0,0:0:0:0:
136,51,51890,2,0,L|70:62,1,60,0|0,3:0|3:0,0:0:0:0:
22,34,52219,1,8,0:0:0:0:
22,34,52384,2,0,P|41:98|43:174,1,120,0|0,3:0|3:0,0:0:0:0:
16,204,52879,1,8,0:0:0:0:
63,313,53208,1,8,0:0:0:0:
63,313,53373,2,0,L|50:384,2,60,8|8|0,0:3|0:3|3:0,0:0:0:0:
115,282,53868,5,8,3:2:0:0:
115,282,54033,2,0,P|152:282|179:274,1,60,8|0,3:2|0:0,0:0:0:0:
261,357,54527,1,8,3:2:0:0:
261,357,54692,2,0,P|290:350|320:351,1,60,8|0,3:2|0:0,0:0:0:0:
414,276,55186,1,12,3:2:0:0:
414,276,55351,2,0,P|443:282|473:281,1,60,12|0,3:2|0:0,0:0:0:0:
380,60,56175,5,4,0:3:0:0:
380,60,56505,6,0,P|328:39|266:64,1,120,4|8,3:2|0:0,0:0:0:0:
234,108,57000,1,0,0:0:0:0:
234,108,57164,2,0,P|175:92|96:87,1,120,8|8,0:0|0:0,0:0:0:0:
22,161,57824,2,0,L|30:228,1,60,8|0,0:0|0:0,0:0:0:0:
89,223,58153,2,0,L|81:290,1,60,8|0,0:0|0:0,0:0:0:0:
47,332,58483,1,8,0:0:0:0:
47,332,58648,2,0,P|107:318|169:320,1,120,0|0,3:0|3:0,0:0:0:0:
219,344,59142,5,8,0:0:0:0:
320,280,59472,1,8,0:0:0:0:
415,353,59802,2,0,P|407:323|404:294,1,60,8|0,0:0|3:0,0:0:0:0:
454,261,60131,1,8,0:0:0:0:
454,261,60296,2,0,P|461:231|464:202,1,60,0|8,3:0|0:0,0:0:0:0:
432,150,60626,2,0,L|346:156,1,60,0|8,3:0|0:0,0:0:0:0:
319,184,60956,2,0,L|259:176,1,60,0|8,3:0|0:0,0:0:0:0:
212,138,61285,1,0,3:0:0:0:
212,138,61450,1,8,0:0:0:0:
208,258,61780,6,0,P|149:249|77:249,1,120,4|8,3:2|0:0,0:0:0:0:
33,223,62274,1,0,0:0:0:0:
33,223,62439,2,0,P|14:157|49:101,1,120,8|8,0:0|0:0,0:0:0:0:
137,48,63099,2,0,L|210:61,1,60,8|0,0:0|0:0,0:0:0:0:
230,108,63428,2,0,L|303:95,1,60,8|0,0:0|0:0,0:0:0:0:
338,63,63758,1,8,0:0:0:0:
338,63,63923,2,0,P|336:26|345:-16,2,60,0|8|0,3:0|0:0|0:0,0:0:0:0:
390,91,64417,6,0,P|408:153|392:223,1,120,4|8,3:2|0:0,0:0:0:0:
363,255,64912,2,0,P|303:248|237:243,1,120,0|0,3:0|3:0,0:0:0:0:
183,248,65406,1,8,0:0:0:0:
77,305,65736,2,0,P|68:269|64:227,1,60,8|0,0:0|3:0,0:0:0:0:
92,191,66066,1,8,0:0:0:0:
50,78,66395,1,0,3:0:0:0:
173,93,66725,2,0,L|242:84,1,60,8|8,0:0|0:0,0:0:0:0:
286,59,67055,6,0,P|347:49|400:91,1,120,4|8,3:2|0:0,0:0:0:0:
425,130,67549,1,0,0:0:0:0:
425,130,67714,2,0,P|412:195|403:255,1,120,8|8,0:0|0:0,0:0:0:0:
310,324,68373,2,0,P|279:333|247:333,1,60,8|0,0:0|0:0,0:0:0:0:
204,296,68703,2,0,P|174:297|145:305,1,60,8|0,0:0|0:0,0:0:0:0:
94,337,69033,1,8,0:0:0:0:
94,337,69197,2,0,P|109:273|92:216,1,120,0|0,3:0|3:0,0:0:0:0:
46,185,69692,5,8,0:0:0:0:
84,71,70022,1,8,0:0:0:0:
182,139,70351,2,0,L|245:130,1,60,8|0,0:0|3:0,0:0:0:0:
291,96,70681,1,8,0:0:0:0:
291,96,70846,2,0,L|360:102,1,60,0|8,3:0|0:0,0:0:0:0:
395,140,71175,2,0,P|389:171|390:206,1,60,0|8,3:0|0:0,0:0:0:0:
330,230,71505,2,0,P|336:258|340:289,1,60,0|8,3:0|0:0,0:0:0:0:
368,341,71835,1,0,3:0:0:0:
368,341,72000,1,8,0:0:0:0:
261,336,72329,6,0,P|203:328|130:326,1,120,4|8,3:2|0:0,0:0:0:0:
88,353,72824,1,0,0:0:0:0:
88,353,72989,2,0,P|50:315|48:236,1,120,8|8,0:0|0:0,0:0:0:0:
75,136,73648,2,0,P|110:143|138:146,1,60,8|0,0:0|3:0,0:0:0:0:
191,126,73978,1,8,0:0:0:0:
268,217,74307,1,0,3:0:0:0:
268,217,74472,2,0,L|260:282,2,60,8|8|8,0:0|0:0|0:0,0:0:0:0:
322,190,74967,6,0,P|383:202|446:206,1,120,4|8,3:2|0:0,0:0:0:0:
434,75,75626,1,0,3:0:0:0:
434,75,75791,2,0,P|405:70|374:68,1,60,0|8,3:0|0:0,0:0:0:0:
319,93,76121,1,0,0:0:0:0:
319,93,76285,2,0,P|265:90|205:39,1,120,0|8,3:0|0:0,0:0:0:0:
116,123,76945,2,0,P|125:156|129:202,1,60,0|0,3:0|3:0,0:0:0:0:
185,199,77274,2,0,P|175:232|172:278,1,60,8|0,0:0|0:0,0:0:0:0:
147,313,77604,5,4,3:2:0:0:
482,182,78593,5,8,0:0:0:0:
482,182,78923,6,0,P|487:211|487:241,1,60,8|0,0:0|3:0,0:0:0:0:
466,297,79252,1,0,3:0:0:0:
466,297,79417,2,0,P|406:279|338:279,1,120,8|0,0:0|3:0,0:0:0:0:
289,305,79912,1,8,0:0:0:0:
181,358,80241,6,0,L|50:349,1,120,4|8,3:2|0:0,0:0:0:0:
14,238,80901,2,0,L|145:229,1,120,8|8,0:0|0:0,0:0:0:0:
231,160,81560,2,0,P|264:168|303:168,1,60,8|0,0:0|0:0,0:0:0:0:
338,205,81890,2,0,P|367:197|396:195,1,60,8|0,0:0|0:0,0:0:0:0:
428,246,82219,2,0,P|428:187|442:108,1,120,8|8,0:0|0:0,0:0:0:0:
454,69,82714,1,0,3:0:0:0:
454,69,82879,5,8,0:0:0:0:
336,44,83208,1,8,0:0:0:0:
264,140,83538,2,0,L|186:126,1,60,8|0,0:0|3:0,0:0:0:0:
159,89,83868,2,0,L|81:103,1,60,8|0,0:0|3:0,0:0:0:0:
63,147,84197,1,8,0:0:0:0:
63,147,84362,2,0,P|35:136|-5:131,2,60,0|8|0,3:0|0:0|3:0,0:0:0:0:
107,187,84857,2,0,L|101:253,1,60,8|8,0:0|0:3,0:0:0:0:
58,288,85186,1,8,0:0:0:0:
157,355,85516,6,0,P|214:345|297:341,1,120,4|8,3:2|0:0,0:0:0:0:
371,268,86175,2,0,P|404:271|430:277,1,60,8|0,0:0|3:0,0:0:0:0:
490,273,86505,2,0,P|501:214|490:155,1,120,8|0,0:0|3:0,0:0:0:0:
468,99,87000,5,8,3:2:0:0:
468,99,87164,2,0,P|437:100|396:106,1,60,8|8,3:2|3:2,0:0:0:0:
375,154,87494,2,0,P|345:150|315:149,1,60,8|8,3:2|3:2,0:0:0:0:
263,117,87824,1,8,3:2:0:0:
263,117,87989,1,12,3:2:0:0:
