osu file format v14

[General]
AudioFilename: audio.mp3
AudioLeadIn: 0
PreviewTime: 50669
Countdown: 0
SampleSet: Soft
StackLeniency: 0.7
Mode: 0
LetterboxInBreaks: 0
WidescreenStoryboard: 0

[Editor]
DistanceSpacing: 1.3
BeatDivisor: 4
GridSize: 32
TimelineZoom: 2.899999

[Metadata]
Title:Courage
TitleUnicode:Courage
Artist:Tomatsu Haruka
ArtistUnicode:戸松遥
Creator:chucentry
Version:Mother`s Rosario
Source:ソードアート・オンラインⅡ
Tags:sword art online anime opening sao sao2 GGO yuuki Konno ALO
BeatmapID:1508638
BeatmapSetID:713807

[Difficulty]
HPDrainRate:7
CircleSize:4
OverallDifficulty:8
ApproachRate:9.2
SliderMultiplier:1.9
SliderTickRate:1

[Events]
//Background and Video events
0,0,"61801733_p0.jpg",0,0
//Break Periods
//Storyboard Layer 0 (Background)
//Storyboard Layer 1 (Fail)
//Storyboard Layer 2 (Pass)
//Storyboard Layer 3 (Foreground)
//Storyboard Sound Samples

[TimingPoints]
2455,306.122448979592,4,2,1,40,1,0
2455,-142.857142857143,4,2,1,40,0,0
7046,-90.909090909091,4,2,1,40,0,0
7352,-142.857142857143,4,2,1,40,0,0
20822,-142.857142857143,4,2,1,60,0,0
22046,-100,4,2,1,60,0,0
31383,-83.3333333333333,4,2,1,60,0,0
31842,-100,4,2,1,60,0,0
38883,-83.3333333333333,4,2,1,60,0,0
39189,-100,4,2,1,60,0,0
50669,-166.666666666667,4,2,1,60,0,0
51128,-111.111111111111,4,2,1,60,0,0
51434,-76.9230769230769,4,2,1,60,0,0
51587,-100,4,2,1,60,0,0
75312,-200,4,2,1,60,0,0
75924,-125,4,2,1,60,0,0
79597,-100,4,2,1,60,0,0

[Colours]
Combo1 : 255,255,255
Combo2 : 221,0,221
Combo3 : 234,0,117
Combo4 : 255,9,9

[HitObjects]
31,91,2455,6,0,P|94:95|185:101,1,132.999995941162
221,185,2914,2,0,P|287:180|353:175,1,132.999995941162
441,121,3373,1,0,0:0:0:0:
441,121,3526,1,0,0:0:0:0:
441,121,4291,6,0,L|434:203,1,66.4999979705811
315,230,4597,2,0,L|320:163,1,66.4999979705811
374,298,4903,2,0,P|326:318|237:272,1,132.999995941162
49,261,5363,2,0,B|98:234|98:234|174:248,1,132.999995941162
315,230,5822,1,0,0:0:0:0:
315,230,5975,1,0,0:0:0:0:
315,230,6281,5,0,0:0:0:0:
442,192,6434,1,0,0:0:0:0:
326,242,6587,5,0,0:0:0:0:
453,172,6740,1,0,0:0:0:0:
340,252,6893,5,0,0:0:0:0:
460,147,7046,2,0,B|404:151|404:151|364:132|364:132|308:142,1,156.750004783631
230,187,7352,5,0,0:0:0:0:
230,187,7812,5,0,0:0:0:0:
288,325,7965,1,0,0:0:0:0:
392,134,8271,1,0,0:0:0:0:
230,187,8577,6,0,P|161:184|88:179,1,132.999995941162
6,309,9189,2,0,P|72:304|138:301,1,132.999995941162
284,350,9801,6,0,P|291:281|298:198,1,132.999995941162
440,280,10261,2,0,P|434:213|427:147,1,132.999995941162
376,53,10720,1,0,0:0:0:0:
273,23,10873,1,0,0:0:0:0:
181,77,11026,6,0,L|172:123,7,33.2499989852906
279,145,11638,2,0,L|288:191,7,33.2499989852906
143,232,12250,5,0,0:0:0:0:
143,232,12557,6,0,L|156:379,1,132.999995941162
154,364,13322,5,0,0:0:0:0:
154,364,13475,2,0,P|233:355|313:345,1,132.999995941162
371,310,13934,2,0,P|337:270|252:263,1,132.999995941162
170,282,14393,1,0,0:0:0:0:
78,266,14546,1,0,0:0:0:0:
23,190,14699,6,0,B|21:136|21:136|87:62,1,132.999995941162
188,22,15159,1,0,0:0:0:0:
188,22,15312,2,0,L|170:172,1,132.999995941162
266,95,15771,1,0,0:0:0:0:
266,95,15924,6,0,P|336:80|398:99,1,132.999995941162
461,210,16383,1,0,0:0:0:0:
461,210,16536,2,0,B|411:204|411:204|383:218|383:218|322:211,1,132.999995941162
207,193,16995,1,0,0:0:0:0:
313,333,17148,6,0,B|345:290|345:290|328:193,1,132.999995941162
426,182,17608,2,0,B|404:132|404:132|312:99,1,132.999995941162
351,8,18067,1,0,0:0:0:0:
235,66,18220,1,0,0:0:0:0:
235,66,18373,6,0,P|239:132|244:205,1,132.999995941162
344,296,18832,2,0,P|307:291|262:279,1,66.4999979705811
129,237,19138,2,0,P|169:199|254:203,1,132.999995941162
344,296,19597,6,0,P|365:238|357:161,1,132.999995941162
251,43,20057,1,0,0:0:0:0:
158,181,20210,2,0,P|190:182|237:176,1,66.4999979705811
412,74,20516,2,0,P|380:64|347:60,1,66.4999979705811
126,97,20822,5,0,0:0:0:0:
340,183,20975,1,0,0:0:0:0:
68,304,21128,1,0,0:0:0:0:
133,70,21434,5,0,0:0:0:0:
59,331,21587,1,0,0:0:0:0:
53,352,22046,6,0,P|129:293|215:323,1,190
322,236,22506,1,0,0:0:0:0:
196,180,22659,2,0,P|148:182|101:191,1,95
319,104,22965,2,0,P|307:57|300:4,1,95
440,47,23271,5,0,0:0:0:0:
402,228,23424,2,0,P|353:222|307:215,1,95
301,46,23730,5,0,0:0:0:0:
165,183,23883,1,0,0:0:0:0:
184,65,24036,5,0,0:0:0:0:
272,238,24189,1,0,0:0:0:0:
136,375,24342,6,0,B|195:335|195:335|315:356,1,190
369,199,24801,1,0,0:0:0:0:
472,316,24955,1,0,0:0:0:0:
354,190,25108,2,0,P|257:186|157:182,1,190
39,99,25567,1,0,0:0:0:0:
128,285,25720,5,0,0:0:0:0:
220,109,25873,2,0,P|176:93|116:104,1,95
21,275,26179,5,0,0:0:0:0:
164,182,26332,1,0,0:0:0:0:
128,285,26485,5,0,0:0:0:0:
39,99,26638,1,0,0:0:0:0:
164,182,26791,6,0,P|260:178|368:176,1,190
476,223,27250,1,0,0:0:0:0:
451,70,27403,1,0,0:0:0:0:
451,70,27480,1,0,0:0:0:0:
451,70,27557,2,0,P|404:67|352:65,1,95
180,156,27863,1,0,0:0:0:0:
252,35,28016,1,0,0:0:0:0:
329,225,28169,5,0,0:0:0:0:
211,298,28322,2,0,P|164:295|116:291,1,95
42,151,28628,1,0,0:0:0:0:
42,151,28704,1,0,0:0:0:0:
42,151,28781,2,0,P|89:149|136:146,1,95
307,40,29087,2,0,P|312:88|320:150,1,95
446,254,29393,6,0,P|353:248|241:243,1,190
97,227,29852,1,0,0:0:0:0:
229,331,30006,1,0,0:0:0:0:
67,220,30159,1,0,0:0:0:0:
239,149,30312,1,0,0:0:0:0:
151,375,30465,1,0,0:0:0:0:
151,375,30541,1,0,0:0:0:0:
151,375,30618,6,0,P|144:331|158:280,1,95
404,205,30924,1,0,0:0:0:0:
421,248,31000,1,0,0:0:0:0:
413,294,31077,1,0,0:0:0:0:
381,329,31153,1,0,0:0:0:0:
336,341,31230,1,0,0:0:0:0:
291,328,31306,1,0,0:0:0:0:
260,292,31383,6,0,P|254:260|250:217,1,56.9999982604981
388,111,31536,2,0,P|357:123|335:141,1,56.9999982604981
209,112,31689,2,0,P|196:137|191:165,1,56.9999982604981
151,375,31842,6,0,P|91:351|88:232,1,190
54,91,32301,1,0,0:0:0:0:
208,112,32455,2,0,P|256:110|303:106,1,95
375,271,32761,2,0,P|327:267|280:265,1,95
406,70,33067,6,0,P|401:117|395:165,1,95
194,325,33373,2,0,P|192:278|189:231,1,95
375,271,33679,1,0,0:0:0:0:
302,106,33832,1,0,0:0:0:0:
189,231,33985,2,0,P|141:227|78:222,1,95
55,60,34291,5,0,0:0:0:0:
141,24,34444,1,0,0:0:0:0:
233,41,34597,1,0,0:0:0:0:
302,106,34750,1,0,0:0:0:0:
323,196,34903,6,0,L|314:306,1,95
223,169,35210,1,0,0:0:0:0:
414,151,35363,6,0,L|398:340,1,190
398,340,35822,1,0,0:0:0:0:
291,229,35975,2,0,P|248:213|184:221,1,95
62,351,36281,2,0,P|108:361|161:349,1,95
42,154,36587,1,0,0:0:0:0:
42,154,36664,1,0,0:0:0:0:
42,154,36740,6,0,L|46:266,1,95
62,351,37046,1,0,0:0:0:0:
239,211,37199,1,0,0:0:0:0:
279,344,37352,5,0,0:0:0:0:
127,228,37506,1,0,0:0:0:0:
303,154,37659,1,0,0:0:0:0:
227,261,37812,1,0,0:0:0:0:
174,127,37965,5,0,0:0:0:0:
408,225,38118,1,0,0:0:0:0:
310,48,38271,1,0,0:0:0:0:
227,261,38424,1,0,0:0:0:0:
351,147,38577,5,0,0:0:0:0:
404,133,38653,1,0,0:0:0:0:
457,150,38730,1,0,0:0:0:0:
492,193,38806,1,0,0:0:0:0:
498,248,38883,2,0,L|482:316,1,56.9999982604981
346,377,39036,2,0,L|344:320,1,56.9999982604981
269,174,39189,6,0,P|200:168|144:210,1,142.5
126,240,39495,1,0,0:0:0:0:
218,354,39648,1,0,0:0:0:0:
341,220,39801,2,0,P|350:175|338:122,1,95
261,37,40108,1,0,0:0:0:0:
110,172,40261,6,0,P|188:217|268:173,1,190
261,37,40720,1,0,0:0:0:0:
408,104,40873,2,0,P|400:173|390:257,1,142.5
405,287,41179,2,0,P|376:283|340:274,1,47.5
238,234,41332,1,0,0:0:0:0:
194,214,41408,1,0,0:0:0:0:
147,212,41485,1,0,0:0:0:0:
102,226,41561,1,0,0:0:0:0:
66,256,41638,6,0,P|21:203|62:88,1,190
52,95,42097,1,0,0:0:0:0:
276,34,42250,1,0,0:0:0:0:
213,208,42403,1,0,0:0:0:0:
213,208,42557,2,0,P|162:216|102:197,1,95
276,34,42863,6,0,P|345:54|347:180,1,190
210,125,43322,1,0,0:0:0:0:
313,263,43475,1,0,0:0:0:0:
161,233,43628,1,0,0:0:0:0:
363,159,43781,1,0,0:0:0:0:
331,370,43934,1,0,0:0:0:0:
85,239,44087,6,0,P|108:177|221:183,1,190
306,86,44546,1,0,0:0:0:0:
161,233,44699,6,0,B|164:305|171:370|171:370|224:335,1,190
306,86,45159,1,0,0:0:0:0:
424,259,45312,6,0,P|330:256|235:254,1,190
57,343,45771,1,0,0:0:0:0:
136,157,45924,1,0,0:0:0:0:
236,349,46077,1,0,0:0:0:0:
37,250,46230,1,0,0:0:0:0:
230,138,46383,1,0,0:0:0:0:
357,276,46536,6,0,B|393:230|393:230|360:88,1,190
230,138,46995,1,0,0:0:0:0:
314,348,47148,2,0,P|360:356|405:343,1,95
215,253,47455,2,0,P|184:288|172:334,1,95
346,214,47761,6,0,P|333:144|223:145,1,190
137,58,48220,1,0,0:0:0:0:
41,213,48373,2,0,P|88:214|136:213,1,95
415,109,48679,2,0,P|367:105|320:100,1,95
137,58,48985,5,0,0:0:0:0:
74,326,49138,1,0,0:0:0:0:
70,346,49444,5,0,0:0:0:0:
406,259,49597,1,0,0:0:0:0:
427,249,49903,5,0,0:0:0:0:
51,170,50057,1,0,0:0:0:0:
51,170,50669,1,0,0:0:0:0:
51,170,50822,6,0,L|152:164,1,85.4999973907472
228,111,51128,2,0,L|384:129,1,128.249996086121
355,125,51434,6,0,B|423:142|473:107|473:107|499:167|462:233,1,246.999988693238
241,203,51893,2,0,P|227:159|229:103,1,95
382,212,52199,1,0,0:0:0:0:
236,305,52352,2,0,P|193:287|151:249,1,95
86,47,52659,6,0,P|88:121|89:195,1,142.5
61,223,52965,2,0,L|52:122,1,95
259,161,53271,1,0,0:0:0:0:
140,31,53424,1,0,0:0:0:0:
280,158,53577,2,0,L|266:261,1,95
268,290,53807,1,0,0:0:0:0:
268,290,53883,6,0,P|220:284|159:277,1,95
47,343,54189,1,0,0:0:0:0:
110,174,54342,1,0,0:0:0:0:
110,174,54419,1,0,0:0:0:0:
110,174,54495,1,0,0:0:0:0:
280,158,54648,1,0,0:0:0:0:
165,370,54801,2,0,P|160:322|179:268,1,95
397,250,55108,5,0,0:0:0:0:
249,325,55261,1,0,0:0:0:0:
397,78,55414,2,0,P|408:140|415:226,1,142.5
397,250,55720,2,0,P|350:245|294:239,1,95
78,134,56026,2,0,P|125:128|172:123,1,95
441,343,56332,6,0,P|409:299|252:327,1,190
85,372,56791,2,0,P|132:373|177:360,1,95
145,145,57097,2,0,P|147:192|170:233,1,95
373,180,57403,1,0,0:0:0:0:
373,180,57480,1,0,0:0:0:0:
373,180,57557,6,0,P|325:176|267:171,1,95
57,117,57863,2,0,P|116:65|223:95,2,190
45,221,58628,1,0,0:0:0:0:
128,338,58781,6,0,B|185:358|256:333|256:333|197:297,1,190
227,108,59240,1,0,0:0:0:0:
321,277,59393,1,0,0:0:0:0:
145,196,59546,1,0,0:0:0:0:
335,159,59699,2,0,P|386:165|440:172,1,95
331,58,60006,5,0,0:0:0:0:
252,249,60159,1,0,0:0:0:0:
150,112,60312,1,0,0:0:0:0:
98,319,60465,1,0,0:0:0:0:
344,308,60618,5,0,0:0:0:0:
137,229,60771,1,0,0:0:0:0:
335,159,60924,1,0,0:0:0:0:
107,59,61077,1,0,0:0:0:0:
150,313,61230,6,0,P|203:289|200:170,1,190
107,59,61689,1,0,0:0:0:0:
24,179,61842,2,0,P|71:182|131:171,1,95
314,50,62148,2,0,P|268:39|221:38,1,95
268,218,62455,6,0,B|326:227|363:198|363:198|401:225|449:214,1,190
364,66,62914,1,0,0:0:0:0:
364,66,63067,2,0,P|325:94|303:146,1,95
167,209,63373,2,0,P|172:256|206:301,1,95
439,312,63679,6,0,B|386:312|293:304|293:304|316:323|362:357,1,190
268,218,64138,1,0,0:0:0:0:
268,218,64215,1,0,0:0:0:0:
268,218,64291,1,0,0:0:0:0:
173,367,64444,1,0,0:0:0:0:
144,230,64597,2,0,L|249:220,1,95
442,224,64903,5,0,0:0:0:0:
293,320,65057,1,0,0:0:0:0:
467,240,65210,1,0,0:0:0:0:
318,126,65363,1,0,0:0:0:0:
279,343,65516,2,0,L|380:337,1,95
169,143,65822,2,0,P|170:190|186:235,1,95
407,188,66128,6,0,B|370:151|313:140|257:176|257:176|284:193,1,190
349,292,66587,1,0,0:0:0:0:
189,251,66740,1,0,0:0:0:0:
355,316,66893,1,0,0:0:0:0:
166,229,67046,2,0,P|165:278|166:335,1,95
298,212,67352,5,0,0:0:0:0:
98,105,67506,1,0,0:0:0:0:
166,229,67659,1,0,0:0:0:0:
224,64,67812,1,0,0:0:0:0:
368,284,67965,5,0,0:0:0:0:
166,229,68118,1,0,0:0:0:0:
381,127,68271,2,0,L|282:130,1,95
75,219,68577,6,0,P|79:269|86:337,1,95
156,137,68883,1,0,0:0:0:0:
278,283,69036,1,0,0:0:0:0:
210,63,69189,1,0,0:0:0:0:
431,138,69342,1,0,0:0:0:0:
444,326,69495,5,0,0:0:0:0:
401,365,69571,1,0,0:0:0:0:
343,369,69648,1,0,0:0:0:0:
294,337,69724,1,0,0:0:0:0:
278,283,69801,1,0,0:0:0:0:
159,96,71026,5,0,0:0:0:0:
162,123,71179,1,0,0:0:0:0:
165,153,71332,1,0,0:0:0:0:
168,180,71485,1,0,0:0:0:0:
238,84,71791,5,0,0:0:0:0:
241,111,71944,1,0,0:0:0:0:
320,69,72250,5,0,0:0:0:0:
323,99,72710,1,0,0:0:0:0:
326,126,72863,1,0,0:0:0:0:
329,153,73169,1,0,0:0:0:0:
482,314,73475,5,0,0:0:0:0:
442,246,73628,1,0,0:0:0:0:
365,231,73781,1,0,0:0:0:0:
304,278,73934,1,0,0:0:0:0:
304,278,74240,5,0,0:0:0:0:
243,325,74393,1,0,0:0:0:0:
166,310,74546,1,0,0:0:0:0:
126,242,74699,1,0,0:0:0:0:
255,194,75159,5,0,0:0:0:0:
338,70,75312,2,0,P|340:101|348:134,1,47.5
444,168,75618,2,0,P|437:190|433:214,1,47.5
412,329,75924,6,0,P|348:324|231:317,1,152
150,270,76383,1,0,0:0:0:0:
150,270,76536,2,0,P|153:311|158:353,1,76
58,215,76842,2,0,P|55:252|51:290,1,76
52,127,77148,5,0,0:0:0:0:
52,127,77455,2,0,L|43:39,1,76
135,151,77761,2,0,L|126:63,1,76
218,175,78067,2,0,L|209:87,1,76
301,199,78373,6,0,L|284:32,1,152
374,23,78832,1,0,0:0:0:0:
454,66,78985,1,0,0:0:0:0:
485,153,79138,1,0,0:0:0:0:
448,236,79291,2,0,P|410:235|342:232,1,76
185,193,79597,5,0,0:0:0:0:
344,340,79750,1,0,0:0:0:0:
149,307,79903,1,0,0:0:0:0:
364,153,80057,1,0,0:0:0:0:
154,330,80210,5,0,0:0:0:0:
433,298,80363,1,0,0:0:0:0:
210,183,80516,1,0,0:0:0:0:
316,365,80669,1,0,0:0:0:0:
497,230,80822,6,0,B|440:197|440:197|316:225,1,190
93,250,81281,1,0,0:0:0:0:
210,183,81434,2,0,P|215:133|219:78,1,95
63,28,81740,2,0,P|66:75|71:122,1,95
74,272,82046,6,0,B|168:224|169:311|267:264,1,190
410,200,82506,1,0,0:0:0:0:
410,200,82659,2,0,P|415:252|435:328,1,95
269,169,82965,2,0,P|279:122|285:75,1,95
30,113,83271,6,0,L|197:106,1,142.5
199,105,83577,1,0,0:0:0:0:
40,224,83730,2,0,L|155:219,1,95
343,139,84036,1,0,0:0:0:0:
278,277,84189,1,0,0:0:0:0:
199,105,84342,1,0,0:0:0:0:
233,362,84495,6,0,P|281:371|332:362,1,95
426,205,84801,1,0,0:0:0:0:
255,173,84955,1,0,0:0:0:0:
443,223,85108,2,0,P|438:175|436:128,1,95
303,26,85414,2,0,P|263:61|246:148,1,142.5
255,173,85720,6,0,P|263:220|261:291,1,95
145,204,86026,1,0,0:0:0:0:
333,114,86179,1,0,0:0:0:0:
333,114,86256,1,0,0:0:0:0:
333,114,86332,1,0,0:0:0:0:
188,38,86485,1,0,0:0:0:0:
441,19,86638,2,0,P|437:66|434:113,1,95
202,236,86944,5,0,0:0:0:0:
333,114,87097,1,0,0:0:0:0:
377,279,87250,1,0,0:0:0:0:
218,122,87403,2,0,P|148:120|59:118,1,142.5
39,136,87710,1,0,0:0:0:0:
172,268,87863,2,0,P|220:277|278:261,1,95
428,139,88169,6,0,P|380:127|321:140,1,95
112,336,88475,1,0,0:0:0:0:
193,170,88628,1,0,0:0:0:0:
422,330,88781,1,0,0:0:0:0:
335,134,88934,1,0,0:0:0:0:
259,362,89087,6,0,L|265:249,1,95
266,234,89317,1,0,0:0:0:0:
266,234,89393,1,0,0:0:0:0:
154,276,89546,1,0,0:0:0:0:
335,134,89699,1,0,0:0:0:0:
180,29,89852,6,0,P|170:75|167:124,1,95
363,218,90159,2,0,P|377:173|371:126,1,95
324,88,90388,2,0,B|324:115|338:141,1,47.5
