osu file format v14

[General]
AudioFilename: audio.ogg
AudioLeadIn: 0
PreviewTime: 53715
Countdown: 0
SampleSet: Soft
StackLeniency: 0.7
Mode: 0
LetterboxInBreaks: 0
WidescreenStoryboard: 1

[Editor]
DistanceSpacing: 1
BeatDivisor: 4
GridSize: 32
TimelineZoom: 1.4

[Metadata]
Title:Nanairo*Namida (TV Size)
TitleUnicode:なないろ☆ナミダ (TV Size)
Artist:Tomato n' Pine
ArtistUnicode:Tomato n' Pine
Creator:Enneya
Version:Normal
Source:べるぜバブ
Tags:een persoon japanese anime ending ed beelzebub pop
BeatmapID:4076133
BeatmapSetID:1965618

[Difficulty]
HPDrainRate:4
CircleSize:3.5
OverallDifficulty:4
ApproachRate:5
SliderMultiplier:1.2
SliderTickRate:1

[Events]
//Background and Video events
0,0,"88508456_p0.jpg",0,0
Video,-450,"video.avi"
//Break Periods
//Storyboard Layer 0 (Background)
//Storyboard Layer 1 (Fail)
//Storyboard Layer 2 (Pass)
//Storyboard Layer 3 (Foreground)
//Storyboard Layer 4 (Overlay)
//Storyboard Sound Samples

[TimingPoints]
1682,472.44094488189,4,2,1,50,1,0
1682,-111.111111111111,4,2,1,50,0,0
14910,-111.111111111111,4,2,1,60,0,0
16800,-100,4,2,1,70,0,0
24359,-111.111111111111,4,2,1,60,0,0
39477,-111.111111111111,4,2,1,50,0,0
50815,-111.111111111111,4,2,1,60,0,0
54595,-100,4,2,1,70,0,0
86721,-100,4,2,1,50,0,0
87193,-100,4,2,1,40,0,0
87666,-100,4,2,1,30,0,0
88138,-100,4,2,1,20,0,0
88611,-100,4,2,1,5,0,0

[Colours]
Combo1 : 219,136,217
Combo2 : 253,189,119
Combo3 : 139,123,185
Combo4 : 251,146,140

[HitObjects]
69,363,1682,6,0,P|74:315|87:256,1,107.999996704102,6|2,0:0|3:2,0:0:0:0:
48,218,2390,1,2,3:2:0:0:
48,218,2626,2,0,P|44:164|30:111,1,107.999996704102,2|2,3:2|0:0,0:0:0:0:
109,37,3571,1,0,3:2:0:0:
206,84,4044,2,0,L|269:73,1,53.9999983520508,2|2,3:2|3:2,0:0:0:0:
297,36,4516,2,0,L|409:46,1,107.999996704102,2|2,3:2|0:0,0:0:0:0:
496,179,5697,6,0,L|384:169,1,107.999996704102,2|2,0:0|3:2,0:0:0:0:
350,131,6406,2,0,L|238:141,1,107.999996704102,2|2,3:2|0:0,0:0:0:0:
168,219,7351,1,2,3:2:0:0:
79,167,7823,1,2,3:2:0:0:
79,167,8059,2,0,P|37:212|45:311,1,161.999995056153,2|2,3:2|0:0,0:0:0:0:
139,355,9241,6,0,P|191:343|245:337,1,107.999996704102,0|2,3:2|3:2,0:0:0:0:
290,366,9949,2,0,P|343:371|396:383,1,107.999996704102,2|2,3:2|0:0,0:0:0:0:
434,345,10658,1,2,0:0:0:0:
371,256,11130,6,0,P|391:215|376:142,1,107.999996704102,0|2,3:2|3:2,0:0:0:0:
421,116,11839,1,2,3:2:0:0:
343,48,12311,1,2,0:0:0:0:
343,48,12548,2,0,P|290:59|236:65,1,107.999996704102,2|0,0:0|3:2,0:0:0:0:
142,12,13493,1,2,0:0:0:0:
62,84,13965,1,2,0:0:0:0:
134,164,14437,1,2,0:0:0:0:
248,153,14910,5,4,3:2:0:0:
248,153,15146,1,2,3:2:0:0:
248,153,15382,2,0,L|362:136,1,107.999996704102,2|2,3:2|0:0,0:0:0:0:
393,99,16091,2,0,P|445:93|493:117,1,107.999996704102,6|0,1:2|0:0,0:0:0:0:
511,174,16800,5,4,1:0:0:0:
487,291,17272,2,0,L|416:277,1,60,10|2,0:0|0:0,0:0:0:0:
385,237,17744,2,0,L|257:261,1,120,2|10,1:2|0:0,0:0:0:0:
211,251,18453,1,0,0:0:0:0:
211,251,18689,1,2,1:2:0:0:
139,348,19162,1,8,0:0:0:0:
139,348,19398,2,0,P|87:355|27:313,1,120,2|2,0:0|0:0,0:0:0:0:
7,265,20107,1,10,0:0:0:0:
72,164,20579,6,0,P|58:105|47:46,1,120,2|10,1:2|0:0,0:0:0:0:
82,0,21288,1,0,0:0:0:0:
82,0,21524,2,0,P|139:-7|196:29,1,120,2|10,1:2|0:0,0:0:0:0:
318,48,22469,1,2,1:2:0:0:
318,48,22705,1,2,3:2:0:0:
318,48,22941,2,0,L|298:175,1,120,10|2,0:0|1:2,0:0:0:0:
256,209,23650,1,2,1:2:0:0:
256,209,23886,2,0,L|269:274,1,60,8|4,0:3|0:3,0:0:0:0:
279,320,24359,5,4,1:2:0:0:
383,344,24831,2,0,L|499:366,2,107.999996704102,10|2|10,0:0|1:2|0:0,0:0:0:0:
395,291,26012,2,0,P|389:239|413:191,1,107.999996704102,2|2,0:0|0:0,0:0:0:0:
496,121,26957,1,2,0:0:0:0:
412,52,27430,2,0,P|356:60|296:74,1,107.999996704102,2|2,0:0|0:0,0:0:0:0:
267,109,28138,6,0,P|211:100|151:87,1,107.999996704102,2|10,1:2|0:0,0:0:0:0:
88,16,29083,1,2,1:2:0:0:
88,16,29319,1,2,0:0:0:0:
5,86,29792,2,0,L|38:205,1,107.999996704102,2|2,0:0|0:0,0:0:0:0:
83,222,30500,1,10,0:0:0:0:
83,222,30737,1,2,0:0:0:0:
44,322,31209,2,0,L|23:384,2,53.9999983520508,2|10|2,0:0|0:0|0:0,0:0:0:0:
97,311,31918,5,0,1:2:0:0:
190,365,32390,2,0,L|249:354,1,53.9999983520508,10|0,0:0|0:0,0:0:0:0:
281,316,32863,2,0,P|328:328|393:337,1,107.999996704102,2|10,1:2|0:0,0:0:0:0:
463,260,33807,2,0,P|436:226|444:157,1,107.999996704102,2|10,1:2|0:0,0:0:0:0:
477,125,34516,1,2,0:0:0:0:
417,35,34989,1,2,0:0:0:0:
316,67,35461,5,2,0:0:0:0:
316,67,35697,2,0,P|323:120|336:172,1,107.999996704102,2|8,1:2|0:0,0:0:0:0:
237,216,36642,2,0,P|244:269|257:321,1,107.999996704102,0|8,1:2|0:0,0:0:0:0:
221,362,37351,1,2,0:0:0:0:
221,362,37587,2,0,P|168:368|125:338,1,107.999996704102,2|10,1:2|0:0,0:0:0:0:
44,283,38532,1,8,0:0:0:0:
44,283,38768,1,8,0:0:0:0:
44,283,39004,1,8,0:0:0:0:
93,185,39477,6,0,P|66:90|54:17,2,161.999995056153,4|0|8,1:2|1:2|0:0,0:0:0:0:
192,141,41367,2,0,P|233:147|303:152,1,107.999996704102,0|8,1:2|0:0,0:0:0:0:
337,113,42075,2,0,P|390:109|444:102,1,107.999996704102,0|0,1:2|1:2,0:0:0:0:
507,196,43020,1,2,1:2:0:0:
507,196,43256,1,2,1:2:0:0:
426,267,43729,5,8,0:0:0:0:
426,267,43965,2,0,P|419:319|449:362,2,107.999996704102,0|0|2,1:2|1:2|0:0,0:0:0:0:
387,228,45146,1,0,1:2:0:0:
279,214,45619,1,8,0:0:0:0:
204,292,46091,2,0,L|217:380,2,80.9999975280763,0|0|0,1:2|1:2|1:2,0:0:0:0:
165,253,47036,6,0,P|186:169|194:79,2,161.999995056153,4|0|8,1:2|1:2|0:0,0:0:0:0:
140,358,48926,2,0,P|99:364|29:369,1,107.999996704102,0|8,1:2|0:0,0:0:0:0:
7,327,49634,1,0,1:2:0:0:
7,327,49870,1,0,1:2:0:0:
78,246,50343,1,12,0:0:0:0:
56,140,50815,6,0,L|36:45,2,80.9999975280763,6|2|2,1:2|0:0|0:0,0:0:0:0:
102,167,51760,1,2,1:2:0:0:
185,97,52233,2,0,P|233:93|293:127,1,107.999996704102,10|2,0:0|1:2,0:0:0:0:
327,161,52941,1,8,0:0:0:0:
327,161,53178,2,0,L|315:224,1,53.9999983520508,8|2,0:0|1:2,0:0:0:0:
274,246,53650,5,10,0:0:0:0:
286,298,53886,1,10,0:0:0:0:
455,358,54595,6,0,P|470:301|478:233,1,120,4|10,1:0|0:0,0:0:0:0:
438,201,55304,1,2,0:0:0:0:
438,201,55540,2,0,P|430:141|415:83,1,120,2|10,1:2|0:0,0:0:0:0:
439,28,56248,1,2,0:0:0:0:
324,10,56721,1,0,0:0:0:0:
324,10,56957,2,0,L|256:26,1,60,10|2,0:0|0:0,0:0:0:0:
223,66,57430,2,0,P|118:44|84:33,1,120,2|10,1:2|0:0,0:0:0:0:
73,158,58374,5,0,1:2:0:0:
73,158,58611,2,0,L|3:175,2,60,2|10|2,0:0|0:0|0:0,0:0:0:0:
115,200,59319,2,0,P|172:209|233:161,1,120,2|10,1:2|0:0,0:0:0:0:
307,92,60264,2,0,L|424:125,1,120,2|10,1:2|0:0,0:0:0:0:
484,145,60973,1,2,0:0:0:0:
484,145,61209,2,0,L|502:68,2,60,2|2|10,1:2|0:0|0:0,0:0:0:0:
453,261,62154,6,0,P|398:247|327:233,1,120,0|10,1:2|0:0,0:0:0:0:
293,277,62863,2,0,P|238:286|176:303,1,120,2|2,0:0|0:0,0:0:0:0:
133,345,63571,1,10,0:0:0:0:
30,293,64044,1,2,1:2:0:0:
30,293,64280,2,0,L|43:219,1,60,2|8,0:0|0:0,0:0:0:0:
83,191,64752,1,2,0:0:0:0:
83,191,64989,2,0,L|61:62,1,120,2|10,1:2|0:0,0:0:0:0:
180,52,65933,6,0,P|242:45|309:30,1,120,2|10,1:2|0:0,0:0:0:0:
347,67,66642,1,2,0:0:0:0:
462,33,67115,2,0,P|471:90|423:151,1,120,2|2,0:0|0:0,0:0:0:0:
424,199,67823,2,0,P|365:186|305:179,1,120,2|8,1:2|0:0,0:0:0:0:
263,137,68532,1,0,3:2:0:0:
150,167,69004,1,4,1:2:0:0:
33,196,69477,1,4,0:3:0:0:
48,253,69713,6,0,P|23:301|34:368,1,120,4|10,1:0|0:0,0:0:0:0:
93,384,70422,1,2,0:0:0:0:
93,384,70658,2,0,P|144:372|223:363,1,120,2|10,1:2|0:0,0:0:0:0:
270,372,71367,1,2,0:0:0:0:
364,296,71839,1,2,0:0:0:0:
364,296,72075,2,0,L|430:312,1,60,10|2,0:0|0:0,0:0:0:0:
481,323,72548,1,2,1:2:0:0:
511,206,73020,2,0,P|486:158|497:91,1,120,10|0,0:0|1:2,0:0:0:0:
456,55,73729,5,2,0:0:0:0:
456,55,73965,2,0,L|390:71,1,60,10|2,0:0|0:0,0:0:0:0:
365,119,74437,2,0,P|310:110|241:88,1,120,2|10,1:2|0:0,0:0:0:0:
150,21,75382,2,0,P|91:11|38:37,1,120,2|10,1:2|0:0,0:0:0:0:
4,86,76091,1,2,0:0:0:0:
52,201,76563,1,2,0:0:0:0:
52,201,76800,2,0,L|38:281,1,60,10|2,0:0|0:0,0:0:0:0:
36,319,77272,6,0,P|105:307|156:304,1,120,6|10,1:2|0:0,0:0:0:0:
197,261,77981,2,0,P|266:273|317:276,1,120,2|2,0:0|0:0,0:0:0:0:
358,318,78689,1,10,0:0:0:0:
460,255,79162,2,0,L|446:189,1,60,0|0,1:2|0:0,0:0:0:0:
437,141,79634,1,10,0:0:0:0:
437,141,79870,2,0,P|447:82|421:29,1,120,2|2,0:0|0:0,0:0:0:0:
367,3,80579,2,0,L|238:35,1,120,10|6,0:0|1:2,0:0:0:0:
165,116,81524,6,0,P|74:90|28:81,2,120,10|2|10,0:0|1:2|0:0,0:0:0:0:
225,140,82705,1,2,0:0:0:0:
225,140,82941,1,6,1:2:0:0:
317,233,83414,1,2,3:2:0:0:
317,233,83650,1,2,3:2:0:0:
317,233,83886,2,0,P|308:270|302:321,1,90,2|2,1:2|0:0,0:0:0:0:
230,377,84595,5,4,1:1:0:0:
256,192,84831,12,0,88611,0:0:0:0:
