osu file format v14

[General]
AudioFilename: audio.ogg
AudioLeadIn: 0
PreviewTime: 53715
Countdown: 0
SampleSet: Soft
StackLeniency: 0.7
Mode: 0
LetterboxInBreaks: 0
WidescreenStoryboard: 1

[Editor]
DistanceSpacing: 1
BeatDivisor: 4
GridSize: 32
TimelineZoom: 1.4

[Metadata]
Title:Nanairo*Namida (TV Size)
TitleUnicode:なないろ☆ナミダ (TV Size)
Artist:Tomato n' Pine
ArtistUnicode:Tomato n' Pine
Creator:Enneya
Version:Insane
Source:べるぜバブ
Tags:een persoon japanese anime ending ed beelzebub pop
BeatmapID:4075892
BeatmapSetID:1965618

[Difficulty]
HPDrainRate:6
CircleSize:4
OverallDifficulty:7
ApproachRate:8
SliderMultiplier:1.8
SliderTickRate:1

[Events]
//Background and Video events
0,0,"88508456_p0.jpg",0,0
Video,-450,"video.avi"
//Break Periods
//Storyboard Layer 0 (Background)
//Storyboard Layer 1 (Fail)
//Storyboard Layer 2 (Pass)
//Storyboard Layer 3 (Foreground)
//Storyboard Layer 4 (Overlay)
//Storyboard Sound Samples

[TimingPoints]
1682,472.44094488189,4,2,1,50,1,0
1682,-111.111111111111,4,2,1,50,0,0
14910,-111.111111111111,4,2,1,60,0,0
16800,-100,4,2,1,70,0,0
24359,-111.111111111111,4,2,1,60,0,0
39477,-111.111111111111,4,2,1,50,0,0
50815,-111.111111111111,4,2,1,60,0,0
54595,-100,4,2,1,70,0,0
84595,-142.857142857143,4,2,1,70,0,0
86721,-100,4,2,1,50,0,0
87193,-100,4,2,1,40,0,0
87666,-100,4,2,1,30,0,0
88138,-100,4,2,1,20,0,0
88611,-100,4,2,1,5,0,0

[Colours]
Combo1 : 219,136,217
Combo2 : 253,189,119
Combo3 : 139,123,185
Combo4 : 251,146,140

[HitObjects]
95,197,1682,6,0,L|264:216,1,161.999995056153,6|2,0:0|3:2,0:0:0:0:
345,224,2390,1,2,3:2:0:0:
242,132,2626,2,0,P|292:126|336:116,1,80.9999975280763,2|0,3:2|0:0,0:0:0:0:
434,232,3099,2,0,P|426:192|421:152,1,80.9999975280763,2|2,0:0|3:2,0:0:0:0:
247,384,3571,6,0,L|235:302,1,80.9999975280763,0|2,3:2|0:0,0:0:0:0:
218,195,4044,1,2,3:2:0:0:
138,276,4280,1,2,3:2:0:0:
291,231,4516,2,0,P|211:210|134:174,1,161.999995056153,2|2,3:2|0:0,0:0:0:0:
139,176,5225,1,0,3:2:0:0:
25,351,5461,6,0,P|99:335|131:335,1,80.9999975280763,2|2,0:0|0:0,0:0:0:0:
104,334,5815,1,2,0:0:0:0:
104,334,5933,1,2,3:2:0:0:
68,202,6170,1,2,3:2:0:0:
180,282,6406,2,0,L|262:294,1,80.9999975280763,2|0,3:2|0:0,0:0:0:0:
323,356,6878,2,0,L|405:368,1,80.9999975280763,2|2,0:0|3:2,0:0:0:0:
311,204,7351,6,0,P|353:168|460:183,1,161.999995056153,2|2,3:2|3:2,0:0:0:0:
512,108,8059,1,2,3:2:0:0:
405,0,8296,2,0,L|423:81,1,80.9999975280763,0|2,3:2|0:0,0:0:0:0:
241,172,8768,5,2,0:0:0:0:
262,86,9004,1,2,3:2:0:0:
283,0,9241,2,0,P|171:16|113:20,1,161.999995056153,0|2,3:2|3:2,0:0:0:0:
96,174,9949,2,0,P|45:167|3:156,1,80.9999975280763,2|0,3:2|3:2,0:0:0:0:
32,80,10422,1,2,0:0:0:0:
185,110,10658,2,0,L|264:125,1,80.9999975280763,2|2,0:0|3:2,0:0:0:0:
327,188,11130,6,0,P|407:180|487:168,1,161.999995056153,0|2,3:2|3:2,0:0:0:0:
338,77,11839,1,2,3:2:0:0:
444,11,12075,2,0,L|428:96,1,80.9999975280763,0|2,3:2|0:0,0:0:0:0:
327,188,12548,2,0,L|357:349,1,161.999995056153,2|0,0:0|3:2,0:0:0:0:
356,347,13493,6,0,P|402:359|442:362,1,80.9999975280763,2|0,0:0|3:2,0:0:0:0:
231,230,13965,2,0,P|185:242|145:245,1,80.9999975280763,2|0,0:0|0:0,0:0:0:0:
267,365,14437,2,0,P|226:360|187:350,1,80.9999975280763,2|2,0:0|0:0,0:0:0:0:
37,128,14910,5,4,3:2:0:0:
44,167,15028,1,0,3:2:0:0:
51,207,15146,1,2,3:2:0:0:
58,247,15264,1,0,3:2:0:0:
65,287,15382,1,2,3:2:0:0:
72,327,15500,1,0,3:2:0:0:
78,366,15619,2,0,P|118:361|157:351,1,80.9999975280763,2|2,3:2|0:0,0:0:0:0:
380,129,16091,6,0,L|350:290,1,161.999995056153,6|0,1:2|0:0,0:0:0:0:
143,16,16800,6,0,L|156:109,1,90,4|0,1:0|0:0,0:0:0:0:
26,219,17272,1,10,0:0:0:0:
1,74,17508,1,2,0:0:0:0:
172,195,17744,2,0,P|223:190|265:182,1,90,2|0,1:2|0:0,0:0:0:0:
328,34,18217,2,0,P|277:39|235:47,1,90,10|0,0:0|0:0,0:0:0:0:
443,256,18689,6,0,P|496:186|468:101,1,180,2|8,1:2|0:0,0:0:0:0:
341,244,19398,2,0,L|248:231,1,90,2|0,0:0|1:2,0:0:0:0:
461,365,19870,1,2,0:0:0:0:
461,365,19989,1,2,0:0:0:0:
461,365,20107,2,0,L|368:352,1,90,10|0,0:0|0:0,0:0:0:0:
153,153,20579,6,0,P|160:197|165:242,1,90,2|0,1:2|0:0,0:0:0:0:
66,357,21052,2,0,P|58:312|53:267,1,90,10|0,0:0|0:0,0:0:0:0:
273,186,21524,1,2,1:2:0:0:
183,342,21760,1,0,0:0:0:0:
42,180,21996,2,0,L|135:193,1,90,10|0,0:0|0:0,0:0:0:0:
386,48,22469,5,2,1:2:0:0:
378,93,22587,1,0,3:2:0:0:
370,137,22705,1,2,3:2:0:0:
362,181,22823,1,0,3:2:0:0:
354,225,22941,2,0,L|417:236,1,45,10|0,0:0|3:2,0:0:0:0:
484,254,23178,1,8,0:3:0:0:
484,254,23296,1,8,0:0:0:0:
484,254,23414,1,2,1:2:0:0:
301,61,23650,6,0,L|237:72,1,45,2|0,1:2|3:2,0:0:0:0:
201,124,23886,1,8,0:3:0:0:
156,116,24004,1,8,0:3:0:0:
112,108,24123,1,4,0:3:0:0:
68,100,24241,1,4,0:3:0:0:
23,92,24359,1,4,1:2:0:0:
23,92,24831,6,0,L|107:79,1,80.9999975280763,10|0,0:0|0:0,0:0:0:0:
235,154,25304,2,0,P|265:98|245:6,1,161.999995056153,2|10,1:2|0:0,0:0:0:0:
154,141,26012,1,2,0:0:0:0:
320,82,26248,5,0,1:2:0:0:
320,82,26485,2,0,L|333:166,1,80.9999975280763,2|8,0:0|0:0,0:0:0:0:
269,224,26957,2,0,L|256:308,1,80.9999975280763,2|0,0:0|1:2,0:0:0:0:
395,367,27430,1,2,0:0:0:0:
395,367,27548,1,0,0:0:0:0:
395,367,27666,2,0,P|403:327|406:287,1,80.9999975280763,8|2,0:0|0:0,0:0:0:0:
197,364,28138,6,0,L|31:339,1,161.999995056153,2|10,1:2|0:0,0:0:0:0:
156,255,28847,1,0,0:0:0:0:
35,162,29083,1,2,1:2:0:0:
35,162,29319,2,0,P|40:204|50:242,1,80.9999975280763,2|8,0:0|0:0,0:0:0:0:
193,137,29792,2,0,P|188:95|178:57,1,80.9999975280763,2|0,0:0|1:2,0:0:0:0:
292,209,30264,5,2,0:0:0:0:
385,227,30500,1,10,0:0:0:0:
488,252,30737,1,2,0:0:0:0:
488,252,30855,1,0,0:0:0:0:
488,252,30973,1,0,1:2:0:0:
347,150,31209,5,2,0:0:0:0:
375,312,31445,1,10,0:0:0:0:
208,189,31682,1,2,0:0:0:0:
236,350,31918,1,0,1:2:0:0:
236,350,32390,6,0,L|101:330,1,121.499996292114,10|0,0:0|0:0,0:0:0:0:
68,273,32863,2,0,L|-13:294,1,80.9999975280763,2|0,1:2|0:0,0:0:0:0:
114,110,33335,2,0,P|123:149|134:188,1,80.9999975280763,10|0,0:0|0:0,0:0:0:0:
348,292,33807,6,0,P|339:253|328:214,1,80.9999975280763,2|0,1:2|0:0,0:0:0:0:
258,352,34280,1,10,0:0:0:0:
422,384,34516,2,0,P|441:285|444:212,1,161.999995056153,2|2,0:0|0:0,0:0:0:0:
408,52,35225,1,8,0:0:0:0:
502,123,35461,1,2,0:0:0:0:
339,151,35697,6,0,P|298:109|200:114,1,161.999995056153,2|8,1:2|0:0,0:0:0:0:
90,87,36406,1,2,0:0:0:0:
176,234,36642,2,0,L|3:194,1,161.999995056153,0|8,1:2|0:0,0:0:0:0:
223,26,37351,5,2,0:0:0:0:
223,26,37469,1,0,0:0:0:0:
223,26,37587,2,0,L|396:66,1,161.999995056153,2|10,1:2|0:0,0:0:0:0:
509,94,38296,1,2,0:0:0:0:
298,290,38532,5,8,0:0:0:0:
512,224,38768,1,8,0:0:0:0:
376,98,39004,1,8,0:0:0:0:
383,137,39122,1,8,0:0:0:0:
390,177,39240,1,8,0:3:0:0:
397,217,39358,1,4,0:3:0:0:
405,257,39476,1,4,1:2:0:0:
405,257,39949,6,0,P|396:295|390:338,1,80.9999975280763,8|0,0:0|1:2,0:0:0:0:
487,384,40658,1,0,1:2:0:0:
487,384,40894,2,0,P|496:346|502:303,1,80.9999975280763,8|2,0:0|0:0,0:0:0:0:
305,337,41367,6,0,L|141:363,1,161.999995056153,0|8,1:2|0:0,0:0:0:0:
118,210,42075,2,0,L|205:228,1,80.9999975280763,0|2,1:2|0:0,0:0:0:0:
19,276,42548,2,0,L|106:294,1,80.9999975280763,0|8,1:2|0:0,0:0:0:0:
223,84,43020,5,2,1:2:0:0:
1,127,43256,1,2,1:2:0:0:
1,127,43729,2,0,P|39:136|82:142,1,80.9999975280763,8|0,0:0|1:2,0:0:0:0:
100,52,44437,1,0,1:2:0:0:
100,52,44674,2,0,P|62:43|19:37,1,80.9999975280763,8|2,0:0|0:0,0:0:0:0:
180,191,45146,6,0,P|229:154|322:173,1,161.999995056153,0|8,1:2|0:0,0:0:0:0:
412,231,45855,1,0,1:2:0:0:
356,56,46091,2,0,L|322:175,2,121.499996292114,0|0|0,1:2|1:2|1:2,0:0:0:0:
497,322,47036,6,0,P|478:246|411:247,1,121.499996292114,4|0,1:2|0:0,0:0:0:0:
381,282,47508,2,0,L|287:296,1,80.9999975280763,8|0,0:0|1:2,0:0:0:0:
238,356,48217,1,0,1:2:0:0:
238,356,48453,2,0,L|144:342,1,80.9999975280763,8|2,0:0|0:0,0:0:0:0:
47,164,48926,6,0,L|15:328,1,161.999995056153,0|8,1:2|0:0,0:0:0:0:
142,145,49634,1,0,1:2:0:0:
257,245,49870,2,0,L|241:153,1,80.9999975280763,0|0,1:2|3:2,0:0:0:0:
239,146,50225,1,0,1:2:0:0:
234,126,50343,1,12,0:0:0:0:
110,304,50579,1,0,1:2:0:0:
350,179,50815,6,0,P|412:191|496:202,2,121.499996292114,6|2|2,1:2|0:0|0:0,0:0:0:0:
244,330,51760,1,2,1:2:0:0:
375,307,51996,1,0,0:0:0:0:
213,131,52233,2,0,L|230:229,1,80.9999975280763,10|0,0:0|0:0,0:0:0:0:
252,366,52705,1,2,1:2:0:0:
22,145,52941,5,8,0:0:0:0:
172,262,53178,1,8,0:0:0:0:
0,351,53414,1,2,1:2:0:0:
146,372,53650,5,10,0:0:0:0:
93,75,53886,1,10,0:0:0:0:
93,75,54595,6,0,B|193:49|165:92|271:68,1,180,4|10,1:0|0:0,0:0:0:0:
448,32,55304,1,2,0:0:0:0:
287,233,55540,2,0,L|382:213,1,90,2|0,1:2|0:0,0:0:0:0:
355,22,56012,5,10,0:0:0:0:
492,127,56248,1,2,0:0:0:0:
368,297,56485,2,0,P|416:313|515:227,1,180,0|10,1:2|0:0,0:0:0:0:
261,150,57193,1,2,0:0:0:0:
300,343,57430,1,2,1:2:0:0:
125,290,57666,1,2,0:0:0:0:
279,176,57902,2,0,L|261:271,1,90,10|0,0:0|0:0,0:0:0:0:
56,17,58374,6,0,L|38:112,1,90,0|2,1:2|0:0,0:0:0:0:
36,128,58729,1,2,0:0:0:0:
32,150,58847,1,10,0:0:0:0:
279,82,59083,1,2,0:0:0:0:
58,256,59319,1,2,1:2:0:0:
305,188,59556,1,2,0:0:0:0:
110,72,59792,1,10,0:0:0:0:
158,317,60028,1,2,0:0:0:0:
171,237,60264,6,0,L|200:53,1,180,2|10,1:2|0:0,0:0:0:0:
442,96,60973,1,2,0:0:0:0:
442,96,61091,1,2,0:0:0:0:
442,96,61209,2,0,L|429:187,1,90,2|2,1:2|0:0,0:0:0:0:
289,44,61682,5,10,0:0:0:0:
297,94,61800,1,0,3:2:0:0:
305,145,61918,1,0,3:2:0:0:
313,196,62036,1,0,3:2:0:0:
321,247,62154,2,0,P|374:221|489:278,1,180,0|10,1:2|0:0,0:0:0:0:
338,366,62863,2,0,L|445:351,1,90,2|0,0:0|1:2,0:0:0:0:
187,203,63335,1,2,0:0:0:0:
210,384,63571,1,10,0:0:0:0:
57,290,63807,1,2,0:0:0:0:
306,292,64044,5,2,1:2:0:0:
71,268,64280,2,0,L|-43:255,1,90,2|8,0:0|0:0,0:0:0:0:
188,66,64752,1,2,0:0:0:0:
188,66,64870,1,2,0:0:0:0:
188,66,64989,2,0,L|74:53,1,90,2|0,1:2|0:0,0:0:0:0:
334,214,65461,1,10,0:0:0:0:
170,192,65697,1,2,0:0:0:0:
352,29,65933,6,0,L|380:220,1,180,2|10,1:2|0:0,0:0:0:0:
409,351,66642,1,2,0:0:0:0:
492,203,66878,1,0,1:2:0:0:
276,245,67115,2,0,L|173:265,1,90,2|8,0:0|0:0,0:0:0:0:
123,326,67508,5,2,0:0:0:0:
123,326,67666,5,2,0:0:0:0:
123,326,67823,6,0,P|75:319|20:306,1,90,2|0,1:2|0:0,0:0:0:0:
167,55,68296,2,0,P|123:45|78:38,1,90,8|0,0:0|3:2,0:0:0:0:
60,47,68650,1,8,0:0:0:0:
41,55,68768,1,0,1:2:0:0:
336,253,69004,6,0,L|325:200,1,45,4|0,1:2|0:0,0:0:0:0:
221,144,69241,5,8,0:0:0:0:
229,194,69359,1,8,0:3:0:0:
237,245,69477,1,4,0:3:0:0:
245,296,69595,1,4,0:3:0:0:
253,347,69713,2,0,B|353:321|325:364|431:340,1,180,4|10,1:0|0:0,0:0:0:0:
388,151,70422,1,2,0:0:0:0:
501,261,70658,2,0,P|458:253|409:241,1,90,2|0,1:2|0:0,0:0:0:0:
362,59,71130,2,0,P|405:67|454:79,1,90,10|2,0:0|0:0,0:0:0:0:
142,186,71603,5,0,1:2:0:0:
313,149,71839,1,2,0:0:0:0:
82,53,72075,1,10,0:0:0:0:
306,7,72311,1,2,0:0:0:0:
109,197,72548,1,2,1:2:0:0:
109,197,72666,1,0,3:2:0:0:
109,197,72784,1,0,3:2:0:0:
192,30,73020,2,0,L|208:127,1,90,10|0,0:0|0:0,0:0:0:0:
237,367,73493,5,0,1:2:0:0:
303,162,73729,1,2,0:0:0:0:
303,162,73847,1,2,0:0:0:0:
303,162,73965,1,10,0:0:0:0:
98,96,74201,1,2,0:0:0:0:
32,301,74437,2,0,L|130:276,1,90,2|0,1:2|0:0,0:0:0:0:
370,338,74910,5,10,0:0:0:0:
208,254,75146,1,2,0:0:0:0:
358,89,75382,2,0,P|336:178|320:266,1,180,2|10,1:2|0:0,0:0:0:0:
490,366,76091,2,0,P|501:321|509:277,1,90,2|0,0:0|1:2,0:0:0:0:
345,53,76563,1,2,0:0:0:0:
493,181,76800,1,10,0:0:0:0:
320,264,77036,1,2,0:0:0:0:
510,0,77272,6,0,B|439:12|439:12|413:41|413:41|343:53,1,180,6|10,1:2|0:0,0:0:0:0:
132,140,77981,2,0,L|39:116,1,90,2|0,0:0|1:2,0:0:0:0:
218,54,78453,1,2,0:0:0:0:
169,233,78689,1,10,0:0:0:0:
10,194,78926,1,2,0:0:0:0:
256,170,79162,6,0,L|288:353,1,180,0|10,1:2|0:0,0:0:0:0:
439,91,79870,2,0,L|416:180,1,90,2|0,0:0|1:2,0:0:0:0:
389,267,80343,1,2,0:0:0:0:
512,157,80579,1,10,0:0:0:0:
339,55,80815,1,0,3:2:0:0:
339,55,80933,1,0,3:2:0:0:
339,55,81052,2,0,P|302:68|241:83,1,90,6|0,1:2|0:0,0:0:0:0:
81,193,81524,5,10,0:0:0:0:
114,53,81760,1,0,0:0:0:0:
234,222,81996,5,2,1:2:0:0:
198,10,82233,1,0,0:0:0:0:
37,265,82469,5,10,0:0:0:0:
1,53,82706,1,2,0:0:0:0:
229,189,82941,5,6,1:2:0:0:
273,182,83059,1,0,3:2:0:0:
318,176,83177,1,2,3:2:0:0:
362,170,83295,1,0,3:2:0:0:
407,164,83414,2,0,L|459:174,1,45,10|0,0:0|3:2,0:0:0:0:
173,120,83650,2,0,L|128:111,1,45,2|0,3:2|3:2,0:0:0:0:
384,0,83886,5,2,1:2:0:0:
384,0,84004,1,0,3:2:0:0:
384,0,84122,2,0,L|400:109,1,90,2|10,1:2|0:0,0:0:0:0:
191,383,84595,6,0,P|191:191|466:190,1,503.999984619141,4|2,1:1|0:0,0:0:0:0:
256,192,86721,12,0,88611,0:0:0:0:
