osu file format v14

[General]
AudioFilename: audio.ogg
AudioLeadIn: 0
PreviewTime: 53715
Countdown: 0
SampleSet: Soft
StackLeniency: 0.7
Mode: 0
LetterboxInBreaks: 0
WidescreenStoryboard: 1

[Editor]
DistanceSpacing: 1.6
BeatDivisor: 4
GridSize: 32
TimelineZoom: 1.4

[Metadata]
Title:Nanairo*Namida (TV Size)
TitleUnicode:なないろ☆ナミダ (TV Size)
Artist:Tomato n' Pine
ArtistUnicode:Tomato n' Pine
Creator:Enneya
Version:Hard
Source:べるぜバブ
Tags:een persoon japanese anime ending ed beelzebub pop
BeatmapID:4076132
BeatmapSetID:1965618

[Difficulty]
HPDrainRate:5
CircleSize:4
OverallDifficulty:6
ApproachRate:7
SliderMultiplier:1.4
SliderTickRate:1

[Events]
//Background and Video events
0,0,"88508456_p0.jpg",0,0
Video,-450,"video.avi"
//Break Periods
//Storyboard Layer 0 (Background)
//Storyboard Layer 1 (Fail)
//Storyboard Layer 2 (Pass)
//Storyboard Layer 3 (Foreground)
//Storyboard Layer 4 (Overlay)
//Storyboard Sound Samples

[TimingPoints]
1682,472.44094488189,4,2,1,50,1,0
1682,-111.111111111111,4,2,1,50,0,0
14910,-111.111111111111,4,2,1,60,0,0
16800,-100,4,2,1,70,0,0
24359,-111.111111111111,4,2,1,60,0,0
39477,-111.111111111111,4,2,1,50,0,0
50815,-111.111111111111,4,2,1,60,0,0
54595,-100,4,2,1,70,0,0
86721,-100,4,2,1,50,0,0
87193,-100,4,2,1,40,0,0
87666,-100,4,2,1,30,0,0
88138,-100,4,2,1,20,0,0
88611,-100,4,2,1,5,0,0

[Colours]
Combo1 : 219,136,217
Combo2 : 253,189,119
Combo3 : 139,123,185
Combo4 : 251,146,140

[HitObjects]
256,352,1682,6,0,L|386:334,1,125.999996154785,6|2,0:0|3:2,0:0:0:0:
447,370,2390,1,2,3:2:0:0:
495,312,2626,2,0,P|470:283|486:190,1,125.999996154785,2|2,3:2|0:0,0:0:0:0:
509,131,3335,1,2,3:2:0:0:
446,65,3571,6,0,L|379:79,1,62.9999980773926,0|2,3:2|0:0,0:0:0:0:
312,102,4044,2,0,L|245:88,1,62.9999980773926,2|2,3:2|3:2,0:0:0:0:
196,35,4516,2,0,L|57:62,1,125.999996154785,2|2,3:2|0:0,0:0:0:0:
21,201,5461,5,2,0:0:0:0:
103,218,5697,1,2,0:0:0:0:
103,218,5815,1,2,0:0:0:0:
103,218,5933,2,0,P|136:223|173:226,1,62.9999980773926,2|2,3:2|3:2,0:0:0:0:
219,171,6406,2,0,P|283:176|348:186,1,125.999996154785,2|2,3:2|0:0,0:0:0:0:
392,244,7115,1,2,3:2:0:0:
478,205,7351,6,0,P|508:248|495:316,1,125.999996154785,2|2,3:2|3:2,0:0:0:0:
494,316,8059,1,2,3:2:0:0:
355,364,8532,1,2,0:0:0:0:
355,364,8768,2,0,L|341:297,1,62.9999980773926,2|2,0:0|3:2,0:0:0:0:
249,276,9241,6,0,P|201:289|124:304,1,125.999996154785,0|2,3:2|3:2,0:0:0:0:
55,326,9949,2,0,P|17:277|24:216,1,125.999996154785,2|2,3:2|0:0,0:0:0:0:
78,162,10658,1,2,0:0:0:0:
78,162,10894,1,2,3:2:0:0:
22,90,11130,6,0,L|36:17,1,62.9999980773926,0|0,3:2|0:0,0:0:0:0:
104,0,11603,1,2,3:2:0:0:
163,46,11839,2,0,L|138:178,1,125.999996154785,2|2,3:2|0:0,0:0:0:0:
193,223,12548,2,0,P|247:208|316:199,1,125.999996154785,2|0,0:0|3:2,0:0:0:0:
466,56,13493,5,2,0:0:0:0:
320,85,13965,1,2,0:0:0:0:
418,196,14437,2,0,L|406:259,1,62.9999980773926,2|2,0:0|0:0,0:0:0:0:
383,349,14910,5,4,3:2:0:0:
308,303,15146,1,2,3:2:0:0:
240,356,15382,1,2,3:2:0:0:
240,356,15500,1,0,3:2:0:0:
240,356,15619,2,0,L|176:367,1,62.9999980773926,2|2,3:2|0:0,0:0:0:0:
124,289,16091,2,0,P|75:283|-13:264,1,125.999996154785,6|0,1:2|0:0,0:0:0:0:
126,181,16800,6,0,P|86:125|100:58,1,140,4|10,1:0|0:0,0:0:0:0:
174,8,17508,1,2,0:0:0:0:
245,63,17744,2,0,L|328:48,1,70,2|0,1:2|0:0,0:0:0:0:
393,5,18217,2,0,L|476:20,1,70,10|0,0:0|0:0,0:0:0:0:
498,125,18689,6,0,P|459:168|468:249,1,140,2|8,1:2|0:0,0:0:0:0:
497,330,19398,2,0,P|466:340|415:351,1,70,2|0,0:0|1:2,0:0:0:0:
372,291,19870,1,2,0:0:0:0:
372,291,19989,1,2,0:0:0:0:
372,291,20107,2,0,P|337:298|304:309,1,70,10|0,0:0|0:0,0:0:0:0:
214,372,20579,6,0,L|138:353,1,70,2|0,1:2|0:0,0:0:0:0:
81,290,21052,2,0,L|100:214,1,70,10|0,0:0|0:0,0:0:0:0:
162,157,21524,2,0,L|137:11,1,140,2|10,1:2|0:0,0:0:0:0:
319,0,22469,5,2,1:2:0:0:
377,69,22705,1,2,3:2:0:0:
458,28,22941,1,10,0:0:0:0:
512,113,23178,1,8,0:3:0:0:
512,113,23296,1,8,0:0:0:0:
512,113,23414,2,0,P|506:149|497:187,1,70,2|2,1:2|1:2,0:0:0:0:
408,191,23886,2,0,P|372:197|334:206,1,70,8|4,0:3|0:3,0:0:0:0:
256,256,24359,5,4,1:2:0:0:
256,256,24831,2,0,P|227:217|245:131,2,125.999996154785,10|2|10,0:0|1:2|0:0,0:0:0:0:
318,298,26012,1,2,0:0:0:0:
256,365,26248,5,0,1:2:0:0:
256,365,26485,2,0,L|192:353,1,62.9999980773926,2|8,0:0|0:0,0:0:0:0:
121,372,26957,2,0,L|57:384,1,62.9999980773926,2|0,0:0|1:2,0:0:0:0:
5,329,27430,2,0,P|21:262|36:182,1,125.999996154785,2|2,0:0|0:0,0:0:0:0:
113,143,28138,6,0,P|103:95|87:-5,1,125.999996154785,2|10,1:2|0:0,0:0:0:0:
244,5,29083,1,2,1:2:0:0:
244,5,29319,2,0,P|249:29|255:68,1,62.9999980773926,2|8,0:0|0:0,0:0:0:0:
201,120,29792,2,0,L|186:194,1,62.9999980773926,2|0,0:0|1:2,0:0:0:0:
257,247,30264,5,2,0:0:0:0:
215,309,30500,1,10,0:0:0:0:
273,357,30737,2,0,L|347:342,1,62.9999980773926,2|0,0:0|1:2,0:0:0:0:
432,370,31209,5,2,0:0:0:0:
417,295,31445,2,0,L|402:221,1,62.9999980773926,10|2,0:0|0:0,0:0:0:0:
458,149,31918,5,0,1:2:0:0:
458,149,32390,2,0,P|471:88|492:19,2,125.999996154785,10|2|10,0:0|1:2|0:0,0:0:0:0:
394,191,33571,1,0,0:0:0:0:
328,126,33807,2,0,L|200:145,1,125.999996154785,2|10,1:2|0:0,0:0:0:0:
149,198,34516,2,0,L|83:209,1,62.9999980773926,2|0,0:0|1:2,0:0:0:0:
33,154,34989,2,0,P|21:93|53:41,1,125.999996154785,2|2,0:0|0:0,0:0:0:0:
157,53,35697,6,0,P|230:67|300:76,1,125.999996154785,2|8,1:2|0:0,0:0:0:0:
341,27,36406,1,2,0:0:0:0:
408,61,36642,2,0,P|445:109|442:171,1,125.999996154785,0|8,1:2|0:0,0:0:0:0:
382,245,37351,1,2,0:0:0:0:
382,245,37469,1,0,0:0:0:0:
382,245,37587,2,0,L|309:229,1,62.9999980773926,2|0,1:2|0:0,0:0:0:0:
267,178,38059,2,0,L|194:194,1,62.9999980773926,10|2,0:0|0:0,0:0:0:0:
151,245,38532,5,8,0:0:0:0:
64,229,38768,1,8,0:0:0:0:
48,316,39004,1,8,0:0:0:0:
48,316,39122,1,8,0:0:0:0:
48,316,39241,1,8,0:3:0:0:
137,330,39477,6,0,P|206:323|269:310,1,125.999996154785,4|8,1:2|0:0,0:0:0:0:
314,365,40185,1,0,1:2:0:0:
449,294,40658,1,0,1:2:0:0:
449,294,40894,2,0,L|438:232,1,62.9999980773926,8|2,0:0|0:0,0:0:0:0:
491,178,41367,6,0,P|506:126|473:67,1,125.999996154785,0|8,1:2|0:0,0:0:0:0:
419,11,42075,1,0,1:2:0:0:
353,48,42311,2,0,L|224:27,1,125.999996154785,2|8,0:0|0:0,0:0:0:0:
133,14,43020,5,2,1:2:0:0:
133,14,43256,2,0,P|144:77|151:143,1,125.999996154785,2|8,1:2|0:0,0:0:0:0:
88,181,43965,1,0,1:2:0:0:
153,317,44437,1,0,1:2:0:0:
88,356,44674,2,0,L|23:342,1,62.9999980773926,8|2,0:0|0:0,0:0:0:0:
44,269,45146,6,0,P|115:285|174:295,1,125.999996154785,0|8,1:2|0:0,0:0:0:0:
221,347,45855,1,0,1:2:0:0:
286,308,46091,2,0,L|272:205,2,94.499997116089,0|0|0,1:2|1:2|1:2,0:0:0:0:
375,362,47036,6,0,P|408:326|394:242,1,125.999996154785,4|8,1:2|0:0,0:0:0:0:
455,199,47744,1,0,1:2:0:0:
334,116,48217,1,0,1:2:0:0:
334,116,48453,2,0,L|261:128,1,62.9999980773926,8|2,0:0|0:0,0:0:0:0:
218,179,48926,6,0,P|157:166|94:155,1,125.999996154785,0|8,1:2|0:0,0:0:0:0:
17,170,49634,1,0,1:2:0:0:
1,96,49870,2,0,P|49:88|107:73,1,94.499997116089,0|0,1:2|1:2,0:0:0:0:
120,50,50343,2,0,L|193:62,1,62.9999980773926,12|0,0:0|1:2,0:0:0:0:
272,105,50815,5,6,1:2:0:0:
330,46,51052,1,0,0:0:0:0:
330,46,51170,1,2,0:0:0:0:
330,46,51288,2,0,L|403:58,1,62.9999980773926,0|2,0:0|0:0,0:0:0:0:
472,41,51760,2,0,L|485:110,1,62.9999980773926,2|0,1:2|0:0,0:0:0:0:
425,161,52233,2,0,P|417:222|403:292,1,125.999996154785,10|2,0:0|1:2,0:0:0:0:
386,372,52941,5,8,0:0:0:0:
315,330,53178,1,8,0:0:0:0:
241,365,53414,1,2,1:2:0:0:
171,299,53650,5,10,0:0:0:0:
171,299,53886,1,10,0:0:0:0:
401,84,54595,6,0,P|349:44|280:58,1,140,4|10,1:0|0:0,0:0:0:0:
201,104,55304,1,2,0:0:0:0:
141,34,55540,2,0,P|95:26|66:20,1,70,2|0,1:2|0:0,0:0:0:0:
7,86,56012,1,10,0:0:0:0:
7,86,56248,2,0,L|19:160,1,70,2|0,0:0|1:2,0:0:0:0:
110,216,56721,5,0,0:0:0:0:
180,159,56957,1,10,0:0:0:0:
259,202,57193,1,2,0:0:0:0:
329,145,57430,2,0,P|374:152|403:158,1,70,2|2,1:2|0:0,0:0:0:0:
487,174,57902,2,0,P|501:240|460:294,1,140,10|0,0:0|1:2,0:0:0:0:
370,358,58611,5,2,0:0:0:0:
370,358,58729,1,2,0:0:0:0:
370,358,58847,2,0,L|290:342,1,70,10|2,0:0|0:0,0:0:0:0:
214,370,59319,1,2,1:2:0:0:
188,282,59556,1,2,0:0:0:0:
276,256,59792,2,0,L|289:187,1,70,10|2,0:0|0:0,0:0:0:0:
309,82,60264,6,0,P|239:72|170:61,1,140,2|10,1:2|0:0,0:0:0:0:
106,125,60973,1,2,0:0:0:0:
106,125,61091,1,2,0:0:0:0:
106,125,61209,2,0,P|71:129|36:135,1,70,2|2,1:2|0:0,0:0:0:0:
24,225,61682,2,0,L|11:305,1,70,10|0,0:0|3:2,0:0:0:0:
96,372,62154,6,0,P|137:318|123:251,1,140,0|10,1:2|0:0,0:0:0:0:
188,187,62863,2,0,L|257:173,1,70,2|0,0:0|1:2,0:0:0:0:
324,241,63335,1,2,0:0:0:0:
324,241,63571,2,0,L|393:255,1,70,10|2,0:0|0:0,0:0:0:0:
506,279,64044,5,2,1:2:0:0:
490,189,64280,2,0,P|484:142|478:115,1,70,2|8,0:0|0:0,0:0:0:0:
465,30,64752,1,2,0:0:0:0:
375,46,64988,2,0,P|328:52|301:58,1,70,2|0,1:2|0:0,0:0:0:0:
241,121,65461,2,0,L|161:108,1,70,10|2,0:0|0:0,0:0:0:0:
77,53,65933,6,0,P|36:107|50:174,1,140,2|10,1:2|0:0,0:0:0:0:
114,238,66642,2,0,P|107:275|91:329,1,70,2|0,0:0|1:2,0:0:0:0:
163,370,67115,2,0,L|260:347,1,70,2|8,0:0|0:0,0:0:0:0:
273,311,67508,6,0,L|284:246,2,46.6666666666667,2|2|2,0:0|0:0|1:2,0:0:0:0:
344,368,68060,1,0,0:0:0:0:
432,347,68296,1,8,0:0:0:0:
410,268,68532,1,0,3:2:0:0:
410,268,68650,1,8,0:0:0:0:
410,268,68768,1,0,1:2:0:0:
483,183,69004,6,0,P|418:171|336:153,1,140,4|4,1:2|0:3,0:0:0:0:
276,83,69713,6,0,P|236:71|158:124,1,140,4|10,1:0|0:0,0:0:0:0:
137,209,70422,1,2,0:0:0:0:
226,226,70658,2,0,P|232:269|235:310,1,70,2|0,1:2|0:0,0:0:0:0:
191,377,71130,1,10,0:0:0:0:
191,377,71367,2,0,L|120:361,1,70,2|0,0:0|1:2,0:0:0:0:
14,327,71839,5,2,0:0:0:0:
83,267,72075,1,10,0:0:0:0:
14,206,72311,1,2,0:0:0:0:
83,146,72548,2,0,P|93:78|60:18,2,140,2|10|0,1:2|0:0|1:2,0:0:0:0:
182,218,73729,5,2,0:0:0:0:
182,218,73847,1,2,0:0:0:0:
182,218,73965,2,0,L|263:202,1,70,10|2,0:0|0:0,0:0:0:0:
314,140,74437,2,0,P|383:151|452:160,1,140,2|10,1:2|0:0,0:0:0:0:
510,103,75146,1,2,0:0:0:0:
439,16,75382,6,0,L|371:33,1,70,2|0,1:2|0:0,0:0:0:0:
306,97,75855,1,10,0:0:0:0:
241,37,76091,2,0,P|189:32|157:26,1,70,2|0,0:0|1:2,0:0:0:0:
88,65,76563,5,2,0:0:0:0:
66,146,76800,1,10,0:0:0:0:
52,242,77037,1,2,0:0:0:0:
52,242,77154,1,0,0:0:0:0:
52,242,77272,2,0,P|120:252|174:202,1,140,6|10,1:2|0:0,0:0:0:0:
256,239,77981,2,0,L|330:221,1,70,2|0,0:0|1:2,0:0:0:0:
388,158,78453,1,2,0:0:0:0:
462,209,78689,2,0,P|451:251|444:284,1,70,10|2,0:0|0:0,0:0:0:0:
410,384,79162,6,0,L|269:358,1,140,0|10,1:2|0:0,0:0:0:0:
183,338,79870,2,0,P|174:301|167:258,1,70,2|0,0:0|1:2,0:0:0:0:
232,205,80343,1,2,0:0:0:0:
232,205,80579,2,0,P|250:137|262:68,1,140,10|6,0:0|1:2,0:0:0:0:
79,42,81524,6,0,P|60:109|48:178,2,140,10|2|10,0:0|1:2|0:0,0:0:0:0:
154,93,82705,1,2,0:0:0:0:
218,28,82941,1,6,1:2:0:0:
218,28,83059,1,0,3:2:0:0:
218,28,83178,2,0,L|290:15,1,70,2|10,3:2|0:0,0:0:0:0:
355,73,83650,1,2,3:2:0:0:
453,30,83886,2,0,P|445:79|442:108,1,70,2|2,1:2|1:2,0:0:0:0:
443,99,84241,1,0,0:0:0:0:
443,99,84359,1,10,0:0:0:0:
434,210,84595,5,4,1:1:0:0:
256,192,84831,12,0,88611,0:0:0:0:
