osu file format v14

[General]
AudioFilename: audio.ogg
AudioLeadIn: 0
PreviewTime: 53715
Countdown: 0
SampleSet: Soft
StackLeniency: 0.7
Mode: 0
LetterboxInBreaks: 0
WidescreenStoryboard: 1

[Editor]
Bookmarks: 2278
DistanceSpacing: 1
BeatDivisor: 4
GridSize: 32
TimelineZoom: 1.4

[Metadata]
Title:Nanairo*Namida (TV Size)
TitleUnicode:なないろ☆ナミダ (TV Size)
Artist:Tomato n' Pine
ArtistUnicode:Tomato n' Pine
Creator:Enneya
Version:Easy
Source:べるぜバブ
Tags:een persoon japanese anime ending ed beelzebub pop
BeatmapID:4076030
BeatmapSetID:1965618

[Difficulty]
HPDrainRate:2
CircleSize:3
OverallDifficulty:2
ApproachRate:3
SliderMultiplier:0.899999999999999
SliderTickRate:1

[Events]
//Background and Video events
0,0,"88508456_p0.jpg",0,0
Video,-450,"video.avi"
//Break Periods
//Storyboard Layer 0 (Background)
//Storyboard Layer 1 (Fail)
//Storyboard Layer 2 (Pass)
//Storyboard Layer 3 (Foreground)
//Storyboard Layer 4 (Overlay)
//Storyboard Sound Samples

[TimingPoints]
1682,472.44094488189,4,2,1,50,1,0
1682,-100,4,2,1,50,0,0
14910,-100,4,2,1,60,0,0
16800,-100,4,2,1,70,0,0
24359,-100,4,2,1,60,0,0
39477,-100,4,2,1,50,0,0
50815,-100,4,2,1,60,0,0
54595,-100,4,2,1,70,0,0
86721,-100,4,2,1,50,0,0
87193,-100,4,2,1,40,0,0
87666,-100,4,2,1,30,0,0
88138,-100,4,2,1,20,0,0
88611,-100,4,2,1,5,0,0

[Colours]
Combo1 : 219,136,217
Combo2 : 253,189,119
Combo3 : 139,123,185
Combo4 : 251,146,140

[HitObjects]
480,352,1682,5,6,0:0:0:0:
393,328,2154,1,2,3:2:0:0:
306,304,2626,1,2,3:2:0:0:
132,351,3571,2,0,L|115:259,1,89.9999999999999,0|2,3:2|3:2,0:0:0:0:
51,198,4516,1,2,3:2:0:0:
199,95,5461,6,0,L|216:3,2,89.9999999999999,2|2|2,0:0|3:2|3:2,0:0:0:0:
274,144,6878,1,2,0:0:0:0:
337,79,7351,2,0,P|409:69|485:53,1,135,2|2,3:2|3:2,0:0:0:0:
504,277,9241,5,0,3:2:0:0:
402,365,9949,1,2,3:2:0:0:
273,322,10658,2,0,P|279:276|289:230,1,89.9999999999999,2|0,0:0|3:2,0:0:0:0:
348,166,11603,1,2,3:2:0:0:
308,85,12075,1,0,3:2:0:0:
144,157,13020,5,0,3:2:0:0:
64,115,13493,2,0,P|58:69|48:23,2,89.9999999999999,2|2|2,0:0|0:0|0:0,0:0:0:0:
0,178,14910,2,0,B|128:146|96:210|224:178,1,225,4|6,3:2|1:2,0:0:0:0:
288,61,16800,6,0,L|387:42,1,89.9999999999999,4|10,1:0|0:0,0:0:0:0:
453,89,17744,1,2,1:2:0:0:
414,170,18217,1,10,0:0:0:0:
481,228,18689,2,0,P|471:318|456:378,1,135,2|2,1:2|0:0,0:0:0:0:
375,333,19870,2,0,P|316:339|277:349,1,89.9999999999999,2|0,0:0|0:0,0:0:0:0:
254,314,20579,6,0,L|159:297,1,89.9999999999999,2|10,1:2|0:0,0:0:0:0:
102,361,21524,2,0,L|7:377,1,89.9999999999999,2|10,1:2|0:0,0:0:0:0:
0,288,22469,5,2,1:2:0:0:
4,199,22941,1,10,0:0:0:0:
58,128,23413,1,2,1:2:0:0:
142,100,23886,1,8,0:3:0:0:
227,123,24358,1,4,1:2:0:0:
354,0,25304,6,0,P|397:9|453:14,1,89.9999999999999,2|10,1:2|0:0,0:0:0:0:
506,77,26248,2,0,L|484:215,1,135,0|2,1:2|0:0,0:0:0:0:
469,299,27430,1,2,0:0:0:0:
341,256,28138,6,0,L|229:279,1,89.9999999999999,2|10,1:2|0:0,0:0:0:0:
194,342,29083,1,2,1:2:0:0:
65,297,29792,2,0,P|33:233|97:105,1,225,2|0,0:0|1:2,0:0:0:0:
258,27,31918,6,0,P|267:72|281:118,1,89.9999999999999,0|10,1:2|0:0,0:0:0:0:
215,177,32863,2,0,P|202:220|193:264,1,89.9999999999999,2|10,1:2|0:0,0:0:0:0:
224,348,33807,1,2,1:2:0:0:
348,295,34516,2,0,L|499:323,1,135,2|8,0:0|0:0,0:0:0:0:
499,231,35697,6,0,P|511:143|461:71,1,180,2|0,1:2|1:2,0:0:0:0:
286,114,37587,2,0,L|174:91,1,89.9999999999999,2|10,1:2|0:0,0:0:0:0:
134,32,38532,1,8,0:0:0:0:
45,49,39004,1,8,0:0:0:0:
62,138,39477,6,0,P|41:215|26:294,1,135,4|0,1:2|1:2,0:0:0:0:
226,378,41367,2,0,P|247:301|262:222,1,135,0|0,1:2|1:2,0:0:0:0:
344,271,42548,1,0,1:2:0:0:
442,178,43256,6,0,P|432:110|410:46,1,135,2|0,1:2|1:2,0:0:0:0:
325,77,44437,1,0,1:2:0:0:
193,47,45146,2,0,L|99:27,2,89.9999999999999,0|8|0,1:2|0:0|1:2,0:0:0:0:
161,224,47036,6,0,P|109:207|33:245,1,135,4|0,1:2|1:2,0:0:0:0:
213,380,48926,2,0,P|276:358|343:348,1,135,0|0,1:2|1:2,0:0:0:0:
476,328,50343,1,12,0:0:0:0:
422,255,50815,6,0,L|443:151,1,89.9999999999999,6|8,1:2|0:0,0:0:0:0:
497,97,51760,1,2,1:2:0:0:
428,38,52233,1,10,0:0:0:0:
370,107,52705,2,0,L|186:80,1,180,2|10,1:2|0:0,0:0:0:0:
191,80,54595,5,4,1:0:0:0:
110,40,55067,1,10,0:0:0:0:
41,99,55540,2,0,L|59:200,1,89.9999999999999,2|10,1:2|0:0,0:0:0:0:
88,219,56248,2,0,P|63:326|58:362,1,135,2|10,0:0|0:0,0:0:0:0:
146,374,57430,1,2,1:2:0:0:
217,311,57902,1,10,0:0:0:0:
359,364,58611,6,0,L|386:259,1,89.9999999999999,2|2,0:0|0:0,0:0:0:0:
413,245,59319,2,0,L|386:140,1,89.9999999999999,2|10,1:2|0:0,0:0:0:0:
417,71,60264,1,2,1:2:0:0:
328,54,60737,1,10,0:0:0:0:
239,37,61209,1,2,1:2:0:0:
149,23,61682,1,10,0:0:0:0:
43,107,62390,6,0,P|51:167|64:246,1,135,2|0,0:0|1:2,0:0:0:0:
20,319,63571,1,10,0:0:0:0:
101,357,64044,2,0,P|148:348|247:337,1,135,2|2,1:2|0:0,0:0:0:0:
266,305,64989,2,0,L|357:331,1,89.9999999999999,2|10,1:2|0:0,0:0:0:0:
417,267,65933,5,2,1:2:0:0:
374,187,66406,1,10,0:0:0:0:
433,119,66878,1,0,1:2:0:0:
390,39,67351,1,8,0:0:0:0:
301,42,67823,2,0,P|236:54|163:64,1,135,2|0,1:2|3:2,0:0:0:0:
80,42,69004,1,4,1:2:0:0:
43,172,69713,6,0,P|98:198|137:200,1,89.9999999999999,4|10,1:0|0:0,0:0:0:0:
202,152,70658,2,0,L|305:140,1,89.9999999999999,2|10,1:2|0:0,0:0:0:0:
375,175,71603,1,0,1:2:0:0:
462,155,72075,1,10,0:0:0:0:
495,238,72548,2,0,L|481:331,1,89.9999999999999,2|10,1:2|0:0,0:0:0:0:
351,364,73729,6,0,L|258:351,1,89.9999999999999,2|2,0:0|0:0,0:0:0:0:
230,319,74437,1,2,1:2:0:0:
143,343,74910,1,10,0:0:0:0:
82,276,75382,2,0,P|68:214|57:141,1,135,2|2,1:2|0:0,0:0:0:0:
146,41,76800,1,10,0:0:0:0:
215,98,77272,6,0,L|303:80,1,89.9999999999999,6|10,1:2|0:0,0:0:0:0:
335,48,77981,2,0,L|475:69,1,135,2|10,0:0|0:0,0:0:0:0:
500,151,79162,1,0,1:2:0:0:
454,228,79634,2,0,P|409:222|366:211,1,89.9999999999999,10|0,0:0|1:2,0:0:0:0:
302,274,80579,2,0,P|290:317|284:362,1,89.9999999999999,10|6,0:0|1:2,0:0:0:0:
195,373,81524,5,10,0:0:0:0:
184,283,81996,1,2,1:2:0:0:
173,193,82469,1,10,0:0:0:0:
162,103,82941,2,0,P|88:95|16:183,1,180,6|2,1:2|1:2,0:0:0:0:
82,229,84359,6,0,L|93:292,1,45,8|4,0:0|1:1,0:0:0:0:
256,192,84831,12,0,88611,0:0:0:0:
