osu file format v14

[General]
AudioFilename: audio.mp3
AudioLeadIn: 0
PreviewTime: 0
Countdown: 1
SampleSet: Soft
StackLeniency: 0.7
Mode: 0
LetterboxInBreaks: 0
WidescreenStoryboard: 1

[Editor]
Bookmarks: 20069
DistanceSpacing: 0.5
BeatDivisor: 1
GridSize: 32
TimelineZoom: 1

[Metadata]
Title:Pasta Sauce demo Ii kara (TV Size)
TitleUnicode:パスタソースでもいいから (TV Size)
Artist:Tomato (CV: Rena Maeda)
ArtistUnicode:トマト (CV: 前田玲奈)
Creator:LowAccuracySS
Version:Smokeman's Bitter Gourd
Source:BAR 嫌われ野菜
Tags:vegetable kiraware yasai celerih shiinoha smokeman hanasaka Yui quanhitter39 tomadoi
BeatmapID:1947894
BeatmapSetID:929171

[Difficulty]
HPDrainRate:6.5
CircleSize:2.5
OverallDifficulty:9.1
ApproachRate:8.8
SliderMultiplier:2.9
SliderTickRate:1

[Events]
//Background and Video events
0,0,"smokeman.png",0,0
//Break Periods
//Storyboard Layer 0 (Background)
//Storyboard Layer 1 (Fail)
//Storyboard Layer 2 (Pass)
//Storyboard Layer 3 (Foreground)
//Storyboard Sound Samples

[TimingPoints]
207,413.793103448276,4,2,1,100,1,0
12620,-100,4,2,1,100,0,0
13448,-100,4,2,1,100,0,0
23379,-133.333333333333,4,2,1,100,0,0
24827,-100,4,2,1,100,0,0
26275,-166.666666666667,4,2,1,100,0,0
26689,-100,4,2,1,100,0,0
28758,-303.030303030303,4,2,1,100,0,0
29069,-303.030303030303,4,2,1,5,0,0
29172,-303.030303030303,4,2,1,100,0,0
29482,-303.030303030303,4,2,1,5,0,0
29586,-303.030303030303,4,2,1,100,0,0
29896,-303.030303030303,4,2,1,5,0,0
30000,-100,4,2,1,100,0,0
30103,-100,4,2,1,20,0,0
30207,-100,4,2,1,100,0,0
30310,-100,4,2,1,20,0,0
30413,-100,4,2,1,100,0,0
30517,-100,4,2,1,20,0,0
30620,-100,4,2,1,100,0,0
30724,-100,4,2,1,20,0,0
30827,-100,4,2,1,100,0,0
31655,-100,4,2,1,100,0,0

[Colours]
Combo1 : 0,191,0
Combo2 : 128,255,0

[HitObjects]
493,129,0,6,0,L|467:27,1,72.5,2|2,3:2|3:2,0:0:0:0:
461,255,207,2,0,P|395:284|323:283,1,145,6|0,3:2|3:2,0:0:0:0:
184,242,620,2,0,P|128:196|95:132,1,145,8|0,3:2|3:2,0:0:0:0:
349,261,1034,2,0,L|331:331,1,72.5,2|0,3:2|0:0,0:0:0:0:
173,249,1241,2,0,L|102:231,1,72.5,0|0,3:2|0:0,0:0:0:0:
0,281,1448,1,8,3:2:0:0:
202,64,1655,6,0,P|246:120|263:190,1,145,2|0,3:2|0:0,0:0:0:0:
234,339,2069,1,0,3:2:0:0:
282,197,2275,2,0,P|328:142|393:110,1,145,8|0,3:2|3:2,0:0:0:0:
494,215,2689,2,0,B|501:246|501:246|460:279,1,72.5,2|0,3:2|3:2,0:0:0:0:
405,236,2896,2,0,B|429:215|429:215|477:237,1,72.5,0|0,3:2|3:2,0:0:0:0:
512,343,3103,1,8,3:2:0:0:
0,239,3517,5,2,3:2:0:0:
95,274,3724,1,0,3:2:0:0:
187,172,3931,1,8,3:2:0:0:
282,207,4138,1,0,3:2:0:0:
373,315,4344,1,2,3:2:0:0:
468,280,4551,1,0,3:2:0:0:
363,327,4758,1,8,3:2:0:0:
282,207,4965,6,0,P|191:174|96:205,1,145,2|0,3:2|0:0,0:0:0:0:
28,260,5379,1,0,3:2:0:0:
71,350,5586,1,8,3:2:0:0:
299,191,5793,6,0,P|381:142|481:156,1,145,0|2,3:2|3:2,0:0:0:0:
498,269,6207,1,2,3:2:0:0:
295,360,6413,1,8,3:2:0:0:
408,341,6620,1,2,3:2:0:0:
131,204,6827,6,0,P|173:145|236:110,1,145,6|0,3:2|3:2,0:0:0:0:
377,76,7240,2,0,P|448:87|509:126,1,145,8|0,3:2|3:2,0:0:0:0:
154,25,7654,2,0,L|136:95,1,72.5,2|0,3:2|0:0,0:0:0:0:
55,201,7862,1,0,3:2:0:0:
221,203,8069,2,0,L|150:185,1,72.5,8|0,3:2|0:0,0:0:0:0:
324,258,8275,6,0,P|389:201|406:363,1,290,2|0,3:2|3:2,0:0:0:0:
240,359,8896,1,8,3:2:0:0:
92,297,9103,2,0,P|142:289|236:328,1,145,0|2,3:2|3:2,0:0:0:0:
433,344,9517,2,0,B|464:318|464:318|457:287,1,72.5,0|0,3:2|0:0,0:0:0:0:
340,228,9724,2,0,B|364:207|364:207|412:229,1,72.5,8|0,3:2|0:0,0:0:0:0:
491,205,9931,1,0,3:2:0:0:
285,138,10137,5,2,3:2:0:0:
250,233,10344,1,0,3:2:0:0:
131,212,10551,1,8,3:2:0:0:
226,247,10758,1,0,3:2:0:0:
213,357,10964,2,0,P|296:309|395:323,1,145,2|0,3:2|0:0,0:0:0:0:
477,344,11378,1,8,3:2:0:0:
195,345,11585,6,0,P|123:348|58:318,1,145,2|0,3:2|0:0,0:0:0:0:
6,189,11999,1,0,3:2:0:0:
71,350,12206,1,8,3:2:0:0:
145,120,12413,5,0,3:2:0:0:
278,202,12620,2,0,L|267:283,1,72.5,2|8,3:2|3:2,0:0:0:0:
400,145,12827,2,0,L|411:226,1,72.5,0|2,0:0|3:2,0:0:0:0:
512,363,13034,2,0,L|444:234,1,145,10|2,3:2|3:2,0:0:0:0:
332,90,13346,1,0,0:0:0:0:
402,39,13448,6,0,P|442:100|358:138,1,145,6|0,3:2|3:2,0:0:0:0:
133,339,13862,2,0,P|93:278|177:240,1,145,8|0,3:2|3:2,0:0:0:0:
368,289,14275,2,0,L|437:311,2,72.5,2|0|0,3:2|0:0|3:2,0:0:0:0:
228,325,14689,1,8,3:2:0:0:
34,158,14896,6,0,P|103:172|161:215,1,145,2|0,3:2|0:0,0:0:0:0:
235,348,15310,1,0,3:2:0:0:
180,208,15516,2,0,P|179:136|209:70,1,145,8|0,3:2|3:2,0:0:0:0:
350,34,15930,2,0,B|375:53|375:53|365:104,1,72.5,2|2,3:2|3:2,0:0:0:0:
296,108,16137,2,0,B|300:76|300:76|351:62,1,72.5,2|0,3:2|0:0,0:0:0:0:
471,41,16344,1,8,3:2:0:0:
509,302,16759,5,2,3:2:0:0:
414,267,16966,1,0,3:2:0:0:
270,139,17172,1,8,3:2:0:0:
252,239,17379,1,0,3:2:0:0:
44,293,17586,1,2,3:2:0:0:
139,328,17793,1,0,3:2:0:0:
33,308,18000,1,8,3:2:0:0:
216,172,18206,6,0,P|141:109|41:106,1,145,2|0,3:2|0:0,0:0:0:0:
236,332,18620,1,0,3:2:0:0:
356,227,18827,6,0,P|389:136|358:41,2,145,8|2|2,3:2|3:2|3:2,0:0:0:0:
236,332,19448,1,2,3:2:0:0:
0,293,19654,1,8,3:2:0:0:
109,354,19861,1,2,3:2:0:0:
344,369,20069,6,0,P|413:349|468:303,1,145,6|0,3:2|3:2,0:0:0:0:
393,67,20482,2,0,P|321:65|254:93,1,145,8|0,3:2|3:2,0:0:0:0:
84,272,20896,2,0,P|132:325|199:352,1,145,2|0,3:2|0:0,0:0:0:0:
311,259,21310,1,8,3:2:0:0:
311,259,21517,1,0,3:2:0:0:
122,335,21724,6,0,P|153:352|188:362,1,72.5,2|0,3:2|0:0,0:0:0:0:
344,369,21931,2,0,P|413:349|468:303,1,145,0|8,3:2|3:2,0:0:0:0:
84,272,22344,2,0,P|132:325|199:352,1,145,2|0,3:2|0:0,0:0:0:0:
311,259,22758,1,0,3:2:0:0:
297,243,22861,1,0,0:0:0:0:
278,237,22965,1,8,3:2:0:0:
350,383,23172,2,0,P|418:363|473:318,1,72.5,2|2,3:2|3:2,0:0:0:0:
504,193,23379,6,0,L|382:174,2,108.750004148483,2|0|8,3:2|3:2|3:2,0:0:0:0:
313,223,24000,1,2,3:2:0:0:
156,129,24207,6,0,L|263:145,1,108.750004148483,0|8,0:0|3:2,0:0:0:0:
308,242,24620,6,0,L|295:322,1,54.3750020742417,2|2,3:2|3:2,0:0:0:0:
192,347,24827,2,0,B|108:288|139:347|25:335,2,145,6|0|0,3:2|0:0|3:2,0:0:0:0:
333,310,25448,2,0,B|417:251|386:310|500:298,1,145,8|0,3:2|3:2,0:0:0:0:
164,151,25862,2,0,P|125:234|137:291,1,145,2|2,3:2|3:2,0:0:0:0:
386,239,26275,2,0,P|385:181|356:131,1,86.9999973449708,8|2,3:2|3:2,0:0:0:0:
280,42,26689,6,0,L|108:52,1,145,8|0,3:2|3:2,0:0:0:0:
61,104,27103,1,2,3:2:0:0:
368,71,27310,2,0,L|512:62,2,145,8|0|2,3:2|0:0|3:2,0:0:0:0:
280,42,27931,1,2,3:2:0:0:
114,190,28138,6,0,L|258:181,1,145,8|0,3:2|0:0,0:0:0:0:
469,288,28758,2,0,P|430:308|393:305,1,71.7749997809601,0|0,3:2|0:0,0:0:0:0:
382,321,29172,2,0,P|339:309|314:281,1,71.7749997809601,0|0,3:2|0:0,0:0:0:0:
295,285,29586,2,0,P|272:247|272:210,1,71.7749997809601,0|0,3:2|0:0,0:0:0:0:
336,117,30000,6,0,P|353:157|347:194,1,71.7749997809601,0|0,3:2|0:0,0:0:0:0:
362,206,30207,2,0,P|347:247|318:270,1,71.7749997809601,0|0,3:2|0:0,0:0:0:0:
320,290,30413,2,0,P|281:310|243:307,1,71.7749997809601,0|0,3:2|0:0,0:0:0:0:
231,322,30621,2,0,P|188:310|163:282,1,71.7749997809601,0|0,3:2|0:0,0:0:0:0:
67,267,30827,5,2,3:2:0:0:
89,238,30931,1,0,3:2:0:0:
42,210,31034,1,0,3:2:0:0:
77,203,31138,1,0,3:2:0:0:
62,151,31241,1,2,3:2:0:0:
92,170,31345,1,0,3:2:0:0:
116,120,31448,1,0,3:2:0:0:
126,155,31552,1,0,3:2:0:0:
177,135,31655,5,12,3:2:0:0:
