osu file format v14

[General]
AudioFilename: audio.ogg
AudioLeadIn: 0
PreviewTime: 49611
Countdown: 0
SampleSet: Normal
StackLeniency: 0.7
Mode: 1
LetterboxInBreaks: 0
WidescreenStoryboard: 0

[Editor]
DistanceSpacing: 0.9
BeatDivisor: 4
GridSize: 32
TimelineZoom: 3.099999

[Metadata]
Title:Mari <3 Age
TitleUnicode:Mari♡Age
Artist:Tomari Mari
ArtistUnicode:兎鞠まり
Creator:TKS
Version:Oni
Source:奏でて女子校
Tags:j-pop jpop pop japanese electronic mariage White Chord Kanadete Joshi Kou なでじょ Nadejo Youtuber VTuber バ美肉 バ美肉おじさん babiniku ojisan バーチャル美少女受肉 バーチャル美少女セルフ受肉 virtual bishoujo self juniku 純白和弦 バーチャル ユーチューバー バーチャルyoutuber video game videogame vgm music
BeatmapID:4461869
BeatmapSetID:2123197

[Difficulty]
HPDrainRate:6
CircleSize:5
OverallDifficulty:6
ApproachRate:5
SliderMultiplier:1.4
SliderTickRate:1

[Events]
//Background and Video events
0,0,"bg.jpg",0,20
//Break Periods
//Storyboard Layer 0 (Background)
//Storyboard Layer 1 (Fail)
//Storyboard Layer 2 (Pass)
//Storyboard Layer 3 (Foreground)
//Storyboard Layer 4 (Overlay)
//Storyboard Sound Samples

[TimingPoints]
715,379.746835443038,4,1,0,85,1,0
715,-125,4,1,0,85,0,0
6790,-117.647058823529,4,1,0,85,0,0
12866,-100,4,1,0,85,0,0
23286,-101.901854895515,4,1,0,85,0,0
23476,-103.888109975037,4,1,0,70,0,0
23855,-108.102337828702,4,1,0,70,0,0
24235,-112.672922152579,4,1,0,70,0,0
24615,-117.647058823529,4,1,0,70,0,0
25018,-100,4,1,0,85,0,0
36007,-105.268022181146,4,1,0,70,0,0
36387,-111.121951219512,4,1,0,70,0,0
36767,-117.647058823529,4,1,0,70,0,0
37139,-76.9230769230769,4,1,0,85,0,0
37265,-76.9230769230769,4,1,0,30,0,0
38594,-76.9230769230769,4,1,0,85,0,0
38855,-79.54749506195,4,1,0,85,0,0
39045,-82.35731548615,4,1,0,85,0,0
39235,-85.372904220466,4,1,0,85,0,0
39425,-88.617723544709,4,1,0,85,0,0
39615,-92.118943647328,4,1,0,85,0,0
39710,-93.955461293743,4,1,0,85,0,0
39805,-95.887445887446,4,1,0,85,0,0
39995,-100,4,1,0,85,0,0
40177,-76.9230769230769,4,1,0,85,0,0
40303,-76.9230769230769,4,1,0,30,0,0
41632,-76.9230769230769,4,1,0,85,0,0
41893,-79.54749506195,4,1,0,85,0,0
42083,-82.35731548615,4,1,0,85,0,0
42273,-85.372904220466,4,1,0,85,0,0
42463,-88.617723544709,4,1,0,85,0,0
42653,-92.118943647328,4,1,0,85,0,0
42748,-93.955461293743,4,1,0,85,0,0
42843,-95.887445887446,4,1,0,85,0,0
42938,-97.900552486188,4,1,0,85,0,0
43033,-100,4,1,0,85,0,0
43183,-76.9230769230769,4,1,0,85,0,0
43309,-117.647058823529,4,1,0,70,0,0
46189,-117.647058823529,4,1,0,77,0,0
49290,-100,4,1,0,85,0,0
49449,-142.857142857143,4,1,0,15,0,0
50715,-117.647058823529,4,1,0,90,0,0
50841,-90.9090909090909,4,1,0,90,0,1
50936,-100,4,1,0,90,0,1
55303,-90.9090909090909,4,1,0,90,0,1
55493,-100,4,1,0,90,0,1
55683,-90.9090909090909,4,1,0,90,0,1
55873,-100,4,1,0,90,0,1
56063,-90.9090909090909,4,1,0,90,0,1
56347,-100,4,1,0,90,0,1
56822,-90.9090909090909,4,1,0,90,0,1
57012,-100,4,1,0,90,0,1
62613,-100,4,1,0,90,0,0
62993,-90.9090909090909,4,1,0,90,0,1
63088,-100,4,1,0,90,0,1
67455,-90.9090909090909,4,1,0,90,0,1
67645,-100,4,1,0,90,0,1
67835,-90.9090909090909,4,1,0,90,0,1
68025,-100,4,1,0,90,0,1
68215,-90.9090909090909,4,1,0,90,0,1
68499,-100,4,1,0,90,0,1
68974,-90.9090909090909,4,1,0,90,0,1
69259,-100,4,1,0,90,0,1
75050,-100,4,1,0,70,0,1
75145,-100,4,1,0,70,0,0

[HitObjects]
256,192,715,5,4,0:0:0:0:
256,192,1094,1,8,0:0:0:0:
256,192,1474,1,0,0:0:0:0:
256,192,1664,1,0,0:0:0:0:
256,192,1854,1,8,0:0:0:0:
256,192,2044,1,0,0:0:0:0:
256,192,2423,1,0,0:0:0:0:
256,192,2803,1,8,0:0:0:0:
256,192,2993,1,0,0:0:0:0:
256,192,3183,1,0,0:0:0:0:
256,192,3373,1,8,0:0:0:0:
256,192,3752,1,0,0:0:0:0:
256,192,4132,1,8,0:0:0:0:
256,192,4512,1,0,0:0:0:0:
256,192,4702,1,0,0:0:0:0:
256,192,4892,1,8,0:0:0:0:
256,192,5082,1,8,0:0:0:0:
256,192,5461,1,8,0:0:0:0:
256,192,5841,1,8,0:0:0:0:
256,192,6031,1,0,0:0:0:0:
256,192,6221,1,0,0:0:0:0:
256,192,6411,1,8,0:0:0:0:
256,192,6601,1,8,0:0:0:0:
256,192,6790,1,4,0:0:0:0:
256,192,7170,1,8,0:0:0:0:
256,192,7360,1,8,0:0:0:0:
256,192,7455,1,8,0:0:0:0:
256,192,7550,1,0,0:0:0:0:
256,192,7740,1,0,0:0:0:0:
256,192,7930,1,8,0:0:0:0:
256,192,8120,1,0,0:0:0:0:
256,192,8499,1,0,0:0:0:0:
256,192,8879,1,8,0:0:0:0:
250,188,8974,1,8,0:0:0:0:
256,192,9069,1,0,0:0:0:0:
256,192,9259,1,0,0:0:0:0:
256,192,9449,1,8,0:0:0:0:
256,192,9828,1,0,0:0:0:0:
256,192,10208,1,8,0:0:0:0:
256,192,10398,1,8,0:0:0:0:
249,188,10493,1,8,0:0:0:0:
249,188,10588,1,0,0:0:0:0:
256,192,10778,1,0,0:0:0:0:
256,192,10968,1,8,0:0:0:0:
256,192,11158,1,8,0:0:0:0:
256,192,11537,1,8,0:0:0:0:
256,192,11917,1,8,0:0:0:0:
251,188,12012,1,8,0:0:0:0:
256,192,12107,1,0,0:0:0:0:
256,192,12297,1,0,0:0:0:0:
256,192,12487,1,8,0:0:0:0:
256,192,12677,1,8,0:0:0:0:
256,192,12866,1,4,0:0:0:0:
256,192,13056,1,8,0:0:0:0:
256,192,13151,1,8,0:0:0:0:
256,192,13246,1,0,0:0:0:0:
256,192,13341,1,0,0:0:0:0:
256,192,13436,1,8,0:0:0:0:
256,192,13626,1,0,0:0:0:0:
256,192,13816,1,0,0:0:0:0:
256,192,14006,1,8,0:0:0:0:
256,192,14196,1,8,0:0:0:0:
256,192,14290,1,8,0:0:0:0:
256,192,14385,1,0,0:0:0:0:
256,192,14575,1,0,0:0:0:0:
256,192,14765,1,8,0:0:0:0:
256,192,14955,1,0,0:0:0:0:
256,192,15050,1,0,0:0:0:0:
256,192,15145,1,0,0:0:0:0:
256,192,15335,1,0,0:0:0:0:
256,192,15525,1,8,0:0:0:0:
256,192,15904,1,0,0:0:0:0:
256,192,16094,1,8,0:0:0:0:
256,192,16284,1,0,0:0:0:0:
256,192,16379,1,0,0:0:0:0:
256,192,16474,1,8,0:0:0:0:
256,192,16569,1,8,0:0:0:0:
256,192,16664,1,0,0:0:0:0:
256,192,16854,1,0,0:0:0:0:
256,192,17044,1,8,0:0:0:0:
256,192,17233,1,8,0:0:0:0:
256,192,17328,1,8,0:0:0:0:
256,192,17423,1,0,0:0:0:0:
256,192,17803,1,8,0:0:0:0:
256,192,17993,1,0,0:0:0:0:
256,192,18088,1,8,0:0:0:0:
256,192,18183,1,0,0:0:0:0:
256,192,18373,1,0,0:0:0:0:
256,192,18563,1,8,0:0:0:0:
256,192,18658,1,0,0:0:0:0:
256,192,18752,1,8,0:0:0:0:
256,192,18942,1,0,0:0:0:0:
256,192,19132,1,8,0:0:0:0:
256,192,19227,1,8,0:0:0:0:
256,192,19322,1,0,0:0:0:0:
256,192,19417,1,0,0:0:0:0:
256,192,19512,1,8,0:0:0:0:
256,192,19702,1,0,0:0:0:0:
256,192,19892,1,0,0:0:0:0:
256,192,20082,1,8,0:0:0:0:
256,192,20271,1,8,0:0:0:0:
256,192,20366,1,8,0:0:0:0:
256,192,20461,1,0,0:0:0:0:
256,192,20651,1,0,0:0:0:0:
256,192,20841,1,8,0:0:0:0:
256,192,21031,1,0,0:0:0:0:
256,192,21126,1,0,0:0:0:0:
256,192,21221,1,0,0:0:0:0:
256,192,21411,1,0,0:0:0:0:
256,192,21601,1,8,0:0:0:0:
256,192,21980,1,0,0:0:0:0:
256,192,22170,1,8,0:0:0:0:
256,192,22360,1,8,0:0:0:0:
256,192,22455,1,8,0:0:0:0:
256,192,22550,1,0,0:0:0:0:
256,192,22740,1,8,0:0:0:0:
256,192,22835,1,0,0:0:0:0:
256,192,22930,1,0,0:0:0:0:
256,192,23025,1,8,0:0:0:0:
256,192,23120,1,8,0:0:0:0:
256,192,23309,1,8,0:0:0:0:
256,192,23499,1,0,0:0:0:0:
256,192,23879,1,0,0:0:0:0:
256,192,24259,1,0,0:0:0:0:
256,192,24639,1,8,0:0:0:0:
256,192,25018,1,4,0:0:0:0:
256,192,25303,1,0,0:0:0:0:
256,192,25398,1,8,0:0:0:0:
256,192,25588,1,8,0:0:0:0:
256,192,25683,1,8,0:0:0:0:
256,192,25778,1,0,0:0:0:0:
256,192,25968,1,0,0:0:0:0:
256,192,26158,1,8,0:0:0:0:
256,192,26347,1,0,0:0:0:0:
256,192,26442,1,8,0:0:0:0:
256,192,26537,1,0,0:0:0:0:
256,192,26727,1,0,0:0:0:0:
256,192,26822,1,0,0:0:0:0:
256,192,26917,1,8,0:0:0:0:
256,192,27107,1,8,0:0:0:0:
256,192,27202,1,8,0:0:0:0:
256,192,27297,1,0,0:0:0:0:
256,192,27487,1,0,0:0:0:0:
256,192,27677,1,8,0:0:0:0:
256,192,28056,1,0,0:0:0:0:
256,192,28246,1,0,0:0:0:0:
256,192,28341,1,0,0:0:0:0:
256,192,28436,1,8,0:0:0:0:
256,192,28531,1,0,0:0:0:0:
256,192,28626,1,8,0:0:0:0:
256,192,28816,1,0,0:0:0:0:
256,192,29006,1,0,0:0:0:0:
256,192,29196,1,8,0:0:0:0:
256,192,29385,1,8,0:0:0:0:
256,192,29480,1,8,0:0:0:0:
256,192,29575,1,0,0:0:0:0:
256,192,29860,1,0,0:0:0:0:
256,192,29955,1,8,0:0:0:0:
256,192,30145,1,0,0:0:0:0:
256,192,30240,1,8,0:0:0:0:
256,192,30335,1,0,0:0:0:0:
256,192,30525,1,0,0:0:0:0:
256,192,30715,1,8,0:0:0:0:
256,192,31094,1,0,0:0:0:0:
256,192,31379,1,0,0:0:0:0:
256,192,31474,1,8,0:0:0:0:
256,192,31664,1,8,0:0:0:0:
256,192,31759,1,8,0:0:0:0:
256,192,31854,1,0,0:0:0:0:
256,192,32044,1,0,0:0:0:0:
256,192,32233,1,8,0:0:0:0:
256,192,32423,1,0,0:0:0:0:
256,192,32518,1,8,0:0:0:0:
256,192,32613,1,0,0:0:0:0:
256,192,32803,1,0,0:0:0:0:
256,192,32898,1,0,0:0:0:0:
256,192,32993,1,8,0:0:0:0:
256,192,33183,1,8,0:0:0:0:
256,192,33278,1,8,0:0:0:0:
256,192,33373,1,8,0:0:0:0:
256,192,33563,1,0,0:0:0:0:
256,192,33752,1,8,0:0:0:0:
256,192,34132,1,0,0:0:0:0:
256,192,34322,1,0,0:0:0:0:
256,192,34417,1,0,0:0:0:0:
256,192,34512,1,8,0:0:0:0:
256,192,34607,1,0,0:0:0:0:
256,192,34702,1,8,0:0:0:0:
256,192,34892,1,0,0:0:0:0:
256,192,35082,1,0,0:0:0:0:
256,192,35271,1,8,0:0:0:0:
256,192,35366,1,0,0:0:0:0:
256,192,35461,1,8,0:0:0:0:
256,192,35556,1,8,0:0:0:0:
256,192,35651,1,0,0:0:0:0:
256,192,36031,1,0,0:0:0:0:
256,192,36411,1,0,0:0:0:0:
256,192,36790,1,8,0:0:0:0:
256,192,37170,1,4,0:0:0:0:
256,192,38689,1,12,0:0:0:0:
256,192,38879,1,0,0:0:0:0:
256,192,39069,1,8,0:0:0:0:
256,192,39259,1,0,0:0:0:0:
256,192,39449,1,8,0:0:0:0:
256,192,39639,1,0,0:0:0:0:
256,192,39733,1,0,0:0:0:0:
256,192,39828,1,8,0:0:0:0:
256,192,40018,1,0,0:0:0:0:
256,192,40208,1,4,0:0:0:0:
256,192,41727,1,12,0:0:0:0:
256,192,41917,1,0,0:0:0:0:
256,192,42107,1,8,0:0:0:0:
256,192,42297,1,0,0:0:0:0:
256,192,42487,1,8,0:0:0:0:
256,192,42677,1,0,0:0:0:0:
256,192,42771,1,0,0:0:0:0:
256,192,42866,1,8,0:0:0:0:
256,192,42961,1,8,0:0:0:0:
256,192,43056,1,0,0:0:0:0:
256,192,43246,1,4,0:0:0:0:
256,192,43816,1,0,0:0:0:0:
256,192,44006,1,8,0:0:0:0:
256,192,44385,1,8,0:0:0:0:
256,192,44575,1,8,0:0:0:0:
256,192,44765,1,0,0:0:0:0:
256,192,45335,1,0,0:0:0:0:
256,192,45525,1,8,0:0:0:0:
256,192,45904,1,8,0:0:0:0:
256,192,46284,1,0,0:0:0:0:
256,192,46664,1,0,0:0:0:0:
256,192,47044,1,8,0:0:0:0:
256,192,47423,1,0,0:0:0:0:
256,192,47803,1,8,0:0:0:0:
256,192,47993,1,0,0:0:0:0:
256,192,48183,1,8,0:0:0:0:
256,192,48373,1,0,0:0:0:0:
256,192,48563,1,8,0:0:0:0:
256,192,48752,1,0,0:0:0:0:
256,192,48847,1,0,0:0:0:0:
256,192,48942,1,8,0:0:0:0:
256,192,49006,1,8,0:0:0:0:
256,192,49069,1,8,0:0:0:0:
256,192,49132,1,0,0:0:0:0:
256,192,49322,1,12,0:0:0:0:
256,192,50082,12,0,50651,0:0:0:0:
256,192,50841,5,4,0:0:0:0:
256,192,51126,1,8,0:0:0:0:
256,192,51221,1,0,0:0:0:0:
256,192,51411,1,8,0:0:0:0:
256,192,51601,1,0,0:0:0:0:
256,192,51696,1,0,0:0:0:0:
256,192,51885,1,8,0:0:0:0:
256,192,51980,1,0,0:0:0:0:
256,192,52075,1,0,0:0:0:0:
256,192,52170,1,8,0:0:0:0:
256,192,52360,1,0,0:0:0:0:
256,192,52550,1,0,0:0:0:0:
256,192,52645,1,8,0:0:0:0:
256,192,52740,1,0,0:0:0:0:
256,192,52835,1,0,0:0:0:0:
256,192,52930,1,8,0:0:0:0:
256,192,53120,1,8,0:0:0:0:
256,192,53215,1,0,0:0:0:0:
256,192,53309,1,0,0:0:0:0:
256,192,53404,1,0,0:0:0:0:
256,192,53499,1,8,0:0:0:0:
256,192,53879,1,0,0:0:0:0:
256,192,54069,1,0,0:0:0:0:
256,192,54164,1,0,0:0:0:0:
256,192,54259,1,8,0:0:0:0:
256,192,54449,1,8,0:0:0:0:
256,192,54544,1,8,0:0:0:0:
256,192,54639,1,0,0:0:0:0:
256,192,54828,1,0,0:0:0:0:
256,192,54923,1,0,0:0:0:0:
256,192,55018,1,8,0:0:0:0:
256,192,55208,1,8,0:0:0:0:
256,192,55398,1,4,0:0:0:0:
256,192,55588,1,8,0:0:0:0:
256,192,55778,1,4,0:0:0:0:
256,192,55968,1,8,0:0:0:0:
256,192,56158,1,4,0:0:0:0:
256,192,56442,1,8,0:0:0:0:
256,192,56537,1,8,0:0:0:0:
256,192,56727,1,8,0:0:0:0:
256,192,56917,1,4,0:0:0:0:
256,192,57202,1,8,0:0:0:0:
256,192,57297,1,0,0:0:0:0:
256,192,57487,1,8,0:0:0:0:
256,192,57677,1,0,0:0:0:0:
256,192,57771,1,0,0:0:0:0:
256,192,57961,1,8,0:0:0:0:
256,192,58056,1,8,0:0:0:0:
256,192,58151,1,0,0:0:0:0:
256,192,58246,1,8,0:0:0:0:
256,192,58436,1,0,0:0:0:0:
256,192,58531,1,0,0:0:0:0:
256,192,58626,1,0,0:0:0:0:
256,192,58721,1,8,0:0:0:0:
256,192,58816,1,0,0:0:0:0:
256,192,59006,1,8,0:0:0:0:
256,192,59196,1,8,0:0:0:0:
256,192,59290,1,0,0:0:0:0:
256,192,59385,1,0,0:0:0:0:
256,192,59480,1,0,0:0:0:0:
256,192,59575,1,8,0:0:0:0:
256,192,59955,1,0,0:0:0:0:
256,192,60145,1,8,0:0:0:0:
256,192,60240,1,0,0:0:0:0:
256,192,60335,1,8,0:0:0:0:
256,192,60525,1,0,0:0:0:0:
256,192,60620,1,8,0:0:0:0:
256,192,60715,1,0,0:0:0:0:
256,192,60904,1,8,0:0:0:0:
256,192,60999,1,0,0:0:0:0:
256,192,61094,1,8,0:0:0:0:
256,192,61284,1,8,0:0:0:0:
256,192,61474,1,0,0:0:0:0:
256,192,61569,1,0,0:0:0:0:
256,192,61664,1,0,0:0:0:0:
256,192,61759,1,8,0:0:0:0:
256,192,61854,1,0,0:0:0:0:
256,192,62044,1,8,0:0:0:0:
256,192,62139,1,8,0:0:0:0:
256,192,62233,1,0,0:0:0:0:
256,192,62360,1,0,0:0:0:0:
256,192,62487,1,0,0:0:0:0:
256,192,62613,1,8,0:0:0:0:
256,192,62993,1,4,0:0:0:0:
256,192,63278,1,0,0:0:0:0:
256,192,63373,1,8,0:0:0:0:
256,192,63563,1,0,0:0:0:0:
256,192,63752,1,8,0:0:0:0:
256,192,63942,1,0,0:0:0:0:
256,192,64037,1,8,0:0:0:0:
256,192,64132,1,8,0:0:0:0:
256,192,64322,1,8,0:0:0:0:
256,192,64512,1,0,0:0:0:0:
256,192,64797,1,0,0:0:0:0:
256,192,64892,1,8,0:0:0:0:
256,192,65082,1,0,0:0:0:0:
256,192,65271,1,8,0:0:0:0:
256,192,65461,1,0,0:0:0:0:
256,192,65556,1,8,0:0:0:0:
256,192,65651,1,0,0:0:0:0:
256,192,65746,1,0,0:0:0:0:
256,192,65841,1,8,0:0:0:0:
256,192,66031,1,0,0:0:0:0:
256,192,66316,1,8,0:0:0:0:
256,192,66411,1,0,0:0:0:0:
256,192,66601,1,8,0:0:0:0:
256,192,66790,1,0,0:0:0:0:
256,192,66885,1,0,0:0:0:0:
256,192,66980,1,8,0:0:0:0:
256,192,67075,1,8,0:0:0:0:
256,192,67170,1,8,0:0:0:0:
256,192,67360,1,0,0:0:0:0:
256,192,67550,1,12,0:0:0:0:
256,192,67740,1,0,0:0:0:0:
256,192,67930,1,12,0:0:0:0:
256,192,68120,1,0,0:0:0:0:
256,192,68309,1,12,0:0:0:0:
256,192,68594,1,8,0:0:0:0:
256,192,68689,1,8,0:0:0:0:
256,192,68879,1,8,0:0:0:0:
256,192,69069,1,4,0:0:0:0:
256,192,69354,1,0,0:0:0:0:
256,192,69449,1,8,0:0:0:0:
256,192,69639,1,0,0:0:0:0:
256,192,69828,1,8,0:0:0:0:
256,192,70018,1,0,0:0:0:0:
256,192,70113,1,8,0:0:0:0:
256,192,70208,1,8,0:0:0:0:
256,192,70398,1,8,0:0:0:0:
256,192,70588,1,0,0:0:0:0:
256,192,70873,1,0,0:0:0:0:
256,192,70968,1,8,0:0:0:0:
256,192,71158,1,0,0:0:0:0:
256,192,71347,1,8,0:0:0:0:
256,192,71537,1,0,0:0:0:0:
256,192,71632,1,8,0:0:0:0:
256,192,71727,1,0,0:0:0:0:
256,192,71822,1,0,0:0:0:0:
256,192,71917,1,8,0:0:0:0:
256,192,72107,1,0,0:0:0:0:
256,192,72392,1,8,0:0:0:0:
256,192,72487,1,0,0:0:0:0:
256,192,72677,1,8,0:0:0:0:
256,192,72866,1,0,0:0:0:0:
256,192,72961,1,0,0:0:0:0:
256,192,73056,1,8,0:0:0:0:
256,192,73151,1,8,0:0:0:0:
256,192,73246,1,8,0:0:0:0:
256,192,73436,1,8,0:0:0:0:
256,192,73626,1,0,0:0:0:0:
256,192,73816,1,8,0:0:0:0:
256,192,73911,1,0,0:0:0:0:
256,192,74006,1,8,0:0:0:0:
256,192,74196,1,8,0:0:0:0:
256,192,74290,1,8,0:0:0:0:
256,192,74385,1,0,0:0:0:0:
256,192,74512,1,0,0:0:0:0:
256,192,74639,1,0,0:0:0:0:
256,192,74765,1,8,0:0:0:0:
256,192,75145,1,4,0:0:0:0:
