osu file format v14

[General]
AudioFilename: _mp3_converted.mp3
AudioLeadIn: 0
PreviewTime: 0
Countdown: 1
SampleSet: Normal
StackLeniency: 0.7
Mode: 0
LetterboxInBreaks: 1
WidescreenStoryboard: 1

[Editor]
DistanceSpacing: 1
BeatDivisor: 4
GridSize: 4
TimelineZoom: 1

[Metadata]
Title:Rendoenzu
TitleUnicode:Tom Zany.kalon - レンドエンズ
Artist:Tom Zany
ArtistUnicode:Tom Zany.kalon - レンドエンズ
Creator:Xazariorus
Version:Insane
Source:Kantai collection
Tags:Tom Zany kalon anime song kantai collection rus-creator interesting
BeatmapID:800603
BeatmapSetID:363962

[Difficulty]
HPDrainRate:6
CircleSize:4
OverallDifficulty:7
ApproachRate:9
SliderMultiplier:2.5
SliderTickRate:4

[Events]
//Background and Video events
0,0,"50327127_p0_master1200.jpg",0,0
//Break Periods
//Storyboard Layer 0 (Background)
//Storyboard Layer 1 (Fail)
//Storyboard Layer 2 (Pass)
//Storyboard Layer 3 (Foreground)
//Storyboard Sound Samples

[TimingPoints]
1715,413.793103448276,4,1,0,100,1,0
50542,-100,4,3,0,100,0,0
51473,-100,4,1,0,100,0,0
51783,-100,4,3,0,100,0,0
52611,-100,4,1,0,100,0,0
55715,-125,4,1,0,100,0,0
56335,-100,4,1,0,100,0,0
57370,-83.3333333333333,4,1,0,100,0,0
57577,-100,4,1,0,100,0,0
61301,-66.6666666666667,4,1,0,100,0,1
61715,-66.6666666666667,4,3,0,100,0,1
63059,-66.6666666666667,4,1,0,100,0,1
65025,-66.6666666666667,4,3,0,100,0,1
66370,-66.6666666666667,4,1,0,100,0,1
68335,-100,4,1,0,100,0,1
69783,-66.6666666666667,4,1,0,100,0,1
72473,-66.6666666666667,4,3,0,100,0,1
73094,-66.6666666666667,4,1,0,100,0,1
73715,-66.6666666666667,4,3,0,100,0,1
75370,-100,4,1,0,100,0,1
77232,-66.6666666666667,4,1,0,100,0,1
81059,-100,4,1,0,100,0,0
89025,-100,4,1,0,100,0,0
90059,-100,4,1,0,100,0,0
96887,-100,4,3,0,100,0,0
97818,-100,4,1,0,100,0,0
107646,-66.6666666666667,4,1,0,100,0,1
108059,-100,4,1,0,100,0,1
109508,-66.6666666666667,4,1,0,100,0,1
112197,-66.6666666666667,4,3,0,100,0,1
112818,-66.6666666666667,4,1,0,100,0,1
115094,-66.6666666666667,4,3,0,100,0,1
116025,-66.6666666666667,4,1,0,100,0,1
118404,-66.6666666666667,4,3,0,100,0,1
118818,-66.6666666666667,4,1,0,100,0,1
119439,-66.6666666666667,4,3,0,100,0,1
121611,-66.6666666666667,4,1,0,100,0,1
125025,-66.6666666666667,4,3,0,100,0,1
125956,-66.6666666666667,4,1,0,100,0,1
127094,-100,4,1,0,100,0,0
147370,-133.333333333333,4,1,0,100,0,0
147783,-133.333333333333,4,3,0,100,0,0
149128,-133.333333333333,4,1,0,100,0,0
152542,-133.333333333333,4,3,0,100,0,0
153990,-100,4,1,0,100,0,0

[Colours]
Combo1 : 255,221,117
Combo2 : 255,85,85
Combo3 : 117,180,255
Combo4 : 203,152,196

[HitObjects]
84,244,8335,6,8,L|172:112,2,125
256,192,8956,1,4,0:0:0:0:
416,140,9163,2,8,L|336:260,2,125
92,328,9783,1,4,0:0:0:0:
164,88,9990,1,4,0:0:0:0:
244,324,10197,1,4,0:0:0:0:
24,204,10404,1,4,0:0:0:0:
268,204,10611,1,4,0:0:0:0:
452,36,10818,6,8,L|452:164,1,125
416,260,11232,2,8,P|372:320|284:324,1,125
176,336,11646,5,0,0:0:0:0:
56,192,11852,1,0,0:0:0:0:
244,212,12059,5,0,0:0:0:0:
64,184,12266,1,0,0:0:0:0:
192,320,12473,5,0,0:0:0:0:
72,176,12680,1,0,0:0:0:0:
252,204,12887,5,0,0:0:0:0:
80,168,13094,1,0,0:0:0:0:
208,304,13301,5,0,0:0:0:0:
360,300,13508,2,8,P|416:220|384:152,2,125
400,40,14335,5,4,0:0:0:0:
400,40,14542,1,4,0:0:0:0:
460,64,14956,5,0,0:0:0:0:
272,64,15162,1,0,0:0:0:0:
368,136,15369,5,0,0:0:0:0:
180,136,15576,1,0,0:0:0:0:
268,228,15783,5,0,0:0:0:0:
80,228,15990,1,0,0:0:0:0:
176,324,16197,5,0,0:0:0:0:
256,152,16404,1,0,0:0:0:0:
332,324,16611,1,0,0:0:0:0:
256,40,16818,5,0,0:0:0:0:
256,328,17025,5,0,0:0:0:0:
256,140,17232,1,0,0:0:0:0:
360,48,17439,2,8,L|360:172,1,125
140,48,17852,2,8,L|140:172,1,125
36,332,18266,5,0,0:0:0:0:
224,332,18472,1,0,0:0:0:0:
88,280,18679,5,0,0:0:0:0:
276,280,18886,1,0,0:0:0:0:
144,228,19094,5,0,0:0:0:0:
332,228,19300,1,0,0:0:0:0:
204,180,19507,5,0,0:0:0:0:
392,180,19714,1,0,0:0:0:0:
244,64,19921,5,0,0:0:0:0:
444,120,20128,2,8,P|470:213|418:267,2,125
72,64,20956,5,4,0:0:0:0:
72,316,21163,1,4,0:0:0:0:
384,104,21577,5,0,0:0:0:0:
384,292,21783,1,0,0:0:0:0:
276,140,21990,1,0,0:0:0:0:
296,328,22197,2,8,L|228:312,2,62.5
112,284,22611,5,0,0:0:0:0:
112,96,22818,1,0,0:0:0:0:
300,96,23025,2,8,L|368:80,2,62.5
484,48,23439,5,0,0:0:0:0:
480,236,23646,1,0,0:0:0:0:
416,152,23852,2,8,P|392:92|368:96,2,62.5
296,296,24266,5,0,0:0:0:0:
108,296,24473,1,0,0:0:0:0:
76,112,24680,1,0,0:0:0:0:
100,92,24783,1,0,0:0:0:0:
128,68,24887,1,0,0:0:0:0:
160,252,25094,6,8,L|288:252,1,125
448,156,25508,2,8,L|424:96,1,62.5
420,88,25715,1,2,0:0:0:0:
232,100,25921,6,8,P|144:120|136:200,1,125
76,272,26335,1,0,0:0:0:0:
100,292,26438,1,0,0:0:0:0:
128,316,26542,1,0,0:0:0:0:
316,312,26749,6,8,P|376:288|400:232,1,125
316,72,27163,2,8,P|376:96|400:152,1,125
256,192,27577,12,0,28197,0:0:0:0:
380,324,28611,6,8,L|252:324,1,125
128,324,29025,1,4,0:0:0:0:
132,72,29439,6,8,L|260:72,1,125
384,72,29852,2,8,P|443:131|443:171,2,125
196,96,30473,1,4,0:0:0:0:
348,196,30680,2,8,P|272:180|108:264,1,250
208,304,31508,6,2,L|92:304,1,62.5
84,304,31715,2,2,L|84:240,1,62.5
84,176,31921,6,2,L|200:176,1,62.5
208,176,32128,2,8,L|208:240,2,62.5
268,168,32439,2,0,B|392:168|392:168|388:40|388:40|256:40,1,375
204,40,33163,1,2,0:0:0:0:
264,104,33370,1,2,0:0:0:0:
196,108,33577,1,2,0:0:0:0:
140,68,33783,1,2,0:0:0:0:
48,40,33990,6,8,P|80:184|200:264,1,250
288,224,34818,5,0,0:0:0:0:
232,164,35025,1,0,0:0:0:0:
316,256,35232,1,0,0:0:0:0:
184,124,35439,1,0,0:0:0:0:
364,296,35646,1,0,0:0:0:0:
152,80,35852,1,0,0:0:0:0:
332,256,36059,5,0,0:0:0:0:
200,124,36266,1,0,0:0:0:0:
284,216,36473,1,0,0:0:0:0:
232,164,36680,1,0,0:0:0:0:
256,192,36887,1,4,0:0:0:0:
256,192,37094,5,4,0:0:0:0:
156,180,37301,6,8,P|192:116|252:112,1,125
356,204,37715,6,8,P|320:268|260:272,1,125
44,348,38128,5,0,0:0:0:0:
256,192,38335,1,0,0:0:0:0:
472,40,38542,1,0,0:0:0:0:
40,40,38749,5,0,0:0:0:0:
256,192,38956,1,0,0:0:0:0:
480,352,39163,1,0,0:0:0:0:
256,192,39370,5,0,0:0:0:0:
156,120,39577,1,0,0:0:0:0:
360,264,39783,1,0,0:0:0:0:
120,192,39990,5,0,0:0:0:0:
372,192,40197,5,0,0:0:0:0:
192,124,40404,5,0,0:0:0:0:
316,124,40611,1,0,0:0:0:0:
316,248,40818,5,4,0:0:0:0:
192,248,41025,1,4,0:0:0:0:
56,332,41439,5,2,0:0:0:0:
312,60,41852,2,8,L|432:128,1,125
464,304,42266,2,8,L|328:324,2,125
124,144,43094,1,0,0:0:0:0:
268,24,43301,1,0,0:0:0:0:
376,180,43508,1,0,0:0:0:0:
228,296,43715,1,0,0:0:0:0:
256,112,43921,2,8,P|320:168|336:224,1,125
192,332,44335,2,8,P|68:252|56:152,1,250
192,332,44956,6,8,P|188:256|224:220,1,125
388,140,45370,1,4,0:0:0:0:
388,140,45473,1,4,0:0:0:0:
388,140,45577,2,8,P|420:200|412:268,1,125
340,352,45990,1,2,0:0:0:0:
372,232,46197,5,2,0:0:0:0:
272,160,46404,2,8,P|204:112|124:112,1,125
156,128,46818,2,8,P|233:157|278:223,1,125
92,272,47232,1,2,0:0:0:0:
472,44,47646,5,4,0:0:0:0:
36,44,48059,1,4,0:0:0:0:
400,128,48473,2,8,P|460:188|468:244,2,125
156,64,49301,6,8,L|268:120,1,125
348,216,49715,1,0,0:0:0:0:
272,316,49921,1,0,0:0:0:0:
148,308,50128,1,0,0:0:0:0:
52,228,50335,1,0,0:0:0:0:
36,104,50542,5,0,0:0:0:0:
96,128,50646,1,0,0:0:0:0:
164,140,50749,1,0,0:0:0:0:
232,132,50852,1,0,0:0:0:0:
272,184,50956,1,0,0:0:0:0:
228,236,51059,1,0,0:0:0:0:
220,304,51163,1,0,0:0:0:0:
388,300,51370,1,0,0:0:0:0:
440,204,51577,6,8,L|440:108,1,62.5
444,80,51783,1,0,0:0:0:0:
384,60,51887,1,0,0:0:0:0:
324,76,51990,1,0,0:0:0:0:
288,128,52094,1,0,0:0:0:0:
296,188,52197,1,0,0:0:0:0:
336,236,52301,1,0,0:0:0:0:
316,296,52404,1,0,0:0:0:0:
252,292,52508,1,0,0:0:0:0:
204,252,52611,6,8,L|108:152,1,125
204,252,53025,2,8,L|284:140,1,125
204,356,53439,2,8,L|108:264,1,125
208,352,53852,2,8,L|284:240,1,125
384,56,54266,1,4,0:0:0:0:
144,128,54680,6,2,L|124:200,2,62.5
344,128,55094,2,2,L|376:192,2,62.5
244,20,55508,5,4,0:0:0:0:
240,172,55715,2,8,L|240:240,1,50
180,268,55921,2,8,P|278:323|307:234,1,200
484,192,56542,1,4,0:0:0:0:
296,192,56749,1,4,0:0:0:0:
36,152,56956,2,8,L|108:152,1,62.5
96,200,57163,2,8,L|168:200,1,62.5
168,156,57370,2,8,L|240:156,1,62.5
240,196,57577,1,4,0:0:0:0:
256,192,57990,12,0,60887,0:0:0:0:
196,68,61301,6,8,P|104:108|80:204,1,187.500007152558
64,332,61715,5,0,0:0:0:0:
112,336,61818,1,0,0:0:0:0:
160,336,61921,1,0,0:0:0:0:
156,244,62128,5,0,0:0:0:0:
188,208,62232,1,0,0:0:0:0:
220,176,62335,1,0,0:0:0:0:
312,200,62542,5,0,0:0:0:0:
328,156,62646,1,0,0:0:0:0:
356,120,62749,1,0,0:0:0:0:
384,80,62852,1,0,0:0:0:0:
428,68,62956,1,0,0:0:0:0:
472,136,63163,6,8,L|384:312,2,187.500007152558
472,136,63783,2,8,L|280:248,2,187.500007152558
488,132,64404,1,4,0:0:0:0:
432,56,64611,6,8,P|328:72|248:136,1,187.500007152558
204,192,65025,1,0,0:0:0:0:
236,228,65128,1,0,0:0:0:0:
280,216,65231,1,0,0:0:0:0:
316,184,65335,1,0,0:0:0:0:
316,136,65438,1,0,0:0:0:0:
280,104,65542,1,0,0:0:0:0:
232,104,65645,1,0,0:0:0:0:
188,120,65749,1,0,0:0:0:0:
164,160,65852,1,0,0:0:0:0:
116,160,65956,1,0,0:0:0:0:
84,128,66059,1,0,0:0:0:0:
64,88,66162,1,0,0:0:0:0:
52,44,66266,1,0,0:0:0:0:
48,136,66473,6,2,L|48:256,1,93.7500035762788
80,196,66680,2,2,L|80:296,1,93.7500035762788
108,252,66887,2,2,L|108:352,1,93.7500035762788
136,308,67094,2,8,P|232:192|328:192,1,187.500007152558
356,184,67508,1,4,0:0:0:0:
448,184,67715,1,4,0:0:0:0:
452,276,67921,2,8,P|368:340|248:328,1,187.500007152558
296,280,68335,6,2,L|348:228,2,62.5
216,280,68749,2,2,L|176:228,2,62.5
256,192,69163,2,2,L|256:112,2,62.5
172,24,69783,2,8,P|76:124|84:196,2,187.500007152558
340,24,70404,2,8,P|436:124|428:196,2,187.500007152558
256,24,71025,1,4,0:0:0:0:
256,116,71232,6,8,L|256:312,1,187.500007152558
72,344,71646,1,4,0:0:0:0:
156,176,71852,1,4,0:0:0:0:
148,364,72059,2,8,P|264:356|352:304,1,187.500007152558
464,196,72473,1,0,0:0:0:0:
436,160,72577,1,0,0:0:0:0:
388,160,72680,1,0,0:0:0:0:
356,196,72783,1,0,0:0:0:0:
324,232,72887,1,0,0:0:0:0:
276,236,72990,1,0,0:0:0:0:
232,216,73094,6,8,L|52:132,2,187.500007152558
252,124,73715,1,0,0:0:0:0:
264,80,73818,1,0,0:0:0:0:
288,40,73921,1,0,0:0:0:0:
336,68,74128,5,0,0:0:0:0:
384,76,74232,1,0,0:0:0:0:
424,100,74335,1,0,0:0:0:0:
392,148,74542,5,0,0:0:0:0:
404,192,74646,1,0,0:0:0:0:
400,240,74749,1,0,0:0:0:0:
356,248,74852,1,0,0:0:0:0:
312,236,74956,1,0,0:0:0:0:
280,200,75059,1,0,0:0:0:0:
260,160,75163,1,0,0:0:0:0:
184,32,75370,6,2,L|128:104,2,62.5
180,96,75783,6,2,L|124:168,2,62.5
208,152,76197,2,4,L|124:280,2,125
284,52,76818,2,8,L|376:80,1,62.5
432,140,77232,2,8,P|472:248|432:336,2,187.500007152558
340,304,77852,2,8,L|160:224,1,187.500007152558
56,76,78266,5,0,0:0:0:0:
432,76,78473,1,0,0:0:0:0:
120,284,78680,5,0,0:0:0:0:
496,284,78887,1,0,0:0:0:0:
256,192,79094,5,0,0:0:0:0:
256,24,79301,1,0,0:0:0:0:
256,360,79508,1,0,0:0:0:0:
148,100,79921,6,8,L|148:292,1,187.500007152558
356,100,80335,2,8,L|356:292,1,187.500007152558
256,24,80749,1,0,0:0:0:0:
256,340,80956,1,0,0:0:0:0:
44,344,81163,5,0,0:0:0:0:
232,344,81370,1,0,0:0:0:0:
148,264,81577,5,0,0:0:0:0:
336,264,81783,1,0,0:0:0:0:
252,192,81990,5,0,0:0:0:0:
440,192,82197,1,0,0:0:0:0:
456,48,82404,2,8,L|316:48,1,125
44,52,82818,2,8,L|184:52,1,125
256,356,83232,2,8,L|256:224,1,125
160,280,83646,5,4,0:0:0:0:
256,52,83852,1,0,0:0:0:0:
352,280,84059,1,4,0:0:0:0:
40,44,84473,6,2,L|120:96,2,62.5
476,340,84887,2,2,L|420:304,2,62.5
36,352,85301,6,2,L|108:296,2,62.5
468,44,85715,6,2,L|376:96,2,62.5
256,192,86128,6,8,L|256:284,2,62.5
256,184,86542,6,8,L|256:92,2,62.5
492,188,86956,1,4,0:0:0:0:
96,192,87163,5,4,0:0:0:0:
360,156,87370,2,8,P|360:240|356:236,1,250
192,92,88197,6,2,P|128:92|96:152,1,125
192,292,88611,2,2,P|128:292|96:232,1,125
92,192,89025,2,8,L|240:192,5,125
424,192,90266,1,4,0:0:0:0:
432,116,90680,6,8,P|384:68|312:68,2,125
184,80,91301,5,0,0:0:0:0:
412,184,91508,1,0,0:0:0:0:
160,192,91715,1,0,0:0:0:0:
376,316,91921,1,0,0:0:0:0:
124,320,92128,2,8,P|64:280|72:220,1,125
232,48,92542,6,8,L|368:48,1,125
464,140,92956,1,0,0:0:0:0:
312,340,93163,1,0,0:0:0:0:
360,96,93370,1,0,0:0:0:0:
256,196,93577,2,8,P|152:188|56:84,1,250
256,48,94404,5,4,0:0:0:0:
256,352,94818,2,8,P|164:336|104:280,1,125
56,240,95232,2,8,P|48:144|104:112,1,125
256,32,95646,2,4,P|164:48|104:104,1,125
388,40,96059,2,8,P|444:80|468:164,3,125
456,240,96887,5,0,0:0:0:0:
400,264,96990,1,0,0:0:0:0:
344,240,97094,1,0,0:0:0:0:
320,184,97197,1,0,0:0:0:0:
300,124,97301,1,0,0:0:0:0:
252,84,97404,1,0,0:0:0:0:
204,88,97508,1,0,0:0:0:0:
184,128,97611,1,0,0:0:0:0:
216,160,97715,1,0,0:0:0:0:
252,244,97921,6,2,L|308:280,1,62.5
252,244,98128,2,2,L|180:264,1,62.5
124,280,98439,1,4,0:0:0:0:
92,228,98542,2,8,P|65:169|77:90,1,125
200,92,98956,2,8,P|148:144|124:216,1,125
148,316,99370,2,8,L|328:304,3,125
460,296,100197,1,4,0:0:0:0:
144,92,100611,1,4,0:0:0:0:
340,104,101025,2,8,L|452:196,1,125
288,300,101439,2,8,L|176:208,1,125
92,60,101852,5,4,0:0:0:0:
276,88,102059,2,8,P|328:136|336:204,1,125
192,308,102473,2,8,P|112:252|104:192,1,125
132,108,102887,5,0,0:0:0:0:
176,64,102990,1,0,0:0:0:0:
236,48,103094,1,2,0:0:0:0:
420,176,103301,5,2,0:0:0:0:
404,116,103404,1,0,0:0:0:0:
360,72,103508,1,0,0:0:0:0:
76,328,103921,5,4,0:0:0:0:
200,320,104335,6,8,L|328:320,3,125
452,320,105163,1,4,0:0:0:0:
448,132,105370,1,4,0:0:0:0:
332,280,105577,2,8,P|300:160|324:132,1,125
316,52,105990,2,8,P|252:72|168:148,1,125
124,276,106404,2,8,P|80:184|80:112,2,125
252,332,107646,5,0,0:0:0:0:
296,320,107749,1,0,0:0:0:0:
340,304,107852,1,2,0:0:0:0:
396,276,108059,2,0,L|416:208,1,62.5
413,216,108266,2,0,L|304:184,1,62.5
353,198,108473,2,0,L|264:228,1,62.5
293,218,108680,2,0,L|224:144,1,62.5
250,172,108887,2,0,L|152:188,1,62.5
189,182,109094,2,0,L|192:92,1,62.5
192,112,109301,1,2,0:0:0:0:
256,44,109508,6,8,L|452:152,2,187.500007152558
256,44,110128,2,8,L|64:156,2,187.500007152558
260,32,110749,1,4,0:0:0:0:
284,124,110956,5,0,0:0:0:0:
300,168,111059,1,0,0:0:0:0:
320,212,111163,1,2,0:0:0:0:
316,304,111370,2,8,P|224:292|148:236,1,187.500007152558
180,148,111783,2,8,P|284:160|356:228,1,187.500007152558
464,360,112197,1,0,0:0:0:0:
464,312,112301,1,0,0:0:0:0:
464,264,112404,1,0,0:0:0:0:
468,216,112508,1,0,0:0:0:0:
464,168,112611,1,0,0:0:0:0:
460,120,112715,1,0,0:0:0:0:
444,76,112818,6,8,P|336:40|244:56,1,187.500007152558
264,48,113232,2,8,P|148:92|80:188,1,187.500007152558
68,220,113646,1,4,0:0:0:0:
112,324,113852,1,0,0:0:0:0:
156,308,113956,1,0,0:0:0:0:
200,292,114059,1,2,0:0:0:0:
360,192,114266,6,8,P|444:244|472:332,1,187.500007152558
288,356,114680,2,8,P|200:312|184:276,2,93.7500035762788
148,232,115094,1,0,0:0:0:0:
124,192,115197,1,0,0:0:0:0:
172,192,115301,1,0,0:0:0:0:
148,152,115404,1,0,0:0:0:0:
196,160,115508,1,0,0:0:0:0:
176,116,115611,1,0,0:0:0:0:
224,124,115715,1,0,0:0:0:0:
216,76,115818,1,0,0:0:0:0:
264,84,115921,1,0,0:0:0:0:
356,68,116128,6,8,P|444:116|464:208,2,187.500007152558
156,68,116749,6,8,P|68:116|48:208,2,187.500007152558
256,332,117370,1,4,0:0:0:0:
84,256,117577,6,8,L|256:176,1,187.500007152558
416,84,117990,2,8,L|496:24,2,93.7500035762788
320,88,118404,1,0,0:0:0:0:
272,80,118508,1,0,0:0:0:0:
224,72,118611,1,0,0:0:0:0:
180,92,118715,1,0,0:0:0:0:
144,120,118818,2,8,P|80:196|96:284,2,187.500007152558
236,92,119439,5,0,0:0:0:0:
308,144,119646,5,0,0:0:0:0:
320,188,119749,1,0,0:0:0:0:
292,224,119852,1,0,0:0:0:0:
204,192,120059,5,0,0:0:0:0:
160,208,120163,1,0,0:0:0:0:
120,232,120266,1,0,0:0:0:0:
72,312,120473,5,0,0:0:0:0:
112,336,120577,1,0,0:0:0:0:
160,336,120680,1,0,0:0:0:0:
236,284,120887,5,0,0:0:0:0:
240,236,120990,1,0,0:0:0:0:
272,200,121094,1,0,0:0:0:0:
320,196,121197,1,0,0:0:0:0:
368,200,121301,1,0,0:0:0:0:
408,220,121404,1,0,0:0:0:0:
440,256,121508,1,0,0:0:0:0:
464,356,121715,6,8,L|280:304,1,187.500007152558
96,304,122128,2,8,L|309:183,1,187.500007152558
512,180,122542,2,8,L|324:135,1,187.500007152558
160,52,122956,2,8,L|96:248,2,187.500007152558
284,68,123577,5,4,0:0:0:0:
472,64,123783,1,4,0:0:0:0:
284,68,123990,1,4,0:0:0:0:
456,244,124197,2,8,B|380:292|360:296|260:260,1,187.500007152558
228,156,124611,2,8,B|152:108|132:104|32:140,1,187.500007152558
52,280,125025,1,0,0:0:0:0:
96,296,125128,1,0,0:0:0:0:
132,328,125232,1,0,0:0:0:0:
176,348,125335,1,0,0:0:0:0:
176,292,125439,1,0,0:0:0:0:
212,248,125542,1,0,0:0:0:0:
264,268,125646,1,0,0:0:0:0:
320,284,125749,1,0,0:0:0:0:
372,308,125852,1,0,0:0:0:0:
488,176,126266,6,8,P|416:104|308:96,1,187.500007152558
244,112,126680,6,8,P|316:184|424:192,1,187.500007152558
260,328,127094,1,4,0:0:0:0:
112,212,127301,1,4,0:0:0:0:
48,48,127508,6,2,L|48:112,2,62.5
464,48,127921,6,2,L|464:112,2,62.5
256,216,128335,6,2,L|256:280,2,62.5
100,320,128749,5,0,0:0:0:0:
64,268,128852,1,0,0:0:0:0:
36,212,128956,1,2,0:0:0:0:
412,320,129163,5,0,0:0:0:0:
448,268,129266,1,0,0:0:0:0:
476,212,129370,1,2,0:0:0:0:
256,40,129577,5,0,0:0:0:0:
256,352,129783,1,0,0:0:0:0:
68,192,129991,5,0,0:0:0:0:
256,192,130197,1,0,0:0:0:0:
444,192,130404,1,0,0:0:0:0:
237,223,130818,5,0,0:0:0:0:
237,160,130921,1,0,0:0:0:0:
292,192,131025,1,2,0:0:0:0:
228,238,131232,5,0,0:0:0:0:
228,145,131335,1,0,0:0:0:0:
310,192,131439,1,2,0:0:0:0:
219,254,131646,5,0,0:0:0:0:
219,129,131749,1,0,0:0:0:0:
328,192,131852,1,2,0:0:0:0:
464,348,132059,5,0,0:0:0:0:
464,348,132266,1,0,0:0:0:0:
48,60,132473,1,0,0:0:0:0:
48,60,132680,1,0,0:0:0:0:
144,292,132887,2,8,L|240:204,1,125
256,44,133508,5,0,0:0:0:0:
256,232,133715,2,8,L|256:360,1,125
160,280,134128,5,0,0:0:0:0:
256,52,134334,1,0,0:0:0:0:
356,280,134541,1,0,0:0:0:0:
144,140,134749,5,0,0:0:0:0:
392,140,134955,1,0,0:0:0:0:
184,276,135162,1,0,0:0:0:0:
256,36,135370,5,0,0:0:0:0:
364,260,135576,1,0,0:0:0:0:
152,128,135783,1,0,0:0:0:0:
404,132,135990,5,0,0:0:0:0:
116,312,136197,2,8,L|240:208,1,125
472,36,136611,5,4,0:0:0:0:
160,104,136817,1,4,0:0:0:0:
384,304,137024,1,4,0:0:0:0:
256,36,137439,6,8,L|160:124,1,125
260,32,137852,2,8,L|352:124,1,125
256,188,138266,6,8,L|144:264,1,125
256,188,138680,2,8,L|360:268,1,125
472,40,139094,1,4,0:0:0:0:
220,40,139301,1,4,0:0:0:0:
292,344,139508,1,4,0:0:0:0:
40,344,139715,1,4,0:0:0:0:
136,192,140128,5,2,0:0:0:0:
316,144,140335,1,0,0:0:0:0:
340,164,140439,1,0,0:0:0:0:
336,196,140542,1,0,0:0:0:0:
312,216,140646,1,0,0:0:0:0:
288,196,140749,5,4,0:0:0:0:
204,28,140956,1,0,0:0:0:0:
96,180,141163,5,0,0:0:0:0:
180,348,141370,1,4,0:0:0:0:
220,164,141577,5,0,0:0:0:0:
368,48,141783,1,0,0:0:0:0:
380,236,141990,5,0,0:0:0:0:
224,340,142197,1,4,0:0:0:0:
172,160,142404,5,0,0:0:0:0:
324,272,142611,1,4,0:0:0:0:
416,108,142818,2,8,L|280:116,1,125
240,204,144059,6,8,L|160:96,1,125
240,204,144473,2,8,L|332:320,1,125
240,204,144887,2,8,L|124:292,1,125
240,204,145301,2,8,L|348:128,1,125
496,24,145715,2,8,L|388:104,1,125
256,192,146128,1,4,0:0:0:0:
256,192,146335,1,4,0:0:0:0:
388,192,146542,5,2,0:0:0:0:
256,56,146749,1,2,0:0:0:0:
124,192,146956,1,2,0:0:0:0:
256,328,147163,1,2,0:0:0:0:
396,304,147370,6,0,P|392:252|336:212,1,93.7500035762788
276,120,147783,1,0,0:0:0:0:
256,108,147887,1,0,0:0:0:0:
236,96,147990,1,0,0:0:0:0:
212,88,148094,1,0,0:0:0:0:
188,88,148197,1,0,0:0:0:0:
168,96,148301,1,0,0:0:0:0:
148,80,148404,1,0,0:0:0:0:
132,64,148508,1,0,0:0:0:0:
116,48,148611,1,0,0:0:0:0:
96,60,148715,1,0,0:0:0:0:
92,84,148818,1,0,0:0:0:0:
84,108,148921,1,0,0:0:0:0:
80,132,149025,1,0,0:0:0:0:
68,176,149232,6,8,L|96:276,2,93.7500035762788
108,204,149852,2,8,L|140:308,2,93.7500035762788
104,188,150473,1,4,0:0:0:0:
156,56,150680,6,2,P|232:96|240:136,1,93.7500035762788
260,236,151094,2,2,P|312:284|368:288,1,93.7500035762788
468,252,151508,2,2,P|456:168|432:160,1,93.7500035762788
320,140,151921,2,8,P|344:84|472:52,1,187.500007152558
432,196,152542,5,0,0:0:0:0:
404,236,152646,1,0,0:0:0:0:
372,272,152749,1,0,0:0:0:0:
340,308,152852,1,0,0:0:0:0:
312,268,152956,1,0,0:0:0:0:
284,232,153059,1,0,0:0:0:0:
256,192,153163,1,0,0:0:0:0:
228,228,153266,1,0,0:0:0:0:
196,264,153370,1,0,0:0:0:0:
168,304,153473,1,0,0:0:0:0:
136,272,153577,1,0,0:0:0:0:
108,236,153680,1,0,0:0:0:0:
88,192,153783,1,0,0:0:0:0:
60,80,153990,6,8,L|196:56,1,125
368,32,154404,2,8,P|432:72|468:160,1,125
368,352,154818,2,8,P|432:312|468:224,1,125
468,192,155232,2,2,L|184:192,1,250
32,192,155852,6,8,P|64:128|128:96,1,125
228,68,156266,1,4,0:0:0:0:
32,192,156473,2,8,P|64:256|128:288,1,125
228,316,156887,1,4,0:0:0:0:
228,316,157094,1,4,0:0:0:0:
152,144,157301,6,8,P|204:208|272:232,1,125
424,264,157715,2,8,L|420:136,1,125
420,32,158128,2,8,L|288:32,1,125
108,36,158542,2,10,P|224:84|312:180,1,250
256,192,159163,12,0,161232,0:0:0:0:
440,248,161439,6,8,P|384:288|288:296,1,125
172,300,161852,2,8,P|104:272|64:208,1,125
104,48,162266,2,8,P|200:72|248:120,1,125
132,128,162680,2,2,P|184:180|264:188,2,125
304,200,163301,5,4,0:0:0:0:
452,316,163508,1,4,0:0:0:0:
304,200,163715,1,4,0:0:0:0:
444,76,163921,1,4,0:0:0:0:
188,48,164335,2,8,P|124:80|88:140,1,125
76,240,164749,2,8,P|120:184|192:160,1,125
284,168,165163,2,8,P|224:200|204:272,1,125
296,332,165577,1,4,0:0:0:0:
456,260,165990,6,8,L|344:180,1,125
56,260,166404,6,8,L|168:180,1,125
256,40,166818,1,4,0:0:0:0:
256,40,167025,1,4,0:0:0:0:
256,192,167232,12,0,169508,0:0:0:0:
256,192,169715,5,4,0:0:0:0:
120,304,169921,1,4,0:0:0:0:
408,80,170128,1,4,0:0:0:0:
256,192,170542,12,0,172818,0:0:0:0:
216,168,173232,5,2,0:0:0:0:
308,168,173439,1,2,0:0:0:0:
256,192,173852,12,0,176128,0:0:0:0:
208,256,176335,6,8,L|336:256,3,125
256,192,177163,12,0,179439,0:0:0:0:
100,136,179852,5,0,0:0:0:0:
432,136,180059,1,0,0:0:0:0:
256,192,180473,12,0,182749,0:0:0:0:
