osu file format v14

[General]
AudioFilename: audio(2).mp3
AudioLeadIn: 0
PreviewTime: -1
Countdown: 1
SampleSet: Normal
StackLeniency: 0.7
Mode: 2
LetterboxInBreaks: 0
WidescreenStoryboard: 0

[Editor]
DistanceSpacing: 0.9
BeatDivisor: 1
GridSize: 4
TimelineZoom: 1

[Metadata]
Title:CrazyBus Title Theme
TitleUnicode:CrazyBus Title Theme
Artist:Tom Maneiro
ArtistUnicode:Tom Maneiro
Creator:Skyleia
Version:School Bus
Source:seeing shrek not comply to the laws of physics is good
Tags:sega genesis good map nice song slow bpm
BeatmapID:1666167
BeatmapSetID:793373

[Difficulty]
HPDrainRate:2
CircleSize:5
OverallDifficulty:0
ApproachRate:6.4
SliderMultiplier:1.4
SliderTickRate:1

[Events]
//Background and Video events
0,0,"penguins.jpg",0,0
//Break Periods
//Storyboard Layer 0 (Background)
//Storyboard Layer 1 (Fail)
//Storyboard Layer 2 (Pass)
//Storyboard Layer 3 (Foreground)
//Storyboard Sound Samples

[TimingPoints]
1334,166.666666666667,4,1,0,6,1,0

[HitObjects]
348,200,1334,5,0,0:0:0:0:
184,208,1500,1,0,0:0:0:0:
348,200,1667,1,0,0:0:0:0:
184,208,1834,1,0,0:0:0:0:
348,200,2000,5,0,0:0:0:0:
184,208,2167,1,0,0:0:0:0:
348,200,2334,1,0,0:0:0:0:
184,208,2500,1,0,0:0:0:0:
496,212,2667,6,0,P|444:60|404:48,2,140
324,220,3167,1,0,0:0:0:0:
496,212,3334,5,0,0:0:0:0:
308,216,3500,1,0,0:0:0:0:
496,212,3667,1,0,0:0:0:0:
288,208,3834,1,0,0:0:0:0:
0,192,4000,5,0,0:0:0:0:
144,192,4167,1,0,0:0:0:0:
0,192,4334,1,0,0:0:0:0:
152,192,4500,1,0,0:0:0:0:
0,192,4667,5,0,0:0:0:0:
164,192,4834,1,0,0:0:0:0:
0,192,5000,1,0,0:0:0:0:
176,192,5167,1,0,0:0:0:0:
0,192,5334,5,0,0:0:0:0:
192,192,5500,1,0,0:0:0:0:
0,192,5667,1,0,0:0:0:0:
512,192,5834,1,0,0:0:0:0:
344,192,6000,6,0,L|180:192,3,140
356,192,6667,5,0,0:0:0:0:
196,192,6834,5,0,0:0:0:0:
364,192,7000,5,0,0:0:0:0:
184,192,7167,5,0,0:0:0:0:
376,192,7334,5,0,0:0:0:0:
164,192,7500,5,0,0:0:0:0:
400,192,7667,5,0,0:0:0:0:
120,192,7834,5,0,0:0:0:0:
460,192,8000,5,0,0:0:0:0:
48,192,8167,5,0,0:0:0:0:
512,192,8334,5,0,0:0:0:0:
0,188,8500,5,0,0:0:0:0:
512,192,8667,5,0,0:0:0:0:
0,188,8834,5,0,0:0:0:0:
508,188,9000,5,0,0:0:0:0:
16,180,9167,5,0,0:0:0:0:
448,184,9334,5,0,0:0:0:0:
108,180,9500,5,0,0:0:0:0:
384,184,9667,5,0,0:0:0:0:
192,184,9834,5,0,0:0:0:0:
328,184,10000,5,0,0:0:0:0:
256,184,10167,5,0,0:0:0:0:
104,184,10334,5,0,0:0:0:0:
316,184,10500,5,0,0:0:0:0:
164,184,10667,5,0,0:0:0:0:
372,184,10834,5,0,0:0:0:0:
224,188,11000,5,0,0:0:0:0:
428,184,11167,5,0,0:0:0:0:
168,188,11334,5,0,0:0:0:0:
428,184,11500,5,0,0:0:0:0:
112,188,11667,5,0,0:0:0:0:
372,184,11834,5,0,0:0:0:0:
56,192,12000,5,0,0:0:0:0:
316,184,12167,5,0,0:0:0:0:
0,192,12334,5,0,0:0:0:0:
200,192,12500,5,0,0:0:0:0:
0,192,12667,5,0,0:0:0:0:
200,192,12834,5,0,0:0:0:0:
56,192,13000,5,0,0:0:0:0:
256,192,13167,5,0,0:0:0:0:
112,196,13334,5,0,0:0:0:0:
312,196,13500,5,0,0:0:0:0:
428,192,13667,1,0,0:0:0:0:
312,196,13834,1,0,0:0:0:0:
124,192,14000,1,0,0:0:0:0:
256,192,14167,5,0,0:0:0:0:
124,192,14334,1,0,0:0:0:0:
428,192,14500,1,0,0:0:0:0:
280,192,14667,1,0,0:0:0:0:
428,192,14834,5,0,0:0:0:0:
280,192,15000,1,0,0:0:0:0:
432,192,15167,1,0,0:0:0:0:
260,192,15334,1,0,0:0:0:0:
408,188,15500,5,0,0:0:0:0:
296,192,15667,1,0,0:0:0:0:
396,192,15834,1,0,0:0:0:0:
260,176,16000,1,0,0:0:0:0:
480,184,16167,5,0,0:0:0:0:
248,188,16334,1,0,0:0:0:0:
424,200,16500,1,0,0:0:0:0:
472,200,16667,1,0,0:0:0:0:
348,200,16834,5,0,0:0:0:0:
184,208,17000,1,0,0:0:0:0:
348,200,17167,1,0,0:0:0:0:
184,208,17334,1,0,0:0:0:0:
348,200,17500,5,0,0:0:0:0:
184,208,17667,1,0,0:0:0:0:
348,200,17834,1,0,0:0:0:0:
184,208,18000,1,0,0:0:0:0:
496,212,18167,6,0,P|444:60|404:48,2,140
324,220,18667,1,0,0:0:0:0:
496,212,18834,5,0,0:0:0:0:
308,216,19000,1,0,0:0:0:0:
496,212,19167,1,0,0:0:0:0:
288,208,19334,1,0,0:0:0:0:
0,192,19500,5,0,0:0:0:0:
144,192,19667,1,0,0:0:0:0:
0,192,19834,1,0,0:0:0:0:
152,192,20000,1,0,0:0:0:0:
0,192,20167,5,0,0:0:0:0:
164,192,20334,1,0,0:0:0:0:
0,192,20500,1,0,0:0:0:0:
176,192,20667,1,0,0:0:0:0:
0,192,20834,5,0,0:0:0:0:
192,192,21000,1,0,0:0:0:0:
0,192,21167,1,0,0:0:0:0:
512,192,21334,1,0,0:0:0:0:
344,192,21500,6,0,L|180:192,3,140
356,192,22167,5,0,0:0:0:0:
196,192,22334,5,0,0:0:0:0:
364,192,22500,5,0,0:0:0:0:
184,192,22667,5,0,0:0:0:0:
376,192,22834,5,0,0:0:0:0:
164,192,23000,5,0,0:0:0:0:
400,192,23167,5,0,0:0:0:0:
120,192,23334,5,0,0:0:0:0:
460,192,23500,5,0,0:0:0:0:
48,192,23667,5,0,0:0:0:0:
512,192,23834,5,0,0:0:0:0:
0,188,24000,5,0,0:0:0:0:
512,192,24167,5,0,0:0:0:0:
0,188,24334,5,0,0:0:0:0:
508,188,24500,5,0,0:0:0:0:
16,180,24667,5,0,0:0:0:0:
448,184,24834,5,0,0:0:0:0:
108,180,25000,5,0,0:0:0:0:
384,184,25167,5,0,0:0:0:0:
192,184,25334,5,0,0:0:0:0:
328,184,25500,5,0,0:0:0:0:
256,184,25667,5,0,0:0:0:0:
104,184,25834,5,0,0:0:0:0:
316,184,26000,5,0,0:0:0:0:
164,184,26167,5,0,0:0:0:0:
372,184,26334,5,0,0:0:0:0:
224,188,26500,5,0,0:0:0:0:
428,184,26667,5,0,0:0:0:0:
168,188,26834,5,0,0:0:0:0:
428,184,27000,5,0,0:0:0:0:
112,188,27167,5,0,0:0:0:0:
372,184,27334,5,0,0:0:0:0:
56,192,27500,5,0,0:0:0:0:
316,184,27667,5,0,0:0:0:0:
0,192,27834,5,0,0:0:0:0:
200,192,28000,5,0,0:0:0:0:
0,192,28167,5,0,0:0:0:0:
200,192,28334,5,0,0:0:0:0:
56,192,28500,5,0,0:0:0:0:
256,192,28667,5,0,0:0:0:0:
112,196,28834,5,0,0:0:0:0:
312,196,29000,5,0,0:0:0:0:
428,192,29167,1,0,0:0:0:0:
312,196,29334,1,0,0:0:0:0:
124,192,29500,1,0,0:0:0:0:
256,192,29667,5,0,0:0:0:0:
124,192,29834,1,0,0:0:0:0:
428,192,30000,1,0,0:0:0:0:
280,192,30167,1,0,0:0:0:0:
428,192,30334,5,0,0:0:0:0:
280,192,30500,1,0,0:0:0:0:
432,192,30667,1,0,0:0:0:0:
260,192,30834,1,0,0:0:0:0:
408,188,31000,5,0,0:0:0:0:
296,192,31167,1,0,0:0:0:0:
396,192,31334,1,0,0:0:0:0:
260,176,31500,1,0,0:0:0:0:
480,184,31667,5,0,0:0:0:0:
248,188,31834,1,0,0:0:0:0:
424,200,32000,1,0,0:0:0:0:
472,200,32167,1,0,0:0:0:0:
348,200,32334,5,0,0:0:0:0:
184,208,32500,1,0,0:0:0:0:
348,200,32667,1,0,0:0:0:0:
184,208,32834,1,0,0:0:0:0:
348,200,33000,5,0,0:0:0:0:
184,208,33167,1,0,0:0:0:0:
348,200,33334,1,0,0:0:0:0:
184,208,33500,1,0,0:0:0:0:
496,212,33667,6,0,P|444:60|404:48,2,140
324,220,34167,1,0,0:0:0:0:
496,212,34334,5,0,0:0:0:0:
308,216,34500,1,0,0:0:0:0:
496,212,34667,1,0,0:0:0:0:
288,208,34834,1,0,0:0:0:0:
0,192,35000,5,0,0:0:0:0:
144,192,35167,1,0,0:0:0:0:
0,192,35334,1,0,0:0:0:0:
152,192,35500,1,0,0:0:0:0:
0,192,35667,5,0,0:0:0:0:
164,192,35834,1,0,0:0:0:0:
0,192,36000,1,0,0:0:0:0:
176,192,36167,1,0,0:0:0:0:
0,192,36334,5,0,0:0:0:0:
192,192,36500,1,0,0:0:0:0:
0,192,36667,1,0,0:0:0:0:
512,192,36834,1,0,0:0:0:0:
344,192,37000,6,0,L|180:192,3,140
356,192,37667,5,0,0:0:0:0:
196,192,37834,5,0,0:0:0:0:
364,192,38000,5,0,0:0:0:0:
184,192,38167,5,0,0:0:0:0:
376,192,38334,5,0,0:0:0:0:
164,192,38500,5,0,0:0:0:0:
400,192,38667,5,0,0:0:0:0:
120,192,38834,5,0,0:0:0:0:
460,192,39000,5,0,0:0:0:0:
48,192,39167,5,0,0:0:0:0:
512,192,39334,5,0,0:0:0:0:
0,188,39500,5,0,0:0:0:0:
512,192,39667,5,0,0:0:0:0:
0,188,39834,5,0,0:0:0:0:
508,188,40000,5,0,0:0:0:0:
16,180,40167,5,0,0:0:0:0:
448,184,40334,5,0,0:0:0:0:
108,180,40500,5,0,0:0:0:0:
384,184,40667,5,0,0:0:0:0:
192,184,40834,5,0,0:0:0:0:
328,184,41000,5,0,0:0:0:0:
256,184,41167,5,0,0:0:0:0:
104,184,41334,5,0,0:0:0:0:
316,184,41500,5,0,0:0:0:0:
164,184,41667,5,0,0:0:0:0:
372,184,41834,5,0,0:0:0:0:
224,188,42000,5,0,0:0:0:0:
428,184,42167,5,0,0:0:0:0:
168,188,42334,5,0,0:0:0:0:
428,184,42500,5,0,0:0:0:0:
112,188,42667,5,0,0:0:0:0:
372,184,42834,5,0,0:0:0:0:
56,192,43000,5,0,0:0:0:0:
316,184,43167,5,0,0:0:0:0:
0,192,43334,5,0,0:0:0:0:
200,192,43500,5,0,0:0:0:0:
0,192,43667,5,0,0:0:0:0:
200,192,43834,5,0,0:0:0:0:
56,192,44000,5,0,0:0:0:0:
256,192,44167,5,0,0:0:0:0:
112,196,44334,5,0,0:0:0:0:
312,196,44500,5,0,0:0:0:0:
428,192,44667,1,0,0:0:0:0:
312,196,44834,1,0,0:0:0:0:
124,192,45000,1,0,0:0:0:0:
256,192,45167,5,0,0:0:0:0:
124,192,45334,1,0,0:0:0:0:
428,192,45500,1,0,0:0:0:0:
280,192,45667,1,0,0:0:0:0:
428,192,45834,5,0,0:0:0:0:
280,192,46000,1,0,0:0:0:0:
432,192,46167,1,0,0:0:0:0:
260,192,46334,1,0,0:0:0:0:
408,188,46500,5,0,0:0:0:0:
296,192,46667,1,0,0:0:0:0:
396,192,46834,1,0,0:0:0:0:
260,176,47000,1,0,0:0:0:0:
480,184,47167,5,0,0:0:0:0:
248,188,47334,1,0,0:0:0:0:
424,200,47500,1,0,0:0:0:0:
472,200,47667,1,0,0:0:0:0:
348,200,47834,5,0,0:0:0:0:
184,208,48000,1,0,0:0:0:0:
348,200,48167,1,0,0:0:0:0:
184,208,48334,1,0,0:0:0:0:
348,200,48500,5,0,0:0:0:0:
184,208,48667,1,0,0:0:0:0:
348,200,48834,1,0,0:0:0:0:
184,208,49000,1,0,0:0:0:0:
496,212,49167,6,0,P|444:60|404:48,2,140
324,220,49667,1,0,0:0:0:0:
496,212,49834,5,0,0:0:0:0:
308,216,50000,1,0,0:0:0:0:
496,212,50167,1,0,0:0:0:0:
288,208,50334,1,0,0:0:0:0:
0,192,50500,5,0,0:0:0:0:
144,192,50667,1,0,0:0:0:0:
0,192,50834,1,0,0:0:0:0:
152,192,51000,1,0,0:0:0:0:
0,192,51167,5,0,0:0:0:0:
164,192,51334,1,0,0:0:0:0:
0,192,51500,1,0,0:0:0:0:
176,192,51667,1,0,0:0:0:0:
0,192,51834,5,0,0:0:0:0:
192,192,52000,1,0,0:0:0:0:
0,192,52167,1,0,0:0:0:0:
512,192,52334,1,0,0:0:0:0:
344,192,52500,6,0,L|180:192,3,140
356,192,53167,5,0,0:0:0:0:
196,192,53334,5,0,0:0:0:0:
364,192,53500,5,0,0:0:0:0:
184,192,53667,5,0,0:0:0:0:
376,192,53834,5,0,0:0:0:0:
164,192,54000,5,0,0:0:0:0:
400,192,54167,5,0,0:0:0:0:
120,192,54334,5,0,0:0:0:0:
460,192,54500,5,0,0:0:0:0:
48,192,54667,5,0,0:0:0:0:
512,192,54834,5,0,0:0:0:0:
0,188,55000,5,0,0:0:0:0:
512,192,55167,5,0,0:0:0:0:
0,188,55334,5,0,0:0:0:0:
508,188,55500,5,0,0:0:0:0:
16,180,55667,5,0,0:0:0:0:
448,184,55834,5,0,0:0:0:0:
108,180,56000,5,0,0:0:0:0:
384,184,56167,5,0,0:0:0:0:
192,184,56334,5,0,0:0:0:0:
328,184,56500,5,0,0:0:0:0:
256,184,56667,5,0,0:0:0:0:
104,184,56834,5,0,0:0:0:0:
316,184,57000,5,0,0:0:0:0:
164,184,57167,5,0,0:0:0:0:
372,184,57334,5,0,0:0:0:0:
224,188,57500,5,0,0:0:0:0:
428,184,57667,5,0,0:0:0:0:
168,188,57834,5,0,0:0:0:0:
428,184,58000,5,0,0:0:0:0:
112,188,58167,5,0,0:0:0:0:
372,184,58334,5,0,0:0:0:0:
56,192,58500,5,0,0:0:0:0:
316,184,58667,5,0,0:0:0:0:
0,192,58834,5,0,0:0:0:0:
200,192,59000,5,0,0:0:0:0:
0,192,59167,5,0,0:0:0:0:
200,192,59334,5,0,0:0:0:0:
56,192,59500,5,0,0:0:0:0:
256,192,59667,5,0,0:0:0:0:
112,196,59834,5,0,0:0:0:0:
312,196,60000,5,0,0:0:0:0:
428,192,60167,1,0,0:0:0:0:
312,196,60334,1,0,0:0:0:0:
124,192,60500,1,0,0:0:0:0:
256,192,60667,5,0,0:0:0:0:
124,192,60834,1,0,0:0:0:0:
428,192,61000,1,0,0:0:0:0:
280,192,61167,1,0,0:0:0:0:
428,192,61334,5,0,0:0:0:0:
280,192,61500,1,0,0:0:0:0:
432,192,61667,1,0,0:0:0:0:
260,192,61834,1,0,0:0:0:0:
408,188,62000,5,0,0:0:0:0:
296,192,62167,1,0,0:0:0:0:
396,192,62334,1,0,0:0:0:0:
260,176,62500,1,0,0:0:0:0:
480,184,62667,5,0,0:0:0:0:
248,188,62834,1,0,0:0:0:0:
424,200,63000,1,0,0:0:0:0:
472,200,63167,1,0,0:0:0:0:
348,200,63334,5,0,0:0:0:0:
184,208,63500,1,0,0:0:0:0:
348,200,63667,1,0,0:0:0:0:
184,208,63834,1,0,0:0:0:0:
348,200,64000,5,0,0:0:0:0:
184,208,64167,1,0,0:0:0:0:
348,200,64334,1,0,0:0:0:0:
184,208,64500,1,0,0:0:0:0:
496,212,64667,6,0,P|444:60|404:48,2,140
324,220,65167,1,0,0:0:0:0:
496,212,65334,5,0,0:0:0:0:
308,216,65500,1,0,0:0:0:0:
496,212,65667,1,0,0:0:0:0:
288,208,65834,1,0,0:0:0:0:
0,192,66000,5,0,0:0:0:0:
144,192,66167,1,0,0:0:0:0:
0,192,66334,1,0,0:0:0:0:
152,192,66500,1,0,0:0:0:0:
0,192,66667,5,0,0:0:0:0:
164,192,66834,1,0,0:0:0:0:
0,192,67000,1,0,0:0:0:0:
176,192,67167,1,0,0:0:0:0:
0,192,67334,5,0,0:0:0:0:
192,192,67500,1,0,0:0:0:0:
0,192,67667,1,0,0:0:0:0:
512,192,67834,1,0,0:0:0:0:
344,192,68000,6,0,L|180:192,3,140
356,192,68667,5,0,0:0:0:0:
196,192,68834,5,0,0:0:0:0:
364,192,69000,5,0,0:0:0:0:
184,192,69167,5,0,0:0:0:0:
376,192,69334,5,0,0:0:0:0:
164,192,69500,5,0,0:0:0:0:
400,192,69667,5,0,0:0:0:0:
120,192,69834,5,0,0:0:0:0:
460,192,70000,5,0,0:0:0:0:
48,192,70167,5,0,0:0:0:0:
512,192,70334,5,0,0:0:0:0:
0,188,70500,5,0,0:0:0:0:
512,192,70667,5,0,0:0:0:0:
0,188,70834,5,0,0:0:0:0:
508,188,71000,5,0,0:0:0:0:
16,180,71167,5,0,0:0:0:0:
448,184,71334,5,0,0:0:0:0:
108,180,71500,5,0,0:0:0:0:
384,184,71667,5,0,0:0:0:0:
192,184,71834,5,0,0:0:0:0:
328,184,72000,5,0,0:0:0:0:
256,184,72167,5,0,0:0:0:0:
104,184,72334,5,0,0:0:0:0:
316,184,72500,5,0,0:0:0:0:
164,184,72667,5,0,0:0:0:0:
372,184,72834,5,0,0:0:0:0:
224,188,73000,5,0,0:0:0:0:
428,184,73167,5,0,0:0:0:0:
168,188,73334,5,0,0:0:0:0:
428,184,73500,5,0,0:0:0:0:
112,188,73667,5,0,0:0:0:0:
372,184,73834,5,0,0:0:0:0:
56,192,74000,5,0,0:0:0:0:
316,184,74167,5,0,0:0:0:0:
0,192,74334,5,0,0:0:0:0:
200,192,74500,5,0,0:0:0:0:
0,192,74667,5,0,0:0:0:0:
200,192,74834,5,0,0:0:0:0:
56,192,75000,5,0,0:0:0:0:
256,192,75167,5,0,0:0:0:0:
112,196,75334,5,0,0:0:0:0:
312,196,75500,5,0,0:0:0:0:
428,192,75667,1,0,0:0:0:0:
312,196,75834,1,0,0:0:0:0:
124,192,76000,1,0,0:0:0:0:
256,192,76167,5,0,0:0:0:0:
124,192,76334,1,0,0:0:0:0:
428,192,76500,1,0,0:0:0:0:
280,192,76667,1,0,0:0:0:0:
428,192,76834,5,0,0:0:0:0:
280,192,77000,1,0,0:0:0:0:
432,192,77167,1,0,0:0:0:0:
260,192,77334,1,0,0:0:0:0:
408,188,77500,5,0,0:0:0:0:
296,192,77667,1,0,0:0:0:0:
396,192,77834,1,0,0:0:0:0:
260,176,78000,1,0,0:0:0:0:
480,184,78167,5,0,0:0:0:0:
248,188,78334,1,0,0:0:0:0:
424,200,78500,1,0,0:0:0:0:
472,200,78667,1,0,0:0:0:0:
348,200,78834,5,0,0:0:0:0:
184,208,79000,1,0,0:0:0:0:
348,200,79167,1,0,0:0:0:0:
184,208,79334,1,0,0:0:0:0:
348,200,79500,5,0,0:0:0:0:
184,208,79667,1,0,0:0:0:0:
348,200,79834,1,0,0:0:0:0:
184,208,80000,1,0,0:0:0:0:
496,212,80167,6,0,P|444:60|404:48,2,140
324,220,80667,1,0,0:0:0:0:
496,212,80834,5,0,0:0:0:0:
308,216,81000,1,0,0:0:0:0:
496,212,81167,1,0,0:0:0:0:
288,208,81334,1,0,0:0:0:0:
0,192,81500,5,0,0:0:0:0:
144,192,81667,1,0,0:0:0:0:
0,192,81834,1,0,0:0:0:0:
152,192,82000,1,0,0:0:0:0:
0,192,82167,5,0,0:0:0:0:
164,192,82334,1,0,0:0:0:0:
0,192,82500,1,0,0:0:0:0:
176,192,82667,1,0,0:0:0:0:
0,192,82834,5,0,0:0:0:0:
192,192,83000,1,0,0:0:0:0:
0,192,83167,1,0,0:0:0:0:
512,192,83334,1,0,0:0:0:0:
344,192,83500,6,0,L|180:192,3,140
356,192,84167,5,0,0:0:0:0:
196,192,84334,5,0,0:0:0:0:
364,192,84500,5,0,0:0:0:0:
184,192,84667,5,0,0:0:0:0:
376,192,84834,5,0,0:0:0:0:
164,192,85000,5,0,0:0:0:0:
400,192,85167,5,0,0:0:0:0:
120,192,85334,5,0,0:0:0:0:
460,192,85500,5,0,0:0:0:0:
48,192,85667,5,0,0:0:0:0:
512,192,85834,5,0,0:0:0:0:
0,188,86000,5,0,0:0:0:0:
512,192,86167,5,0,0:0:0:0:
0,188,86334,5,0,0:0:0:0:
508,188,86500,5,0,0:0:0:0:
16,180,86667,5,0,0:0:0:0:
448,184,86834,5,0,0:0:0:0:
108,180,87000,5,0,0:0:0:0:
384,184,87167,5,0,0:0:0:0:
192,184,87334,5,0,0:0:0:0:
328,184,87500,5,0,0:0:0:0:
256,184,87667,5,0,0:0:0:0:
104,184,87834,5,0,0:0:0:0:
316,184,88000,5,0,0:0:0:0:
164,184,88167,5,0,0:0:0:0:
372,184,88334,5,0,0:0:0:0:
224,188,88500,5,0,0:0:0:0:
428,184,88667,5,0,0:0:0:0:
168,188,88834,5,0,0:0:0:0:
428,184,89000,5,0,0:0:0:0:
112,188,89167,5,0,0:0:0:0:
372,184,89334,5,0,0:0:0:0:
56,192,89500,5,0,0:0:0:0:
316,184,89667,5,0,0:0:0:0:
0,192,89834,5,0,0:0:0:0:
200,192,90000,5,0,0:0:0:0:
0,192,90167,5,0,0:0:0:0:
200,192,90334,5,0,0:0:0:0:
56,192,90500,5,0,0:0:0:0:
256,192,90667,5,0,0:0:0:0:
112,196,90834,5,0,0:0:0:0:
312,196,91000,5,0,0:0:0:0:
428,192,91167,1,0,0:0:0:0:
312,196,91334,1,0,0:0:0:0:
124,192,91500,1,0,0:0:0:0:
256,192,91667,5,0,0:0:0:0:
124,192,91834,1,0,0:0:0:0:
428,192,92000,1,0,0:0:0:0:
280,192,92167,1,0,0:0:0:0:
428,192,92334,5,0,0:0:0:0:
280,192,92500,1,0,0:0:0:0:
432,192,92667,1,0,0:0:0:0:
260,192,92834,1,0,0:0:0:0:
408,188,93000,5,0,0:0:0:0:
296,192,93167,1,0,0:0:0:0:
396,192,93334,1,0,0:0:0:0:
260,176,93500,1,0,0:0:0:0:
480,184,93667,5,0,0:0:0:0:
248,188,93834,1,0,0:0:0:0:
424,200,94000,1,0,0:0:0:0:
472,200,94167,1,0,0:0:0:0:
348,200,94334,5,0,0:0:0:0:
184,208,94500,1,0,0:0:0:0:
348,200,94667,1,0,0:0:0:0:
184,208,94834,1,0,0:0:0:0:
348,200,95000,5,0,0:0:0:0:
184,208,95167,1,0,0:0:0:0:
348,200,95334,1,0,0:0:0:0:
184,208,95500,1,0,0:0:0:0:
496,212,95667,6,0,P|444:60|404:48,2,140
324,220,96167,1,0,0:0:0:0:
496,212,96334,5,0,0:0:0:0:
308,216,96500,1,0,0:0:0:0:
496,212,96667,1,0,0:0:0:0:
288,208,96834,1,0,0:0:0:0:
0,192,97000,5,0,0:0:0:0:
144,192,97167,1,0,0:0:0:0:
0,192,97334,1,0,0:0:0:0:
152,192,97500,1,0,0:0:0:0:
0,192,97667,5,0,0:0:0:0:
164,192,97834,1,0,0:0:0:0:
0,192,98000,1,0,0:0:0:0:
176,192,98167,1,0,0:0:0:0:
0,192,98334,5,0,0:0:0:0:
192,192,98500,1,0,0:0:0:0:
0,192,98667,1,0,0:0:0:0:
512,192,98834,1,0,0:0:0:0:
344,192,99000,6,0,L|180:192,3,140
356,192,99667,5,0,0:0:0:0:
196,192,99834,5,0,0:0:0:0:
364,192,100000,5,0,0:0:0:0:
184,192,100167,5,0,0:0:0:0:
376,192,100334,5,0,0:0:0:0:
164,192,100500,5,0,0:0:0:0:
400,192,100667,5,0,0:0:0:0:
120,192,100834,5,0,0:0:0:0:
460,192,101000,5,0,0:0:0:0:
48,192,101167,5,0,0:0:0:0:
512,192,101334,5,0,0:0:0:0:
0,188,101500,5,0,0:0:0:0:
512,192,101667,5,0,0:0:0:0:
0,188,101834,5,0,0:0:0:0:
508,188,102000,5,0,0:0:0:0:
16,180,102167,5,0,0:0:0:0:
448,184,102334,5,0,0:0:0:0:
108,180,102500,5,0,0:0:0:0:
384,184,102667,5,0,0:0:0:0:
192,184,102834,5,0,0:0:0:0:
328,184,103000,5,0,0:0:0:0:
256,184,103167,5,0,0:0:0:0:
104,184,103334,5,0,0:0:0:0:
316,184,103500,5,0,0:0:0:0:
164,184,103667,5,0,0:0:0:0:
372,184,103834,5,0,0:0:0:0:
224,188,104000,5,0,0:0:0:0:
428,184,104167,5,0,0:0:0:0:
168,188,104334,5,0,0:0:0:0:
428,184,104500,5,0,0:0:0:0:
112,188,104667,5,0,0:0:0:0:
372,184,104834,5,0,0:0:0:0:
56,192,105000,5,0,0:0:0:0:
316,184,105167,5,0,0:0:0:0:
0,192,105334,5,0,0:0:0:0:
200,192,105500,5,0,0:0:0:0:
0,192,105667,5,0,0:0:0:0:
200,192,105834,5,0,0:0:0:0:
56,192,106000,5,0,0:0:0:0:
256,192,106167,5,0,0:0:0:0:
112,196,106334,5,0,0:0:0:0:
312,196,106500,5,0,0:0:0:0:
428,192,106667,1,0,0:0:0:0:
312,196,106834,1,0,0:0:0:0:
124,192,107000,1,0,0:0:0:0:
256,192,107167,5,0,0:0:0:0:
124,192,107334,1,0,0:0:0:0:
428,192,107500,1,0,0:0:0:0:
280,192,107667,1,0,0:0:0:0:
428,192,107834,5,0,0:0:0:0:
280,192,108000,1,0,0:0:0:0:
432,192,108167,1,0,0:0:0:0:
260,192,108334,1,0,0:0:0:0:
408,188,108500,5,0,0:0:0:0:
296,192,108667,1,0,0:0:0:0:
348,200,108834,5,0,0:0:0:0:
184,208,109000,1,0,0:0:0:0:
348,200,109167,1,0,0:0:0:0:
184,208,109334,1,0,0:0:0:0:
348,200,109500,5,0,0:0:0:0:
184,208,109667,1,0,0:0:0:0:
348,200,109834,1,0,0:0:0:0:
184,208,110000,1,0,0:0:0:0:
496,212,110167,6,0,P|444:60|404:48,2,140
324,220,110667,1,0,0:0:0:0:
496,212,110834,5,0,0:0:0:0:
308,216,111000,1,0,0:0:0:0:
496,212,111167,1,0,0:0:0:0:
288,208,111334,1,0,0:0:0:0:
0,192,111500,5,0,0:0:0:0:
144,192,111667,1,0,0:0:0:0:
0,192,111834,1,0,0:0:0:0:
152,192,112000,1,0,0:0:0:0:
0,192,112167,5,0,0:0:0:0:
164,192,112334,1,0,0:0:0:0:
0,192,112500,1,0,0:0:0:0:
176,192,112667,1,0,0:0:0:0:
0,192,112834,5,0,0:0:0:0:
192,192,113000,1,0,0:0:0:0:
0,192,113167,1,0,0:0:0:0:
512,192,113334,1,0,0:0:0:0:
344,192,113500,6,0,L|180:192,3,140
356,192,114167,5,0,0:0:0:0:
196,192,114334,5,0,0:0:0:0:
364,192,114500,5,0,0:0:0:0:
184,192,114667,5,0,0:0:0:0:
376,192,114834,5,0,0:0:0:0:
164,192,115000,5,0,0:0:0:0:
400,192,115167,5,0,0:0:0:0:
120,192,115334,5,0,0:0:0:0:
460,192,115500,5,0,0:0:0:0:
48,192,115667,5,0,0:0:0:0:
512,192,115834,5,0,0:0:0:0:
0,188,116000,5,0,0:0:0:0:
512,192,116167,5,0,0:0:0:0:
0,188,116334,5,0,0:0:0:0:
508,188,116500,5,0,0:0:0:0:
16,180,116667,5,0,0:0:0:0:
448,184,116834,5,0,0:0:0:0:
108,180,117000,5,0,0:0:0:0:
384,184,117167,5,0,0:0:0:0:
192,184,117334,5,0,0:0:0:0:
328,184,117500,5,0,0:0:0:0:
256,184,117667,5,0,0:0:0:0:
104,184,117834,5,0,0:0:0:0:
316,184,118000,5,0,0:0:0:0:
164,184,118167,5,0,0:0:0:0:
372,184,118334,5,0,0:0:0:0:
224,188,118500,5,0,0:0:0:0:
428,184,118667,5,0,0:0:0:0:
168,188,118834,5,0,0:0:0:0:
428,184,119000,5,0,0:0:0:0:
112,188,119167,5,0,0:0:0:0:
372,184,119334,5,0,0:0:0:0:
56,192,119500,5,0,0:0:0:0:
316,184,119667,5,0,0:0:0:0:
0,192,119834,5,0,0:0:0:0:
200,192,120000,5,0,0:0:0:0:
0,192,120167,5,0,0:0:0:0:
200,192,120334,5,0,0:0:0:0:
56,192,120500,5,0,0:0:0:0:
256,192,120667,5,0,0:0:0:0:
112,196,120834,5,0,0:0:0:0:
312,196,121000,5,0,0:0:0:0:
428,192,121167,1,0,0:0:0:0:
312,196,121334,1,0,0:0:0:0:
124,192,121500,1,0,0:0:0:0:
256,192,121667,5,0,0:0:0:0:
124,192,121834,1,0,0:0:0:0:
428,192,122000,1,0,0:0:0:0:
280,192,122167,1,0,0:0:0:0:
428,192,122334,5,0,0:0:0:0:
280,192,122500,1,0,0:0:0:0:
432,192,122667,1,0,0:0:0:0:
260,192,122834,1,0,0:0:0:0:
408,188,123000,5,0,0:0:0:0:
296,192,123167,1,0,0:0:0:0:
396,192,123334,1,0,0:0:0:0:
260,176,123500,1,0,0:0:0:0:
480,184,123667,5,0,0:0:0:0:
248,188,123834,1,0,0:0:0:0:
424,200,124000,1,0,0:0:0:0:
472,200,124167,1,0,0:0:0:0:
348,200,124334,5,0,0:0:0:0:
184,208,124500,1,0,0:0:0:0:
348,200,124667,1,0,0:0:0:0:
184,208,124834,1,0,0:0:0:0:
348,200,125000,5,0,0:0:0:0:
184,208,125167,1,0,0:0:0:0:
348,200,125334,1,0,0:0:0:0:
184,208,125500,1,0,0:0:0:0:
496,212,125667,6,0,P|444:60|404:48,2,140
324,220,126167,1,0,0:0:0:0:
496,212,126334,5,0,0:0:0:0:
308,216,126500,1,0,0:0:0:0:
496,212,126667,1,0,0:0:0:0:
288,208,126834,1,0,0:0:0:0:
0,192,127000,5,0,0:0:0:0:
144,192,127167,1,0,0:0:0:0:
0,192,127334,1,0,0:0:0:0:
152,192,127500,1,0,0:0:0:0:
0,192,127667,5,0,0:0:0:0:
164,192,127834,1,0,0:0:0:0:
0,192,128000,1,0,0:0:0:0:
176,192,128167,1,0,0:0:0:0:
0,192,128334,5,0,0:0:0:0:
192,192,128500,1,0,0:0:0:0:
0,192,128667,1,0,0:0:0:0:
512,192,128834,1,0,0:0:0:0:
344,192,129000,6,0,L|180:192,3,140
356,192,129667,5,0,0:0:0:0:
196,192,129834,5,0,0:0:0:0:
364,192,130000,5,0,0:0:0:0:
184,192,130167,5,0,0:0:0:0:
376,192,130334,5,0,0:0:0:0:
164,192,130500,5,0,0:0:0:0:
400,192,130667,5,0,0:0:0:0:
120,192,130834,5,0,0:0:0:0:
460,192,131000,5,0,0:0:0:0:
48,192,131167,5,0,0:0:0:0:
512,192,131334,5,0,0:0:0:0:
0,188,131500,5,0,0:0:0:0:
512,192,131667,5,0,0:0:0:0:
0,188,131834,5,0,0:0:0:0:
508,188,132000,5,0,0:0:0:0:
16,180,132167,5,0,0:0:0:0:
448,184,132334,5,0,0:0:0:0:
108,180,132500,5,0,0:0:0:0:
384,184,132667,5,0,0:0:0:0:
192,184,132834,5,0,0:0:0:0:
328,184,133000,5,0,0:0:0:0:
256,184,133167,5,0,0:0:0:0:
104,184,133334,5,0,0:0:0:0:
316,184,133500,5,0,0:0:0:0:
164,184,133667,5,0,0:0:0:0:
372,184,133834,5,0,0:0:0:0:
224,188,134000,5,0,0:0:0:0:
428,184,134167,5,0,0:0:0:0:
168,188,134334,5,0,0:0:0:0:
428,184,134500,5,0,0:0:0:0:
112,188,134667,5,0,0:0:0:0:
372,184,134834,5,0,0:0:0:0:
56,192,135000,5,0,0:0:0:0:
316,184,135167,5,0,0:0:0:0:
0,192,135334,5,0,0:0:0:0:
200,192,135500,5,0,0:0:0:0:
0,192,135667,5,0,0:0:0:0:
200,192,135834,5,0,0:0:0:0:
56,192,136000,5,0,0:0:0:0:
256,192,136167,5,0,0:0:0:0:
112,196,136334,5,0,0:0:0:0:
312,196,136500,5,0,0:0:0:0:
428,192,136667,1,0,0:0:0:0:
312,196,136834,1,0,0:0:0:0:
124,192,137000,1,0,0:0:0:0:
256,192,137167,5,0,0:0:0:0:
124,192,137334,1,0,0:0:0:0:
428,192,137500,1,0,0:0:0:0:
280,192,137667,1,0,0:0:0:0:
428,192,137834,5,0,0:0:0:0:
280,192,138000,1,0,0:0:0:0:
432,192,138167,1,0,0:0:0:0:
260,192,138334,1,0,0:0:0:0:
408,188,138500,5,0,0:0:0:0:
296,192,138667,1,0,0:0:0:0:
396,192,138834,1,0,0:0:0:0:
260,176,139000,1,0,0:0:0:0:
480,184,139167,5,0,0:0:0:0:
248,188,139334,1,0,0:0:0:0:
424,200,139500,1,0,0:0:0:0:
472,200,139667,1,0,0:0:0:0:
348,200,139834,5,0,0:0:0:0:
184,208,140000,1,0,0:0:0:0:
348,200,140167,1,0,0:0:0:0:
184,208,140334,1,0,0:0:0:0:
348,200,140500,5,0,0:0:0:0:
184,208,140667,1,0,0:0:0:0:
348,200,140834,1,0,0:0:0:0:
184,208,141000,1,0,0:0:0:0:
496,212,141167,6,0,P|444:60|404:48,2,140
324,220,141667,1,0,0:0:0:0:
496,212,141834,5,0,0:0:0:0:
308,216,142000,1,0,0:0:0:0:
496,212,142167,1,0,0:0:0:0:
288,208,142334,1,0,0:0:0:0:
0,192,142500,5,0,0:0:0:0:
144,192,142667,1,0,0:0:0:0:
0,192,142834,1,0,0:0:0:0:
152,192,143000,1,0,0:0:0:0:
0,192,143167,5,0,0:0:0:0:
164,192,143334,1,0,0:0:0:0:
0,192,143500,1,0,0:0:0:0:
176,192,143667,1,0,0:0:0:0:
0,192,143834,5,0,0:0:0:0:
192,192,144000,1,0,0:0:0:0:
0,192,144167,1,0,0:0:0:0:
512,192,144334,1,0,0:0:0:0:
344,192,144500,6,0,L|180:192,3,140
356,192,145167,5,0,0:0:0:0:
196,192,145334,5,0,0:0:0:0:
364,192,145500,5,0,0:0:0:0:
184,192,145667,5,0,0:0:0:0:
376,192,145834,5,0,0:0:0:0:
164,192,146000,5,0,0:0:0:0:
400,192,146167,5,0,0:0:0:0:
120,192,146334,5,0,0:0:0:0:
460,192,146500,5,0,0:0:0:0:
48,192,146667,5,0,0:0:0:0:
512,192,146834,5,0,0:0:0:0:
0,188,147000,5,0,0:0:0:0:
512,192,147167,5,0,0:0:0:0:
0,188,147334,5,0,0:0:0:0:
508,188,147500,5,0,0:0:0:0:
16,180,147667,5,0,0:0:0:0:
448,184,147834,5,0,0:0:0:0:
108,180,148000,5,0,0:0:0:0:
384,184,148167,5,0,0:0:0:0:
192,184,148334,5,0,0:0:0:0:
328,184,148500,5,0,0:0:0:0:
256,184,148667,5,0,0:0:0:0:
104,184,148834,5,0,0:0:0:0:
316,184,149000,5,0,0:0:0:0:
164,184,149167,5,0,0:0:0:0:
372,184,149334,5,0,0:0:0:0:
224,188,149500,5,0,0:0:0:0:
428,184,149667,5,0,0:0:0:0:
168,188,149834,5,0,0:0:0:0:
428,184,150000,5,0,0:0:0:0:
112,188,150167,5,0,0:0:0:0:
372,184,150334,5,0,0:0:0:0:
56,192,150500,5,0,0:0:0:0:
316,184,150667,5,0,0:0:0:0:
0,192,150834,5,0,0:0:0:0:
200,192,151000,5,0,0:0:0:0:
0,192,151167,5,0,0:0:0:0:
200,192,151334,5,0,0:0:0:0:
56,192,151500,5,0,0:0:0:0:
