osu file format v14

[General]
AudioFilename: Tom 0106 - Hatsune Miku - iMPErIAL PaRaDE.mp3
AudioLeadIn: 0
PreviewTime: -1
Countdown: 1
SampleSet: None
StackLeniency: 0.7
Mode: 0
LetterboxInBreaks: 0
WidescreenStoryboard: 0

[Editor]
DistanceSpacing: 1
BeatDivisor: 4
GridSize: 4
TimelineZoom: 1

[Metadata]
Title:iMPErIAL PaRaDE
TitleUnicode:iMPErIAL PaRaDE
Artist:Tom Kinema 106
ArtistUnicode:Tom キネマ106
Creator:Nitronic Techno
Version:Iron Fist!
Source:
Tags:
BeatmapID:1355501
BeatmapSetID:639096

[Difficulty]
HPDrainRate:7.2
CircleSize:3.8
OverallDifficulty:7
ApproachRate:9.5
SliderMultiplier:1.9
SliderTickRate:1

[Events]
//Background and Video events
0,0,"Imperial.jpg",0,0
//Break Periods
2,14931,27920
2,145217,156492
//Storyboard Layer 0 (Background)
//Storyboard Layer 1 (Fail)
//Storyboard Layer 2 (Pass)
//Storyboard Layer 3 (Foreground)
//Storyboard Sound Samples

[TimingPoints]
1017,428.571428571429,4,1,0,45,1,0
7874,-66.6666666666667,4,1,0,50,0,0
28445,-50,4,2,0,65,0,0
31874,-27.7777777777778,4,2,0,65,0,0
32302,-50,4,2,0,65,0,0
36159,-44.4444444444445,4,2,0,65,0,0
36374,-40,4,2,0,65,0,0
37017,-50,4,2,0,65,0,0
42159,-100,4,1,0,50,0,0
49017,-50,4,2,0,65,0,0
53302,-27.7777777777778,4,2,0,65,0,0
53624,-50,4,2,0,65,0,0
53945,-200,4,2,0,65,0,0
54159,-50,4,2,0,65,0,0
62731,-55.5555555555556,4,2,0,65,0,0
68731,-27.7777777777778,4,2,0,65,0,0
69588,-55.5555555555556,4,2,0,65,0,0
76445,-66.6666666666667,4,2,0,65,0,1
83302,-57.1428571428571,4,2,0,65,0,1
90159,-50,4,2,0,65,0,0
96159,-2000,4,2,0,65,0,0
96909,-50,4,2,0,65,0,0
103874,-55.5555555555556,4,2,0,65,0,0
117588,-66.6666666666667,4,2,0,65,0,1
124445,-57.1428571428571,4,2,0,65,0,1
131302,-80,4,2,0,65,0,0
136445,-66.6666666666667,4,2,0,65,0,0
138159,-80,4,2,0,65,0,0
143302,-66.6666666666667,4,2,0,65,0,0
158731,-47.6190476190476,4,2,0,65,0,1
165588,-45.4545454545455,4,2,0,65,0,1
172445,-43.4782608695652,4,2,0,65,0,1
179302,-41.6666666666667,4,2,0,65,0,1
186159,-100,4,2,0,65,0,0
187445,-100,4,2,0,10,0,0

[HitObjects]
60,53,1017,5,0,0:0:0:0:
199,53,1445,5,0,0:0:0:0:
339,54,1874,5,0,0:0:0:0:
478,54,2302,5,0,0:0:0:0:
435,117,2731,5,0,0:0:0:0:
296,117,3159,5,0,0:0:0:0:
156,116,3588,5,0,0:0:0:0:
17,116,4017,5,0,0:0:0:0:
59,174,4445,5,0,0:0:0:0:
198,174,4874,5,0,0:0:0:0:
338,175,5302,5,0,0:0:0:0:
477,175,5731,5,0,0:0:0:0:
434,238,6159,5,0,0:0:0:0:
295,238,6588,5,0,0:0:0:0:
155,237,7017,5,0,0:0:0:0:
16,237,7445,5,0,0:0:0:0:
278,349,7874,6,0,L|337:295,1,71.2500027179719
348,231,8088,1,0,0:0:0:0:
280,105,8302,1,0,0:0:0:0:
405,36,8517,1,0,0:0:0:0:
234,35,8731,6,0,L|175:89,1,71.2500027179719
164,153,8945,1,0,0:0:0:0:
232,279,9159,1,0,0:0:0:0:
107,348,9374,1,0,0:0:0:0:
36,224,9588,6,0,L|115:272,1,71.2500027179719
167,266,9802,1,0,0:0:0:0:
302,311,10017,1,0,0:0:0:0:
436,264,10231,1,0,0:0:0:0:
476,160,10445,6,0,L|397:112,1,71.2500027179719
345,118,10659,1,0,0:0:0:0:
210,73,10874,1,0,0:0:0:0:
76,120,11088,1,0,0:0:0:0:
133,250,11302,6,0,L|167:325,1,71.2500027179719
225,349,11517,1,0,0:0:0:0:
367,343,11731,1,0,0:0:0:0:
278,231,11945,1,0,0:0:0:0:
379,134,12159,6,0,L|345:59,1,71.2500027179719
287,35,12374,1,0,0:0:0:0:
145,41,12588,1,0,0:0:0:0:
234,153,12802,1,0,0:0:0:0:
217,362,13017,6,0,B|297:361|297:361|296:170|296:170|421:170|421:170|256:27|256:27|97:169|97:169|216:169|216:169|216:362,1,1140.00004348755
162,66,28445,5,0,0:0:0:0:
138,157,28552,1,0,0:0:0:0:
230,135,28659,1,0,0:0:0:0:
104,56,28767,5,0,0:0:0:0:
98,198,28874,1,0,0:0:0:0:
93,340,28981,1,0,0:0:0:0:
24,274,29088,5,0,0:0:0:0:
164,298,29195,1,0,0:0:0:0:
255,189,29302,1,0,0:0:0:0:
348,298,29409,1,0,0:0:0:0:
488,274,29517,1,0,0:0:0:0:
409,219,29624,5,0,0:0:0:0:
329,100,29731,1,0,0:0:0:0:
465,140,29838,1,0,0:0:0:0:
327,176,29945,1,0,0:0:0:0:
416,65,30052,1,0,0:0:0:0:
252,29,30159,6,0,L|209:135,1,95
254,304,30374,2,0,L|307:193,1,95
197,172,30588,2,0,L|145:270,1,95
334,130,30802,2,0,L|384:30,1,95
136,255,31017,5,0,0:0:0:0:
408,77,31124,1,0,0:0:0:0:
104,77,31231,5,0,0:0:0:0:
376,255,31338,2,0,L|433:263,2,47.5
294,303,31552,2,0,L|241:313,2,47.5
220,241,31767,1,0,0:0:0:0:
81,181,31874,6,0,L|439:75,1,341.999989562989
305,243,32302,5,0,0:0:0:0:
357,364,32409,1,0,0:0:0:0:
223,350,32517,1,0,0:0:0:0:
192,359,32624,1,0,0:0:0:0:
110,310,32731,5,0,0:0:0:0:
98,199,32838,1,0,0:0:0:0:
143,313,32945,5,0,0:0:0:0:
160,120,33052,1,0,0:0:0:0:
188,311,33159,5,0,0:0:0:0:
211,208,33267,1,0,0:0:0:0:
278,128,33374,1,0,0:0:0:0:
369,78,33481,1,0,0:0:0:0:
485,35,33588,6,0,L|485:188,1,95
32,31,33802,6,0,L|32:147,1,95
188,265,34017,5,0,0:0:0:0:
303,338,34124,1,0,0:0:0:0:
183,342,34231,5,0,0:0:0:0:
298,259,34338,1,0,0:0:0:0:
165,207,34445,6,0,L|82:151,1,95
205,200,34659,2,0,L|171:107,1,95
254,202,34874,2,0,L|254:106,1,95
307,200,35088,2,0,L|341:107,1,95
347,207,35302,6,0,L|430:151,1,95
312,292,35517,2,0,L|206:371,1,95
118,268,35731,5,0,0:0:0:0:
107,154,35838,1,0,0:0:0:0:
220,143,35945,1,0,0:0:0:0:
235,255,36052,1,0,0:0:0:0:
140,215,36159,6,0,B|133:166|133:166|159:140|181:90|142:44|85:64,1,213.749993476868
225,50,36481,6,0,L|216:233,1,118.75
225,241,36695,5,0,0:0:0:0:
133,275,36802,1,0,0:0:0:0:
214,334,36909,1,0,0:0:0:0:
279,231,37017,6,0,B|320:259|320:259|302:281|302:281|340:275|340:275|338:239|338:239|326:251|326:251|285:222,1,190
402,194,37338,5,0,0:0:0:0:
479,249,37445,1,0,0:0:0:0:
457,341,37552,1,0,0:0:0:0:
363,358,37659,1,0,0:0:0:0:
280,309,37767,1,0,0:0:0:0:
305,217,37874,6,0,L|327:90,1,95
233,239,38088,2,0,L|235:137,1,95
161,249,38302,2,0,L|76:172,2,95
115,326,38624,1,0,0:0:0:0:
54,364,38731,6,0,L|-25:305,1,95
70,284,38945,2,0,L|-30:216,1,95
80,195,39159,2,0,L|-47:114,1,95
92,109,39374,2,0,L|-2:52,1,95
101,30,39588,5,0,0:0:0:0:
192,53,39695,1,0,0:0:0:0:
213,145,39802,1,0,0:0:0:0:
299,145,39909,1,0,0:0:0:0:
320,53,40017,1,0,0:0:0:0:
411,30,40124,1,0,0:0:0:0:
331,81,40231,1,0,0:0:0:0:
422,58,40338,1,0,0:0:0:0:
501,59,40445,6,0,L|420:109,1,95
512,143,40659,2,0,L|432:195,1,95
512,230,40874,2,0,L|442:284,1,95
512,307,41088,2,0,L|458:364,1,95
246,325,41302,6,0,B|188:298|184:250|184:250|220:192|254:238,1,190
283,228,41624,1,0,0:0:0:0:
316,222,41731,1,0,0:0:0:0:
326,261,41838,1,0,0:0:0:0:
305,295,41945,1,0,0:0:0:0:
276,320,42052,1,0,0:0:0:0:
248,366,42159,6,0,L|128:302,1,95
118,223,42588,2,0,L|87:169,2,47.5
154,220,42909,2,0,P|232:233|365:138,1,237.5
284,90,43659,1,0,0:0:0:0:
241,67,43767,1,0,0:0:0:0:
199,90,43874,6,0,L|128:154,1,95
94,242,44302,2,0,L|77:299,2,47.5
139,227,44624,2,0,P|215:237|382:180,1,237.5
424,266,45374,1,0,0:0:0:0:
410,311,45481,1,0,0:0:0:0:
376,344,45588,6,0,P|298:354|257:340,1,95
200,302,46017,2,0,L|265:285,2,47.5
157,281,46338,2,0,P|93:250|59:78,1,237.5
131,49,47088,1,0,0:0:0:0:
168,78,47195,1,0,0:0:0:0:
203,109,47302,5,0,0:0:0:0:
288,66,47517,1,0,0:0:0:0:
334,72,47624,1,0,0:0:0:0:
363,109,47731,1,0,0:0:0:0:
370,155,47838,1,0,0:0:0:0:
354,199,47945,1,0,0:0:0:0:
324,236,48052,1,0,0:0:0:0:
289,268,48159,2,0,P|234:291|195:283,2,95
89,66,49017,5,0,0:0:0:0:
169,115,49124,1,0,0:0:0:0:
252,70,49231,1,0,0:0:0:0:
334,117,49338,1,0,0:0:0:0:
370,182,49445,5,0,0:0:0:0:
288,135,49552,1,0,0:0:0:0:
205,180,49659,1,0,0:0:0:0:
125,131,49767,1,0,0:0:0:0:
52,193,49874,5,0,0:0:0:0:
134,284,49981,1,0,0:0:0:0:
47,273,50088,1,0,0:0:0:0:
142,200,50195,1,0,0:0:0:0:
261,230,50302,6,0,L|316:314,1,95
434,334,50517,2,0,L|368:246,1,95
479,188,50731,5,0,0:0:0:0:
411,121,50838,1,0,0:0:0:0:
320,94,50945,1,0,0:0:0:0:
226,111,51052,1,0,0:0:0:0:
477,212,51159,5,0,0:0:0:0:
218,153,51267,1,0,0:0:0:0:
471,251,51374,5,0,0:0:0:0:
209,196,51481,1,0,0:0:0:0:
149,325,51588,6,0,L|104:232,1,95
363,325,51802,2,0,L|408:232,1,95
202,204,52017,2,0,L|162:112,1,95
310,204,52231,2,0,L|350:112,1,95
255,26,52445,5,0,0:0:0:0:
256,120,52552,1,0,0:0:0:0:
256,214,52659,1,0,0:0:0:0:
256,309,52767,1,0,0:0:0:0:
171,352,52874,5,0,0:0:0:0:
55,268,52981,1,0,0:0:0:0:
168,182,53088,1,0,0:0:0:0:
60,89,53195,1,0,0:0:0:0:
152,50,53302,6,0,B|256:192|256:192|355:51,1,341.999989562989
452,89,53624,5,0,0:0:0:0:
344,182,53731,1,0,0:0:0:0:
457,268,53838,1,0,0:0:0:0:
341,352,53945,2,0,L|298:344,1,23.75
203,263,54159,5,0,0:0:0:0:
172,353,54267,1,0,0:0:0:0:
100,290,54374,1,0,0:0:0:0:
102,359,54481,5,0,0:0:0:0:
136,220,54588,1,0,0:0:0:0:
232,324,54695,1,0,0:0:0:0:
244,182,54802,6,0,L|184:89,1,95
315,217,55017,6,0,L|315:332,1,95
378,162,55231,6,0,L|457:84,1,95
313,43,55445,6,0,L|316:171,1,95
174,160,55659,2,0,L|272:159,1,95
318,278,55874,6,0,L|315:150,1,95
457,161,56088,2,0,L|359:162,1,95
234,224,56302,6,0,L|172:363,3,95
71,237,56731,5,0,0:0:0:0:
103,326,56838,1,0,0:0:0:0:
194,350,56945,1,0,0:0:0:0:
268,290,57052,1,0,0:0:0:0:
250,196,57159,1,0,0:0:0:0:
160,162,57267,1,0,0:0:0:0:
69,194,57374,2,0,B|56:181|56:181|66:126|18:103|-17:150,1,95
92,61,57588,5,0,0:0:0:0:
180,95,57695,1,0,0:0:0:0:
269,63,57802,2,0,L|378:103,1,95
453,137,58017,5,0,0:0:0:0:
365,171,58124,1,0,0:0:0:0:
276,139,58231,2,0,L|167:179,1,95
113,232,58445,6,0,L|56:329,1,95
205,257,58659,2,0,L|177:376,1,95
307,257,58874,2,0,L|335:376,1,95
398,231,59088,2,0,L|446:312,1,95
367,161,59302,6,0,P|227:107|108:163,1,285
200,192,59731,2,0,L|200:296,1,95
294,288,59945,2,0,L|294:171,1,95
380,232,60159,5,0,0:0:0:0:
364,345,60267,1,0,0:0:0:0:
250,346,60374,1,0,0:0:0:0:
136,344,60481,1,0,0:0:0:0:
76,246,60588,6,0,L|-5:178,1,95
45,79,60802,2,0,B|81:44|81:44|111:77,1,95
183,79,61017,2,0,B|221:44|221:44|253:75,1,95
322,77,61231,2,0,B|363:42|363:42|396:74,1,95
469,97,61445,2,0,L|460:214,1,95
347,192,61659,2,0,L|241:192,1,95
137,196,61874,2,0,L|42:195,1,95
103,99,62088,1,0,0:0:0:0:
212,131,62195,1,0,0:0:0:0:
319,93,62302,1,0,0:0:0:0:
424,135,62409,1,0,0:0:0:0:
350,264,62517,6,0,L|353:371,1,95
156,355,62731,6,0,P|167:265|102:230,1,170.999994781494
82,130,63052,1,0,0:0:0:0:
82,130,63159,2,0,P|176:158|246:101,1,170.999994781494
321,175,63481,1,0,0:0:0:0:
321,175,63588,6,0,L|354:290,1,85.4999973907472
390,165,63802,2,0,L|374:263,1,85.4999973907472
455,183,64017,2,0,P|469:277|384:333,1,170.999994781494
249,328,64445,6,0,P|322:259|397:263,1,170.999994781494
347,183,64767,1,0,0:0:0:0:
347,183,64874,2,0,P|390:107|314:44,1,170.999994781494
59,192,65302,5,0,0:0:0:0:
256,353,65517,1,0,0:0:0:0:
453,192,65731,1,0,0:0:0:0:
256,31,65945,1,0,0:0:0:0:
52,132,66159,6,0,L|243:132,1,170.999994781494
52,132,66588,1,0,0:0:0:0:
100,129,66695,1,0,0:0:0:0:
162,127,66802,1,0,0:0:0:0:
217,126,66909,1,0,0:0:0:0:
53,243,67017,6,0,L|244:243,1,170.999994781494
53,243,67445,1,0,0:0:0:0:
101,240,67552,1,0,0:0:0:0:
163,238,67659,1,0,0:0:0:0:
218,237,67767,1,0,0:0:0:0:
263,170,67874,6,0,L|263:77,1,85.4999973907472
193,125,68088,2,0,L|193:26,1,85.4999973907472
122,163,68302,2,0,L|120:71,1,85.4999973907472
48,123,68517,2,0,L|49:21,1,85.4999973907472
113,100,68731,6,0,B|172:119|151:148|131:165|131:165|149:180|173:203|115:233,1,170.999994781494
216,189,68945,6,0,B|246:172|275:194|273:203|273:203|248:247|248:247|322:249,1,170.999994781494
356,191,69159,6,0,B|392:181|392:181|399:254|399:254|379:254|379:254|432:255,1,170.999994781494
472,299,69374,6,0,B|436:307|428:346|444:376|488:376|488:376|492:349|492:349|468:351,1,170.999994781494
349,320,69588,6,0,P|246:348|168:320,1,170.999994781494
126,270,69909,1,0,0:0:0:0:
126,270,70017,2,0,P|172:180|142:96,1,170.999994781494
71,125,70338,1,0,0:0:0:0:
71,125,70445,6,0,L|114:232,1,85.4999973907472
178,165,70659,2,0,L|217:257,1,85.4999973907472
295,225,70874,2,0,B|372:262|372:262|371:364,1,170.999994781494
292,321,71302,6,0,B|205:276|205:276|205:188,1,170.999994781494
119,195,71624,1,0,0:0:0:0:
119,195,71731,2,0,P|151:107|247:89,1,170.999994781494
388,95,72159,5,0,0:0:0:0:
329,256,72374,1,0,0:0:0:0:
124,95,72588,1,0,0:0:0:0:
183,256,72802,1,0,0:0:0:0:
460,132,73017,6,0,L|269:132,1,170.999994781494
460,132,73445,1,0,0:0:0:0:
412,129,73552,1,0,0:0:0:0:
350,127,73659,1,0,0:0:0:0:
295,126,73767,1,0,0:0:0:0:
459,243,73874,6,0,L|268:243,1,170.999994781494
459,243,74302,1,0,0:0:0:0:
411,240,74409,1,0,0:0:0:0:
349,238,74517,1,0,0:0:0:0:
294,237,74624,1,0,0:0:0:0:
230,293,74731,6,0,L|104:221,1,85.4999973907472
205,181,74945,2,0,L|125:128,1,85.4999973907472
282,293,75159,2,0,L|356:250,1,85.4999973907472
307,181,75374,2,0,L|378:133,1,85.4999973907472
257,55,75588,5,0,0:0:0:0:
344,295,75802,1,0,0:0:0:0:
122,163,76017,1,0,0:0:0:0:
378,165,76231,1,0,0:0:0:0:
168,312,76445,5,0,0:0:0:0:
90,192,76659,2,0,L|49:274,1,71.2500027179719
151,255,76874,2,0,L|188:175,1,71.2500027179719
273,198,77088,2,0,L|233:294,1,71.2500027179719
337,251,77302,2,0,B|386:303|386:303|435:246,1,142.500005435944
387,113,77731,1,0,0:0:0:0:
504,192,77945,1,0,0:0:0:0:
504,192,78052,1,0,0:0:0:0:
504,192,78159,5,0,0:0:0:0:
421,75,78374,2,0,L|391:156,1,71.2500027179719
303,138,78588,2,0,L|334:54,1,71.2500027179719
235,60,78802,2,0,L|202:162,1,71.2500027179719
120,139,79017,2,0,B|70:80|70:80|22:146,1,142.500005435944
34,317,79445,1,0,0:0:0:0:
171,281,79659,1,0,0:0:0:0:
171,281,79767,1,0,0:0:0:0:
171,281,79874,5,0,0:0:0:0:
301,338,80088,2,0,L|389:366,1,71.2500027179719
385,268,80302,2,0,L|285:237,1,71.2500027179719
336,155,80517,2,0,L|410:176,1,71.2500027179719
416,82,80731,2,0,B|363:22|363:22|311:94,1,142.500005435944
510,52,81159,1,0,0:0:0:0:
452,228,81374,1,0,0:0:0:0:
414,260,81481,1,0,0:0:0:0:
369,282,81588,6,0,P|286:295|225:274,1,142.500005435944
140,261,81909,1,0,0:0:0:0:
140,261,82017,2,0,L|85:185,1,71.2500027179719
132,117,82231,2,0,L|200:194,1,71.2500027179719
238,99,82445,1,0,0:0:0:0:
420,210,82659,1,0,0:0:0:0:
223,296,82874,1,0,0:0:0:0:
43,180,83088,1,0,0:0:0:0:
291,192,83302,6,0,P|232:125|155:159,1,166.250001585484
127,263,83624,1,0,0:0:0:0:
215,350,83731,6,0,L|193:236,1,83.1250007927418
309,209,83945,2,0,L|336:317,1,83.1250007927418
447,327,84159,2,0,B|478:255|478:255|444:157,1,166.250001585484
229,52,84588,6,0,L|196:144,1,83.1250007927418
280,226,84802,2,0,L|321:136,1,83.1250007927418
195,192,85017,6,0,P|217:309|305:329,1,166.250001585484
297,221,85338,1,0,0:0:0:0:
394,283,85445,6,0,L|425:199,1,83.1250007927418
382,96,85659,2,0,L|350:195,1,83.1250007927418
243,206,85874,2,0,B|159:227|159:227|91:180,1,166.250001585484
260,343,86302,6,0,L|289:243,1,83.1250007927418
228,159,86517,2,0,L|188:275,1,83.1250007927418
306,189,86731,6,0,P|373:112|497:137,1,166.250001585484
392,204,87052,1,0,0:0:0:0:
307,270,87159,2,0,L|216:273,1,83.1250007927418
137,206,87374,2,0,L|266:205,1,83.1250007927418
296,129,87588,2,0,B|219:89|219:89|128:129,1,166.250001585484
352,53,88017,6,0,L|351:159,1,83.1250007927418
304,233,88231,5,0,0:0:0:0:
403,233,88338,1,0,0:0:0:0:
345,314,88445,2,0,P|243:340|150:307,1,166.250001585484
158,229,88767,1,0,0:0:0:0:
158,334,88874,1,0,0:0:0:0:
131,237,88981,1,0,0:0:0:0:
124,344,89088,1,0,0:0:0:0:
97,247,89195,1,0,0:0:0:0:
64,341,89302,6,0,L|38:101,1,166.250001585484
204,53,89731,2,0,L|229:274,1,166.250001585484
308,53,90159,6,0,L|281:285,1,190
344,317,90481,1,0,0:0:0:0:
437,331,90588,1,0,0:0:0:0:
452,237,90695,5,0,0:0:0:0:
358,223,90802,1,0,0:0:0:0:
283,281,90909,1,0,0:0:0:0:
214,214,91017,1,0,0:0:0:0:
119,207,91124,2,0,B|114:304|114:304|209:310,1,190
205,227,91445,5,0,0:0:0:0:
310,131,91552,1,0,0:0:0:0:
204,35,91659,1,0,0:0:0:0:
94,128,91767,1,0,0:0:0:0:
87,270,91874,6,0,P|195:359|250:341,1,190
177,272,92195,1,0,0:0:0:0:
164,177,92302,2,0,L|61:108,1,95
228,214,92517,2,0,L|324:280,1,95
195,123,92731,6,0,L|177:17,1,95
274,155,92945,2,0,L|404:147,1,95
229,105,93159,2,0,L|248:5,1,95
268,128,93374,2,0,L|332:27,1,95
403,91,93588,6,0,B|387:148|425:185|425:185|467:241|441:311,2,190
346,39,94124,1,0,0:0:0:0:
270,39,94231,1,0,0:0:0:0:
207,81,94338,1,0,0:0:0:0:
235,171,94445,5,0,0:0:0:0:
230,265,94552,1,0,0:0:0:0:
160,329,94659,1,0,0:0:0:0:
64,331,94767,1,0,0:0:0:0:
61,267,94874,6,0,P|71:217|98:166,1,95
86,179,95088,2,0,P|112:134|101:74,1,95
46,37,95302,5,0,0:0:0:0:
177,53,95409,1,0,0:0:0:0:
309,70,95517,1,0,0:0:0:0:
440,87,95624,1,0,0:0:0:0:
477,164,95731,5,0,0:0:0:0:
346,180,95838,1,0,0:0:0:0:
214,197,95945,1,0,0:0:0:0:
83,214,96052,1,0,0:0:0:0:
37,294,96159,6,0,L|52:297,1,14.25
103,305,96588,5,0,0:0:0:0:
128,338,96695,1,0,0:0:0:0:
156,314,96802,1,0,0:0:0:0:
192,299,96909,1,0,0:0:0:0:
236,301,97017,6,0,L|442:301,1,190
480,235,97338,1,0,0:0:0:0:
423,170,97445,1,0,0:0:0:0:
337,164,97552,5,0,0:0:0:0:
279,101,97659,1,0,0:0:0:0:
334,34,97767,1,0,0:0:0:0:
399,88,97874,6,0,L|399:193,1,95
324,141,98088,2,0,L|324:255,1,95
239,225,98302,2,0,L|239:117,1,95
159,164,98517,2,0,L|159:62,1,95
76,46,98731,5,0,0:0:0:0:
76,46,98838,1,0,0:0:0:0:
44,125,98945,1,0,0:0:0:0:
64,207,99052,1,0,0:0:0:0:
64,207,99159,6,0,L|100:320,1,95
207,290,99374,2,0,L|164:189,1,95
77,136,99588,2,0,L|119:45,1,95
230,39,99802,2,0,L|366:42,1,95
420,104,100017,2,0,L|466:224,1,95
388,286,100231,2,0,L|315:359,1,95
207,346,100445,5,0,0:0:0:0:
207,346,100552,2,0,P|94:312|53:233,1,190
51,159,100874,5,0,0:0:0:0:
58,255,100981,1,0,0:0:0:0:
119,327,101088,1,0,0:0:0:0:
207,346,101195,1,0,0:0:0:0:
305,346,101302,2,0,P|418:312|459:233,2,190
323,252,101838,5,0,0:0:0:0:
254,186,101945,1,0,0:0:0:0:
187,253,102052,1,0,0:0:0:0:
173,161,102159,6,0,L|138:63,1,95
339,161,102374,2,0,L|374:63,1,95
207,43,102588,2,0,L|230:149,1,95
305,43,102802,2,0,L|282:149,1,95
228,213,103017,6,0,L|184:302,1,95
284,213,103231,2,0,L|326:298,1,95
169,204,103445,2,0,L|115:297,1,95
343,204,103659,2,0,L|397:297,1,95
256,368,103874,6,0,P|220:284|146:286,1,170.999994781494
79,210,104195,1,0,0:0:0:0:
79,210,104302,2,0,P|174:187|206:102,1,170.999994781494
308,129,104624,1,0,0:0:0:0:
308,129,104731,6,0,L|394:212,1,85.4999973907472
363,86,104945,2,0,L|398:178,1,85.4999973907472
428,69,105159,2,0,P|487:143|441:234,1,170.999994781494
323,298,105588,6,0,P|351:201|418:167,1,170.999994781494
335,123,105909,1,0,0:0:0:0:
335,123,106017,2,0,P|334:35|236:19,1,170.999994781494
90,275,106445,5,0,0:0:0:0:
341,316,106659,1,0,0:0:0:0:
431,78,106874,1,0,0:0:0:0:
180,37,107088,1,0,0:0:0:0:
61,43,107302,6,0,L|207:165,1,170.999994781494
61,43,107731,1,0,0:0:0:0:
99,70,107838,1,0,0:0:0:0:
148,109,107945,1,0,0:0:0:0:
190,144,108052,1,0,0:0:0:0:
191,231,108159,6,0,L|61:341,1,170.999994781494
61,341,108588,1,0,0:0:0:0:
99,314,108695,1,0,0:0:0:0:
148,275,108802,1,0,0:0:0:0:
190,240,108909,1,0,0:0:0:0:
19,192,109017,6,0,L|203:192,1,170.999994781494
257,140,109338,1,0,0:0:0:0:
323,193,109445,1,0,0:0:0:0:
255,244,109552,1,0,0:0:0:0:
186,192,109659,2,0,L|88:191,1,85.4999973907472
14,192,109874,5,0,0:0:0:0:
255,10,110088,1,0,0:0:0:0:
498,192,110302,1,0,0:0:0:0:
257,374,110517,1,0,0:0:0:0:
125,263,110731,6,0,P|239:296|306:264,1,170.999994781494
307,197,111052,1,0,0:0:0:0:
307,197,111159,2,0,P|228:123|133:125,1,170.999994781494
100,168,111481,1,0,0:0:0:0:
100,168,111588,6,0,L|143:81,1,85.4999973907472
182,164,111802,2,0,L|234:235,1,85.4999973907472
281,161,112017,2,0,B|349:104|349:104|417:163,1,170.999994781494
385,326,112445,6,0,P|297:347|293:258,1,170.999994781494
256,202,112767,1,0,0:0:0:0:
236,286,112874,2,0,P|199:355|127:326,1,170.999994781494
86,160,113302,5,0,0:0:0:0:
216,340,113517,1,0,0:0:0:0:
426,224,113731,1,0,0:0:0:0:
296,44,113945,1,0,0:0:0:0:
451,43,114159,6,0,L|304:165,1,170.999994781494
451,43,114588,1,0,0:0:0:0:
413,70,114695,1,0,0:0:0:0:
364,109,114802,1,0,0:0:0:0:
322,144,114909,1,0,0:0:0:0:
320,231,115017,6,0,L|451:341,1,170.999994781494
451,341,115445,1,0,0:0:0:0:
413,314,115552,1,0,0:0:0:0:
364,275,115659,1,0,0:0:0:0:
322,240,115767,1,0,0:0:0:0:
256,330,115874,6,0,L|256:216,1,85.4999973907472
118,192,116088,6,0,L|232:192,1,85.4999973907472
256,54,116302,6,0,L|256:168,1,85.4999973907472
394,192,116517,6,0,L|280:192,1,85.4999973907472
256,191,116731,6,0,P|182:128|98:135,1,170.999994781494
167,200,117052,1,0,0:0:0:0:
220,102,117159,2,0,P|318:124|426:80,1,170.999994781494
254,239,117588,6,0,P|185:292|104:284,1,142.500005435944
97,111,118017,2,0,L|114:197,1,71.2500027179719
202,165,118231,2,0,L|187:89,1,71.2500027179719
278,75,118445,2,0,L|298:158,1,71.2500027179719
386,137,118659,2,0,B|425:75|425:75|366:21,2,142.500005435944
386,247,119302,6,0,B|425:309|425:309|366:363,1,142.500005435944
192,315,119731,2,0,L|266:331,1,71.2500027179719
283,240,119945,2,0,L|207:223,1,71.2500027179719
232,133,120159,2,0,L|304:151,1,71.2500027179719
327,60,120374,2,0,B|254:21|254:21|186:45,2,142.500005435944
144,97,121017,6,0,B|132:170|132:170|68:231,1,142.500005435944
203,357,121445,2,0,L|152:298,1,71.2500027179719
256,265,121659,2,0,L|256:342,1,71.2500027179719
357,300,121874,2,0,L|294:371,1,71.2500027179719
414,372,122088,2,0,B|460:316|460:316|460:210,1,142.500005435944
340,67,122517,1,0,0:0:0:0:
300,134,122624,1,0,0:0:0:0:
241,185,122731,6,0,P|171:155|97:162,1,142.500005435944
50,214,123052,1,0,0:0:0:0:
50,292,123159,1,0,0:0:0:0:
120,327,123267,1,0,0:0:0:0:
198,324,123374,1,0,0:0:0:0:
246,262,123481,1,0,0:0:0:0:
255,184,123588,5,0,0:0:0:0:
73,71,123802,1,0,0:0:0:0:
256,251,124017,1,0,0:0:0:0:
439,71,124231,1,0,0:0:0:0:
291,192,124445,6,0,P|232:259|155:225,1,166.250001585484
127,121,124767,1,0,0:0:0:0:
215,34,124874,6,0,L|193:148,1,83.1250007927418
309,175,125088,2,0,L|336:67,1,83.1250007927418
447,57,125302,2,0,B|478:129|478:129|444:227,1,166.250001585484
229,332,125731,6,0,L|196:240,1,83.1250007927418
280,158,125945,2,0,L|321:248,1,83.1250007927418
195,192,126159,6,0,P|217:75|305:55,1,166.250001585484
297,163,126481,1,0,0:0:0:0:
394,101,126588,6,0,L|425:185,1,83.1250007927418
382,288,126802,2,0,L|350:189,1,83.1250007927418
243,178,127017,2,0,B|159:157|159:157|91:204,1,166.250001585484
260,41,127445,6,0,L|289:141,1,83.1250007927418
228,225,127659,2,0,L|188:109,1,83.1250007927418
306,195,127874,6,0,P|373:272|497:247,1,166.250001585484
392,180,128195,1,0,0:0:0:0:
307,114,128302,2,0,L|216:111,1,83.1250007927418
137,178,128517,2,0,L|266:179,1,83.1250007927418
296,255,128731,2,0,B|219:295|219:295|128:255,1,166.250001585484
352,331,129159,6,0,L|351:225,1,83.1250007927418
304,151,129374,5,0,0:0:0:0:
403,151,129481,1,0,0:0:0:0:
345,70,129588,2,0,P|243:44|150:77,1,166.250001585484
158,155,129909,1,0,0:0:0:0:
158,50,130017,1,0,0:0:0:0:
131,147,130124,1,0,0:0:0:0:
124,40,130231,1,0,0:0:0:0:
97,137,130338,1,0,0:0:0:0:
64,43,130445,6,0,L|38:283,1,166.250001585484
204,331,130874,2,0,L|229:110,1,166.250001585484
359,52,131302,6,0,L|383:210,1,118.75
311,230,131624,1,0,0:0:0:0:
311,230,131731,2,0,L|294:105,1,118.75
217,112,132052,1,0,0:0:0:0:
217,112,132159,2,0,L|201:230,1,118.75
135,169,132481,1,0,0:0:0:0:
135,169,132588,2,0,L|153:52,1,118.75
34,185,133017,6,0,P|89:245|250:242,1,237.5
339,35,133659,1,0,0:0:0:0:
339,35,133767,1,0,0:0:0:0:
339,35,133874,2,0,P|413:58|479:215,1,237.5
392,272,134517,1,0,0:0:0:0:
342,304,134624,1,0,0:0:0:0:
282,308,134731,5,0,0:0:0:0:
222,309,134838,1,0,0:0:0:0:
162,304,134945,1,0,0:0:0:0:
106,199,135159,2,0,P|137:129|219:78,1,118.75
222,78,135481,1,0,0:0:0:0:
281,72,135588,5,0,0:0:0:0:
340,72,135695,1,0,0:0:0:0:
399,67,135802,1,0,0:0:0:0:
449,174,136017,2,0,L|307:216,1,118.75
277,219,136338,1,0,0:0:0:0:
206,278,136445,6,0,L|74:342,1,142.500005435944
189,211,136767,1,0,0:0:0:0:
189,211,136874,2,0,L|43:278,1,142.500005435944
179,138,137195,1,0,0:0:0:0:
179,138,137302,6,0,L|361:234,1,142.500005435944
185,60,137731,2,0,L|327:132,1,142.500005435944
257,19,138159,5,0,0:0:0:0:
33,100,138588,1,0,0:0:0:0:
267,132,138802,1,0,0:0:0:0:
267,132,138909,1,0,0:0:0:0:
267,132,139017,1,0,0:0:0:0:
381,100,139231,1,0,0:0:0:0:
494,66,139445,1,0,0:0:0:0:
377,42,139659,1,0,0:0:0:0:
258,27,139874,6,0,P|182:93|159:232,1,237.5
227,319,140517,2,0,L|281:279,1,59.375
296,273,140731,2,0,P|331:226|342:147,1,118.75
266,78,141159,2,0,P|232:140|235:198,1,118.75
113,192,141588,5,0,0:0:0:0:
102,133,141695,1,0,0:0:0:0:
88,75,141802,1,0,0:0:0:0:
205,58,142017,1,0,0:0:0:0:
223,175,142231,1,0,0:0:0:0:
282,175,142338,1,0,0:0:0:0:
341,176,142445,5,0,0:0:0:0:
365,121,142552,1,0,0:0:0:0:
389,66,142659,1,0,0:0:0:0:
504,93,142874,1,0,0:0:0:0:
460,203,143088,1,0,0:0:0:0:
425,251,143195,1,0,0:0:0:0:
386,295,143302,6,0,L|236:209,1,142.500005435944
416,228,143624,1,0,0:0:0:0:
416,228,143731,2,0,L|288:156,1,142.500005435944
442,158,144052,1,0,0:0:0:0:
442,158,144159,5,0,0:0:0:0:
255,52,144374,1,0,0:0:0:0:
60,140,144588,1,0,0:0:0:0:
254,227,144802,1,0,0:0:0:0:
256,364,145017,5,0,0:0:0:0:
256,192,157017,12,0,158302,0:0:0:0:
56,55,158731,6,0,L|98:284,1,199.499993911743
188,227,159052,1,0,0:0:0:0:
188,227,159159,2,0,L|146:29,1,199.499993911743
247,29,159481,1,0,0:0:0:0:
247,29,159588,6,0,L|247:142,1,99.7499969558717
327,187,159802,2,0,L|325:74,1,99.7499969558717
418,124,160017,2,0,L|418:331,1,199.499993911743
322,293,160338,1,0,0:0:0:0:
226,320,160445,6,0,L|20:351,1,199.499993911743
28,249,160767,1,0,0:0:0:0:
28,249,160874,2,0,L|230:220,1,199.499993911743
220,121,161195,1,0,0:0:0:0:
220,121,161302,6,0,L|220:221,1,99.7499969558717
291,150,161517,2,0,L|410:150,1,99.7499969558717
318,81,161731,2,0,L|100:56,1,199.499993911743
23,83,162052,1,0,0:0:0:0:
64,173,162159,6,0,L|65:383,1,199.499993911743
161,343,162481,1,0,0:0:0:0:
161,343,162588,2,0,L|161:131,1,199.499993911743
260,137,162909,1,0,0:0:0:0:
260,137,163017,6,0,L|423:209,1,99.7499969558717
344,276,163231,2,0,L|233:228,1,99.7499969558717
250,336,163445,2,0,L|466:336,1,199.499993911743
467,237,163767,1,0,0:0:0:0:
467,237,163874,6,0,L|228:237,1,199.499993911743
167,235,164195,1,0,0:0:0:0:
95,165,164302,1,0,0:0:0:0:
95,65,164409,1,0,0:0:0:0:
173,1,164517,1,0,0:0:0:0:
272,1,164624,1,0,0:0:0:0:
334,78,164731,5,0,0:0:0:0:
409,262,164945,1,0,0:0:0:0:
103,262,165159,1,0,0:0:0:0:
178,78,165373,1,0,0:0:0:0:
387,62,165588,6,0,L|387:287,1,209.000006378174
282,267,165909,1,0,0:0:0:0:
176,266,166017,2,0,L|176:53,1,209.000006378174
71,58,166338,1,0,0:0:0:0:
72,162,166445,6,0,L|72:279,1,104.500003189087
141,344,166659,2,0,L|258:344,1,104.500003189087
327,277,166874,2,0,L|327:160,1,104.500003189087
258,95,167088,2,0,L|141:95,1,104.500003189087
111,190,167302,6,0,L|327:190,1,209.000006378174
412,239,167624,1,0,0:0:0:0:
412,239,167731,2,0,L|412:23,1,209.000006378174
311,58,168052,1,0,0:0:0:0:
313,162,168159,6,0,L|198:162,1,104.500003189087
121,221,168374,2,0,L|121:331,1,104.500003189087
225,327,168588,2,0,L|225:214,1,104.500003189087
141,160,168802,2,0,L|27:161,1,104.500003189087
36,55,169017,6,0,L|271:55,1,209.000006378174
312,134,169338,1,0,0:0:0:0:
312,134,169445,2,0,L|81:134,1,209.000006378174
98,239,169767,1,0,0:0:0:0:
158,323,169874,6,0,L|292:322,1,104.500003189087
340,253,170088,2,0,L|340:147,1,104.500003189087
172,235,170302,2,0,L|172:131,1,104.500003189087
249,61,170516,2,0,L|354:61,1,104.500003189087
455,88,170731,6,0,L|457:334,1,209.000006378174
352,299,171052,1,0,0:0:0:0:
354,194,171159,1,0,0:0:0:0:
304,287,171267,1,0,0:0:0:0:
307,182,171374,1,0,0:0:0:0:
256,273,171481,1,0,0:0:0:0:
254,168,171588,1,0,0:0:0:0:
84,46,171802,1,0,0:0:0:0:
84,338,172017,1,0,0:0:0:0:
254,216,172231,1,0,0:0:0:0:
168,72,172445,5,0,0:0:0:0:
46,253,172659,2,0,L|-6:145,1,109.250002083778
105,126,172874,2,0,L|162:254,1,109.250002083778
253,192,173088,2,0,L|196:66,1,109.250002083778
316,107,173302,2,0,B|381:20|381:20|456:110,1,218.500004167557
371,308,173731,1,0,0:0:0:0:
504,192,173945,1,0,0:0:0:0:
504,192,174052,1,0,0:0:0:0:
504,192,174159,5,0,0:0:0:0:
287,155,174374,2,0,L|241:39,1,109.250002083778
174,134,174588,2,0,L|213:244,1,109.250002083778
117,293,174802,2,0,L|77:164,1,109.250002083778
115,82,175017,2,0,B|58:171|58:171|0:71,1,218.500004167557
64,282,175445,1,0,0:0:0:0:
162,112,175659,1,0,0:0:0:0:
162,112,175767,1,0,0:0:0:0:
162,112,175874,5,0,0:0:0:0:
364,29,176088,2,0,L|477:-4,1,109.250002083778
429,100,176302,2,0,L|314:133,1,109.250002083778
288,236,176517,2,0,L|402:203,1,109.250002083778
441,303,176731,2,0,B|360:383|360:383|290:292,1,218.500004167557
154,134,177159,1,0,0:0:0:0:
369,102,177374,1,0,0:0:0:0:
369,102,177481,1,0,0:0:0:0:
369,102,177588,6,0,P|289:56|178:106,1,218.500004167557
72,85,177909,1,0,0:0:0:0:
72,85,178017,2,0,L|9:216,1,109.250002083778
126,222,178231,2,0,L|181:114,1,109.250002083778
212,227,178445,1,0,0:0:0:0:
423,172,178659,1,0,0:0:0:0:
223,81,178874,1,0,0:0:0:0:
24,171,179088,1,0,0:0:0:0:
183,333,179302,6,0,L|309:333,1,113.999996520996
376,250,179517,2,0,L|376:121,1,113.999996520996
297,53,179731,2,0,L|173:52,1,113.999996520996
90,118,179945,2,0,L|90:273,1,113.999996520996
197,194,180159,5,0,0:0:0:0:
255,95,180267,1,0,0:0:0:0:
315,190,180374,5,0,0:0:0:0:
257,289,180482,1,0,0:0:0:0:
155,338,180588,6,0,B|99:232|99:232|100:99,1,227.999993041992
201,73,180909,1,0,0:0:0:0:
315,73,181017,6,0,L|315:202,1,113.999996520996
415,132,181231,2,0,L|415:259,1,113.999996520996
341,333,181445,2,0,L|340:215,1,113.999996520996
255,294,181659,2,0,L|256:167,1,113.999996520996
167,106,181874,5,0,0:0:0:0:
53,109,181981,1,0,0:0:0:0:
53,222,182088,1,0,0:0:0:0:
166,220,182195,1,0,0:0:0:0:
256,150,182302,6,0,B|345:74|345:74|485:74,1,227.999993041992
508,176,182624,1,0,0:0:0:0:
456,277,182731,6,0,L|300:277,1,113.999996520996
255,350,182945,2,0,L|255:230,1,113.999996520996
177,152,183159,2,0,L|303:152,1,113.999996520996
378,77,183374,2,0,L|377:227,1,113.999996520996
281,252,183588,5,0,0:0:0:0:
177,299,183695,1,0,0:0:0:0:
95,219,183802,1,0,0:0:0:0:
129,110,183909,1,0,0:0:0:0:
242,89,184017,6,0,B|197:194|197:194|243:326,1,227.999993041992
292,203,184338,1,0,0:0:0:0:
335,97,184445,6,0,B|380:202|380:202|334:334,1,227.999993041992
231,339,184767,1,0,0:0:0:0:
133,280,184874,1,0,0:0:0:0:
126,166,184981,1,0,0:0:0:0:
190,72,185088,1,0,0:0:0:0:
298,39,185195,1,0,0:0:0:0:
407,71,185302,1,0,0:0:0:0:
404,299,185517,1,0,0:0:0:0:
105,71,185731,1,0,0:0:0:0:
108,299,185946,1,0,0:0:0:0:
256,193,186159,6,0,L|256:139,1,47.5
256,86,186374,2,0,L|315:86,1,47.5
255,192,186588,6,0,L|309:191,1,47.5
362,192,186803,2,0,L|362:251,1,47.5
256,191,187017,6,0,L|256:245,1,47.5
256,298,187232,2,0,L|197:298,1,47.5
257,192,187446,6,0,L|203:192,1,47.5
150,192,187661,2,0,L|150:133,1,47.5
