osu file format v14

[General]
AudioFilename: audio.mp3
AudioLeadIn: 0
PreviewTime: -1
Countdown: 0
SampleSet: None
StackLeniency: 0.7
Mode: 3
LetterboxInBreaks: 0
SpecialStyle: 0
WidescreenStoryboard: 1

[Editor]
DistanceSpacing: 2.6
BeatDivisor: 4
GridSize: 4
TimelineZoom: 1

[Metadata]
Title:Wander lust (tolopozlite remix)
TitleUnicode:Wander lust (tolopozlite remix)
Artist:Tolopozlite
ArtistUnicode:Tolopozliteā˜†
Creator:CanDyFloS
Version:Wandering AKA spam practice
Source:Soundcloud.com/tolopozlite
Tags:
BeatmapID:2209081
BeatmapSetID:1056857

[Difficulty]
HPDrainRate:5
CircleSize:4
OverallDifficulty:8
ApproachRate:5
SliderMultiplier:1.4
SliderTickRate:1

[Events]
//Background and Video events
0,0,"a4238692815_16.jpg",0,0
//Break Periods
//Storyboard Layer 0 (Background)
//Storyboard Layer 1 (Fail)
//Storyboard Layer 2 (Pass)
//Storyboard Layer 3 (Foreground)
//Storyboard Layer 4 (Overlay)
//Storyboard Sound Samples

[TimingPoints]
376.307692307692,307.692307692308,4,1,0,100,1,0

[HitObjects]
192,192,68,5,0,0:0:0:0:
320,192,145,1,0,0:0:0:0:
64,192,145,1,0,0:0:0:0:
448,192,222,1,0,0:0:0:0:
192,192,222,1,0,0:0:0:0:
320,192,299,1,0,0:0:0:0:
448,192,376,1,0,0:0:0:0:
192,192,607,1,0,0:0:0:0:
320,192,914,1,0,0:0:0:0:
192,192,1145,1,0,0:0:0:0:
448,192,1145,1,0,0:0:0:0:
192,192,1376,1,0,0:0:0:0:
448,192,1376,1,0,0:0:0:0:
448,192,1607,1,0,0:0:0:0:
192,192,1684,1,0,0:0:0:0:
448,192,1760,1,0,0:0:0:0:
448,192,1914,1,0,0:0:0:0:
192,192,1914,1,0,0:0:0:0:
192,192,2068,1,0,0:0:0:0:
448,192,2068,1,0,0:0:0:0:
448,192,2222,1,0,0:0:0:0:
192,192,2222,1,0,0:0:0:0:
448,192,2376,1,0,0:0:0:0:
192,192,2453,1,0,0:0:0:0:
448,192,2530,1,0,0:0:0:0:
64,192,2837,1,0,0:0:0:0:
320,192,2914,1,0,0:0:0:0:
64,192,2914,1,0,0:0:0:0:
320,192,3068,1,0,0:0:0:0:
64,192,3068,1,0,0:0:0:0:
320,192,3299,1,0,0:0:0:0:
64,192,3299,1,0,0:0:0:0:
64,192,3530,1,0,0:0:0:0:
192,192,3607,1,0,0:0:0:0:
320,192,3684,1,0,0:0:0:0:
448,192,3837,1,0,0:0:0:0:
192,192,3914,1,0,0:0:0:0:
320,192,4068,1,0,0:0:0:0:
448,192,4068,1,0,0:0:0:0:
320,192,4222,1,0,0:0:0:0:
448,192,4299,128,0,4607:0:0:0:0:
192,192,4376,1,0,0:0:0:0:
64,192,4453,1,0,0:0:0:0:
192,192,4530,1,0,0:0:0:0:
320,192,4684,1,0,0:0:0:0:
448,192,4760,1,0,0:0:0:0:
64,192,4760,1,0,0:0:0:0:
448,192,4837,1,0,0:0:0:0:
320,192,4914,1,0,0:0:0:0:
192,192,4991,1,0,0:0:0:0:
448,192,4991,1,0,0:0:0:0:
64,192,5068,1,0,0:0:0:0:
320,192,5068,1,0,0:0:0:0:
192,192,5145,1,0,0:0:0:0:
448,192,5145,1,0,0:0:0:0:
64,192,5222,1,0,0:0:0:0:
320,192,5222,1,0,0:0:0:0:
192,192,5299,1,0,0:0:0:0:
448,192,5299,1,0,0:0:0:0:
64,192,5376,1,0,0:0:0:0:
320,192,5376,1,0,0:0:0:0:
192,192,5453,1,0,0:0:0:0:
64,192,5453,1,0,0:0:0:0:
64,192,5530,1,0,0:0:0:0:
192,192,5684,1,0,0:0:0:0:
64,192,5684,1,0,0:0:0:0:
320,192,5760,1,0,0:0:0:0:
320,192,5837,1,0,0:0:0:0:
448,192,5991,1,0,0:0:0:0:
320,192,6299,1,0,0:0:0:0:
192,192,6376,1,0,0:0:0:0:
64,192,6376,1,0,0:0:0:0:
448,192,6453,1,0,0:0:0:0:
64,192,6530,1,0,0:0:0:0:
192,192,6530,1,0,0:0:0:0:
320,192,6530,1,0,0:0:0:0:
448,192,6607,1,0,0:0:0:0:
64,192,6684,1,0,0:0:0:0:
192,192,6684,1,0,0:0:0:0:
320,192,6684,1,0,0:0:0:0:
64,192,6760,1,0,0:0:0:0:
192,192,6837,1,0,0:0:0:0:
320,192,6914,1,0,0:0:0:0:
320,192,6991,1,0,0:0:0:0:
448,192,7068,1,0,0:0:0:0:
448,192,7222,1,0,0:0:0:0:
320,192,7222,1,0,0:0:0:0:
192,192,7299,128,0,7376:0:0:0:0:
64,192,7453,1,0,0:0:0:0:
64,192,7607,1,0,0:0:0:0:
192,192,7760,1,0,0:0:0:0:
320,192,7837,1,0,0:0:0:0:
448,192,7914,1,0,0:0:0:0:
448,192,8145,1,0,0:0:0:0:
192,192,8145,1,0,0:0:0:0:
320,192,8145,1,0,0:0:0:0:
64,192,8299,1,0,0:0:0:0:
64,192,8453,1,0,0:0:0:0:
320,192,8530,1,0,0:0:0:0:
448,192,8607,1,0,0:0:0:0:
192,192,8607,1,0,0:0:0:0:
64,192,8684,1,0,0:0:0:0:
64,192,8760,1,0,0:0:0:0:
320,192,8760,1,0,0:0:0:0:
64,192,8837,1,0,0:0:0:0:
192,192,8914,1,0,0:0:0:0:
320,192,8991,1,0,0:0:0:0:
64,192,8991,1,0,0:0:0:0:
448,192,9068,1,0,0:0:0:0:
192,192,9068,1,0,0:0:0:0:
320,192,9145,1,0,0:0:0:0:
64,192,9145,1,0,0:0:0:0:
448,192,9222,1,0,0:0:0:0:
192,192,9222,1,0,0:0:0:0:
320,192,9299,1,0,0:0:0:0:
448,192,9376,1,0,0:0:0:0:
448,192,9453,1,0,0:0:0:0:
320,192,9530,1,0,0:0:0:0:
192,192,9607,1,0,0:0:0:0:
448,192,9607,1,0,0:0:0:0:
64,192,9684,1,0,0:0:0:0:
320,192,9684,1,0,0:0:0:0:
192,192,9760,1,0,0:0:0:0:
64,192,9837,1,0,0:0:0:0:
64,192,9914,1,0,0:0:0:0:
192,192,9991,1,0,0:0:0:0:
320,192,10068,1,0,0:0:0:0:
448,192,10145,1,0,0:0:0:0:
448,192,10222,1,0,0:0:0:0:
320,192,10299,1,0,0:0:0:0:
192,192,10376,1,0,0:0:0:0:
64,192,10453,1,0,0:0:0:0:
64,192,10684,1,0,0:0:0:0:
320,192,10684,1,0,0:0:0:0:
448,192,10837,1,0,0:0:0:0:
192,192,10837,1,0,0:0:0:0:
192,192,11222,1,0,0:0:0:0:
320,192,11222,1,0,0:0:0:0:
64,192,11299,1,0,0:0:0:0:
448,192,11299,1,0,0:0:0:0:
64,192,11376,1,0,0:0:0:0:
448,192,11376,1,0,0:0:0:0:
64,192,11684,128,0,12453:0:0:0:0:
448,192,11684,128,0,12453:0:0:0:0:
320,192,11760,1,0,0:0:0:0:
192,192,11837,1,0,0:0:0:0:
320,192,11914,1,0,0:0:0:0:
192,192,11991,1,0,0:0:0:0:
320,192,12068,1,0,0:0:0:0:
192,192,12145,1,0,0:0:0:0:
320,192,12299,1,0,0:0:0:0:
192,192,12376,1,0,0:0:0:0:
192,192,12530,1,0,0:0:0:0:
320,192,12684,1,0,0:0:0:0:
448,192,12760,1,0,0:0:0:0:
320,192,12837,1,0,0:0:0:0:
192,192,12914,1,0,0:0:0:0:
64,192,12991,1,0,0:0:0:0:
192,192,13068,1,0,0:0:0:0:
320,192,13145,1,0,0:0:0:0:
448,192,13222,1,0,0:0:0:0:
320,192,13299,1,0,0:0:0:0:
192,192,13376,1,0,0:0:0:0:
64,192,13453,1,0,0:0:0:0:
320,192,13453,1,0,0:0:0:0:
64,192,13530,128,0,14145:0:0:0:0:
192,192,13530,1,0,0:0:0:0:
448,192,13607,128,0,14068:0:0:0:0:
320,192,13607,1,0,0:0:0:0:
192,192,13684,1,0,0:0:0:0:
320,192,13760,1,0,0:0:0:0:
192,192,13837,1,0,0:0:0:0:
320,192,13914,1,0,0:0:0:0:
192,192,13991,1,0,0:0:0:0:
64,192,14222,1,0,0:0:0:0:
192,192,14299,1,0,0:0:0:0:
320,192,14376,1,0,0:0:0:0:
448,192,14453,1,0,0:0:0:0:
320,192,14530,1,0,0:0:0:0:
192,192,14607,1,0,0:0:0:0:
64,192,14684,1,0,0:0:0:0:
192,192,14760,1,0,0:0:0:0:
320,192,14837,1,0,0:0:0:0:
448,192,14914,1,0,0:0:0:0:
320,192,14991,1,0,0:0:0:0:
192,192,15068,1,0,0:0:0:0:
64,192,15145,1,0,0:0:0:0:
64,192,15222,1,0,0:0:0:0:
192,192,15299,1,0,0:0:0:0:
320,192,15376,1,0,0:0:0:0:
64,192,15376,1,0,0:0:0:0:
448,192,15453,1,0,0:0:0:0:
192,192,15453,1,0,0:0:0:0:
320,192,15530,1,0,0:0:0:0:
64,192,15530,1,0,0:0:0:0:
448,192,15607,1,0,0:0:0:0:
192,192,15607,1,0,0:0:0:0:
320,192,15684,1,0,0:0:0:0:
64,192,15684,1,0,0:0:0:0:
448,192,15760,1,0,0:0:0:0:
192,192,15760,1,0,0:0:0:0:
320,192,15837,1,0,0:0:0:0:
448,192,15914,1,0,0:0:0:0:
448,192,16068,128,0,16376:0:0:0:0:
64,192,16299,128,0,17607:0:0:0:0:
448,192,16530,128,0,17607:0:0:0:0:
192,192,16991,1,0,0:0:0:0:
320,192,16991,1,0,0:0:0:0:
320,192,18068,128,0,18914:0:0:0:0:
192,192,19068,1,0,0:0:0:0:
320,192,19068,1,0,0:0:0:0:
448,192,19068,1,0,0:0:0:0:
320,192,19145,1,0,0:0:0:0:
192,192,19145,1,0,0:0:0:0:
448,192,19145,1,0,0:0:0:0:
64,192,19760,128,0,20760:0:0:0:0:
192,192,19760,1,0,0:0:0:0:
320,192,19760,1,0,0:0:0:0:
448,192,19760,1,0,0:0:0:0:
448,192,19837,1,0,0:0:0:0:
320,192,19837,1,0,0:0:0:0:
192,192,19837,1,0,0:0:0:0:
192,192,21914,1,0,0:0:0:0:
64,192,21991,1,0,0:0:0:0:
320,192,21991,1,0,0:0:0:0:
64,192,22068,1,0,0:0:0:0:
320,192,22068,1,0,0:0:0:0:
64,192,22145,1,0,0:0:0:0:
320,192,22145,1,0,0:0:0:0:
64,192,22222,1,0,0:0:0:0:
320,192,22222,1,0,0:0:0:0:
64,192,22299,1,0,0:0:0:0:
320,192,22299,1,0,0:0:0:0:
64,192,22376,1,0,0:0:0:0:
320,192,22376,1,0,0:0:0:0:
192,192,22453,1,0,0:0:0:0:
64,192,22837,128,0,23837:0:0:0:0:
192,192,22837,1,0,0:0:0:0:
320,192,22837,1,0,0:0:0:0:
448,192,22837,1,0,0:0:0:0:
448,192,22914,1,0,0:0:0:0:
320,192,22914,1,0,0:0:0:0:
192,192,22914,1,0,0:0:0:0:
64,192,24068,128,0,25222:0:0:0:0:
192,192,24837,1,0,0:0:0:0:
320,192,24914,1,0,0:0:0:0:
320,192,24991,1,0,0:0:0:0:
320,192,25068,1,0,0:0:0:0:
320,192,25145,1,0,0:0:0:0:
192,192,25222,1,0,0:0:0:0:
64,192,25299,1,0,0:0:0:0:
192,192,25453,1,0,0:0:0:0:
192,192,25530,1,0,0:0:0:0:
320,192,25684,1,0,0:0:0:0:
192,192,25914,1,0,0:0:0:0:
192,192,25991,128,0,26068:0:0:0:0:
64,192,26145,1,0,0:0:0:0:
320,192,26222,128,0,26299:0:0:0:0:
