osu file format v14

[General]
AudioFilename: audio.mp3
AudioLeadIn: 0
PreviewTime: 64430
Countdown: 0
SampleSet: Normal
StackLeniency: 0.5
Mode: 0
LetterboxInBreaks: 0
WidescreenStoryboard: 0

[Editor]
Bookmarks: 183403,198746,255730,260113
DistanceSpacing: 1.2
BeatDivisor: 4
GridSize: 4
TimelineZoom: 2.3

[Metadata]
Title:the Beautiful Cure feat. nayuta
TitleUnicode:the Beautiful Cure feat. nayuta
Artist:Tokyo.MeltiMelt
ArtistUnicode:Tokyo.MeltiMelt
Creator:jonathanlfj
Version:Magnificat
Source:
Tags:Tokyo MeltiMelt 六歌 Rocka チコ星 ManePuppe 胡桃坂 庵 Iwori Kurumizaka Hitoshi 紅雨 咲月 Saki Akau Japanese Rock jrock j-rock
BeatmapID:3213722
BeatmapSetID:1574009

[Difficulty]
HPDrainRate:6
CircleSize:4
OverallDifficulty:9
ApproachRate:9.6
SliderMultiplier:1.9
SliderTickRate:1

[Events]
//Background and Video events
0,0,"85226674_p0.jpg",0,0
//Break Periods
2,183602,198235
2,255928,259602
//Storyboard Layer 0 (Background)
//Storyboard Layer 1 (Fail)
//Storyboard Layer 2 (Pass)
//Storyboard Layer 3 (Foreground)
//Storyboard Layer 4 (Overlay)
//Storyboard Sound Samples

[TimingPoints]
1447,273.972602739726,4,2,1,40,1,0
1447,-166.666666666667,4,2,1,40,0,0
5762,-166.666666666667,4,2,1,5,0,0
5830,-166.666666666667,4,2,1,45,0,0
10116,273.972602739726,4,1,1,60,1,0
10252,273.972602739726,4,1,1,60,1,0
16827,-83.3333333333333,4,1,1,60,0,0
18882,-100,4,1,1,60,0,0
24498,-83.3333333333333,4,1,1,60,0,0
25594,-100,4,1,1,60,0,0
27238,-90.9090909090909,4,1,1,60,0,0
27786,-166.666666666667,4,2,1,50,0,0
31307,273.972602739726,4,2,1,50,1,0
31307,-166.666666666667,4,2,1,50,0,0
32158,273.972602739726,4,2,1,50,1,0
32158,-166.666666666667,4,2,1,50,0,0
45320,273.972602739726,4,1,1,60,1,0
56826,-90.9090909090909,4,1,1,60,0,0
57100,-83.3333333333333,4,1,1,60,0,0
57374,-100,4,1,1,60,0,0
62854,-95.2380952380952,4,1,1,65,0,0
64498,-90.9090909090909,4,1,1,65,0,0
65046,-90.9090909090909,4,1,1,70,0,1
79703,-83.3333333333333,4,1,1,70,0,1
80388,-90.9090909090909,4,1,1,70,0,0
82443,-100,4,1,1,70,0,0
89155,-83.3333333333333,4,1,1,60,0,0
91210,-100,4,1,1,60,0,0
96826,-83.3333333333333,4,1,1,60,0,0
97922,-100,4,1,1,60,0,0
99566,-90.9090909090909,4,1,1,60,0,0
100114,-111.111111111111,4,1,1,50,0,0
100936,-100,4,1,1,50,0,0
114087,-90.9090909090909,4,1,1,50,0,0
114361,-90.9090909090909,4,1,1,55,0,0
115456,-83.3333333333333,4,1,1,60,0,0
116552,-100,4,1,1,50,0,0
129155,-90.9090909090909,4,1,1,60,0,0
129429,-83.3333333333333,4,1,1,60,0,0
129703,-100,4,1,1,60,0,0
135183,-95.2380952380952,4,1,1,65,0,0
136826,-90.9090909090909,4,1,1,65,0,0
137374,-90.9090909090909,4,1,1,70,0,1
152032,-83.3333333333333,4,1,1,70,0,1
152717,-90.9090909090909,4,1,1,70,0,0
154772,-100,4,1,1,65,0,0
163676,-111.111111111111,4,2,1,50,0,0
179018,-142.857142857143,4,2,1,50,0,0
181278,-100,4,2,1,20,0,0
198744,-166.666666666667,4,2,1,50,0,0
216278,273.972602739726,7,1,1,60,1,0
216278,-111.111111111111,7,1,1,60,0,0
220661,273.972602739726,7,2,1,50,1,0
220661,-111.111111111111,7,1,1,60,0,0
225044,273.972602739726,7,2,1,50,1,0
225044,-111.111111111111,7,1,1,60,0,0
226893,-111.111111111111,7,1,1,5,0,0
226961,-111.111111111111,7,1,1,60,0,0
229427,273.972602739726,4,2,1,50,1,0
229427,-111.111111111111,7,1,1,60,0,0
230248,-142.857142857143,7,1,1,60,0,0
233810,-142.857142857143,7,1,1,50,0,0
234358,-125,7,1,1,55,0,0
234906,-111.111111111111,7,1,1,60,0,0
235180,-100,7,1,1,65,0,0
235865,-90.9090909090909,7,1,1,70,0,1
254632,-83.3333333333333,7,1,1,70,0,1
255180,-76.9230769230769,7,1,1,70,0,1
255385,-90.9090909090909,7,1,1,70,0,0
255728,-100,7,1,1,50,0,0
260111,-90.9090909090909,7,1,1,65,0,0
264495,-95.2380952380952,7,1,1,60,0,0
273262,-111.111111111111,7,1,1,60,0,0
275454,-95.2380952380952,7,1,1,60,0,0
276276,-125,7,1,1,60,0,0
276687,-95.2380952380952,7,1,1,60,0,0
279837,-86.9565217391304,7,1,1,70,0,1
279906,-86.9565217391304,7,1,1,70,0,0
284221,-125,7,2,1,50,0,0
287372,-86.9565217391304,7,1,1,70,0,0
288605,-166.666666666667,7,1,1,70,0,0
288810,-166.666666666667,7,1,1,5,0,0
288879,-83.3333333333333,7,1,1,75,0,1
295728,-80,7,1,1,75,0,1
296276,-76.9230769230769,7,1,1,75,0,1
297303,-76.9230769230769,7,1,1,75,0,0
297372,-83.3333333333333,7,1,1,75,0,1
314769,-90.9090909090909,7,1,1,70,0,0
322988,-83.3333333333333,7,1,1,70,0,0
323399,-76.9230769230769,7,1,1,70,0,0
323536,-90.9090909090909,7,1,1,70,0,0
332440,-133.333333333333,7,1,1,70,0,0
333399,-133.333333333333,7,1,1,30,0,0
333536,-90.9090909090909,7,1,1,70,0,0
334632,-100,4,2,1,50,0,0
336687,-83.3333333333333,4,1,1,70,0,1
343399,-76.9230769230769,4,1,1,70,0,1
345454,-83.3333333333333,4,1,1,70,0,1
351070,-76.9230769230769,4,1,1,70,0,1
352166,-90.9090909090909,4,1,1,70,0,1
353810,-83.3333333333333,4,1,1,70,0,1
354358,-111.111111111111,4,2,1,60,0,0
361687,-111.111111111111,4,2,1,5,0,0
361755,-111.111111111111,4,2,1,60,0,0

[Colours]
Combo1 : 174,167,145
Combo2 : 226,169,90
Combo3 : 154,97,50

[HitObjects]
93,206,1446,21,2,0:0:0:0:
242,149,1994,1,0,0:0:0:0:
299,297,2542,1,2,0:0:0:0:
219,242,2816,1,0,0:0:0:0:
242,149,3090,1,0,0:0:0:0:
339,144,3364,1,2,0:0:0:0:
373,235,3638,5,2,0:0:0:0:
219,242,4186,1,0,0:0:0:0:
339,144,4734,1,2,0:0:0:0:
339,144,5282,2,0,B|246:102|253:185|145:140,1,199.499993911743
74,86,5830,6,0,P|68:143|58:201,1,113.999996520996,2|0,0:0|0:0,0:0:0:0:
183,317,6378,1,0,0:0:0:0:
295,188,6652,1,0,0:0:0:0:
240,115,6789,1,0,0:0:0:0:
205,200,6926,2,0,P|216:255|223:327,1,113.999996520996,2|0,0:0|0:0,0:0:0:0:
364,125,7474,2,0,P|368:93|376:54,1,56.9999982604981
394,211,7748,1,2,0:0:0:0:
124,244,8022,5,0,0:0:0:0:
372,68,8296,1,2,0:0:0:0:
334,328,8570,1,0,0:0:0:0:
245,17,8844,1,0,0:0:0:0:
209,345,9118,1,2,0:0:0:0:
209,345,10116,6,0,P|302:342|354:266,1,190,4|0,0:0|3:0,0:0:0:0:
115,174,10525,2,0,P|127:228|137:288,1,95,8|0,0:0|2:0,0:0:0:0:
322,145,10799,1,0,3:0:0:0:
322,145,10868,1,0,3:0:0:0:
322,145,10936,1,0,3:0:0:0:
178,61,11073,1,8,0:0:0:0:
251,250,11210,1,0,2:0:0:0:
33,244,11347,6,0,P|4:174|71:81,1,190,2|8,0:2|0:0,0:0:0:0:
342,132,11758,2,0,L|234:116,1,95,2|0,2:0|3:0,0:0:0:0:
227,144,11964,1,0,3:0:0:0:
207,170,12032,1,0,3:0:0:0:
217,201,12101,1,0,3:0:0:0:
228,231,12169,1,10,0:2:0:0:
405,211,12306,6,0,L|366:11,1,190,4|0,0:0|3:0,0:0:0:0:
476,143,12717,1,8,0:0:0:0:
318,246,12854,1,0,2:0:0:0:
495,344,12991,1,0,3:0:0:0:
495,344,13060,1,0,3:0:0:0:
495,344,13128,2,0,B|509:300|509:300|482:248,1,95,0|8,3:0|0:0,0:0:0:0:
204,166,13402,6,0,B|173:258|173:258|222:346,1,190,4|0,0:0|3:0,0:0:0:0:
304,352,13745,1,0,3:0:0:0:
304,352,13813,2,0,L|404:336,1,95,8|2,0:0|3:2,0:0:0:0:
279,51,14087,2,0,L|264:96,1,47.5,8|0,3:1|3:0,3:0:0:0:
320,170,14224,2,0,L|302:218,1,47.5,8|0,3:0|3:0,3:0:0:0:
405,137,14361,1,10,0:2:0:0:
186,152,14498,6,0,P|203:228|218:347,1,190,4|0,0:0|3:0,0:0:0:0:
75,146,14909,2,0,P|103:94|122:52,1,95,8|0,0:0|2:0,0:0:0:0:
298,171,15183,1,2,3:2:0:0:
298,171,15252,1,0,3:0:0:0:
298,171,15320,1,0,3:0:0:0:
119,242,15457,1,8,0:0:0:0:
257,73,15594,1,0,2:0:0:0:
360,233,15731,6,0,P|295:217|218:207,1,142.5,2|0,0:2|2:0,0:0:0:0:
97,142,16005,2,0,L|206:127,1,95,8|0,0:0|2:0,0:0:0:0:
361,74,16279,1,0,3:0:0:0:
331,58,16347,1,0,3:0:0:0:
297,58,16416,1,0,3:0:0:0:
444,147,16553,2,0,P|464:101|469:41,1,95,10|0,0:2|2:0,0:0:0:0:
345,173,16827,5,4,0:0:0:0:
462,301,16964,2,0,L|472:233,1,56.9999982604981,8|0,0:0|3:0,0:0:0:0:
361,74,17101,1,0,3:0:0:0:
320,314,17238,5,12,0:0:0:0:
444,147,17375,2,0,P|355:124|272:90,1,170.999994781494,0|0,3:0|2:0,0:0:0:0:
224,29,17649,1,8,0:0:0:0:
65,215,17786,6,0,P|154:177|227:162,1,170.999994781494,4|0,0:0|2:0,0:0:0:0:
297,212,18060,1,2,3:2:0:0:
278,255,18128,1,2,2:0:0:0:
293,300,18197,1,2,2:0:0:0:
420,145,18334,1,0,3:0:0:0:
169,49,18471,1,8,0:0:0:0:
165,81,18539,1,0,0:0:0:0:
162,114,18608,1,8,0:0:0:0:
159,146,18676,1,0,0:0:0:0:
156,179,18745,1,8,0:0:0:0:
153,211,18813,1,8,0:0:0:0:
150,244,18882,6,0,B|216:238|216:238|272:269|272:269|333:263,1,190,4|0,0:0|3:0,0:0:0:0:
97,352,19293,2,0,L|194:341,1,95,8|0,0:0|2:0,0:0:0:0:
293,167,19567,1,2,3:2:0:0:
449,302,19704,2,0,P|395:284|341:282,1,95,2|8,2:0|0:0,0:0:0:0:
236,90,19978,1,0,3:0:0:0:
77,219,20115,6,0,P|156:207|191:192,1,95,2|0,2:0|3:0,0:0:0:0:
332,77,20388,1,8,0:0:0:0:
95,20,20525,2,0,P|104:76|108:126,1,95,2|0,3:2|3:0,0:0:0:0:
105,148,20731,1,0,3:0:0:0:
98,180,20799,1,0,3:0:0:0:
228,319,20936,2,0,P|216:271|206:210,1,95,10|0,0:2|3:0,0:0:0:0:
388,139,21210,6,0,B|346:163|346:163|293:154,1,95,2|0,2:0|3:0,0:0:0:0:
95,20,21484,1,8,0:0:0:0:
332,77,21621,1,2,2:0:0:0:
105,148,21758,1,2,3:2:0:0:
260,21,21895,1,0,2:0:0:0:
229,227,22032,2,0,L|213:331,1,95,8|0,0:0|3:0,0:0:0:0:
327,239,22306,5,2,2:0:0:0:
194,103,22443,1,0,3:0:0:0:
194,103,22512,1,0,3:0:0:0:
194,103,22580,2,0,B|150:85|150:85|94:101,1,95,8|0,0:0|2:0,0:0:0:0:
49,256,22854,2,0,L|40:200,1,47.5,2|0,3:1|3:0,3:0:0:0:
120,330,22991,1,0,3:0:0:0:
233,187,23128,1,8,0:0:0:0:
319,353,23265,1,2,2:1:0:0:
444,174,23402,6,2,P|368:161|321:203,1,142.5,4|0,0:0|2:0,0:0:0:0:
405,330,23676,2,2,P|405:276|393:230,1,95,10|0,0:0|2:0,0:0:0:0:
163,131,23950,1,0,3:0:0:0:
147,160,24019,1,0,3:0:0:0:
144,192,24087,1,2,3:1:0:0:
316,292,24224,1,8,0:0:0:0:
258,93,24361,1,2,3:1:0:0:
170,293,24498,5,12,0:0:0:0:
389,151,24635,2,0,L|317:139,1,56.9999982604981,0|0,3:0|3:0,0:0:0:0:
92,104,24772,1,0,3:0:0:0:
377,47,24909,6,2,P|326:16|261:26,1,113.999996520996,10|0,0:0|3:0,0:0:0:0:
238,40,25115,1,0,3:0:0:0:
216,73,25183,1,0,3:0:0:0:
279,307,25320,1,8,0:0:0:0:
466,199,25457,1,0,3:0:0:0:
456,160,25525,1,0,3:0:0:0:
430,132,25594,6,2,P|341:152|224:169,1,190,6|0,0:0|2:0,0:0:0:0:
47,162,26005,1,0,3:0:0:0:
316,289,26142,2,2,P|227:272|113:255,1,190,10|0,0:0|2:0,0:0:0:0:
319,59,26553,1,0,3:0:0:0:
109,61,26690,5,8,0:0:0:0:
114,107,26758,1,0,0:0:0:0:
144,144,26826,1,0,0:0:0:0:
187,161,26895,1,0,0:0:0:0:
234,159,26963,1,8,0:0:0:0:
279,142,27032,1,0,0:0:0:0:
325,151,27100,1,8,0:0:0:0:
360,183,27169,1,0,0:0:0:0:
369,229,27238,6,0,L|358:282,1,52.2500015945435,8|0,3:0|3:0,3:0:0:0:
256,262,27375,2,0,L|220:301,1,52.2500015945435,0|0,3:0|3:0,3:0:0:0:
141,234,27512,2,0,L|88:250,1,52.2500015945435,8|0,3:0|3:0,3:0:0:0:
55,152,27649,2,0,L|2:141,1,52.2500015945435,8|0,3:0|3:0,3:0:0:0:
109,61,27786,5,4,1:0:0:0:
109,61,28334,2,0,P|161:81|233:86,1,113.999996520996,0|2,0:0|0:0,0:0:0:0:
326,49,28882,1,0,0:0:0:0:
401,134,29156,1,0,0:0:0:0:
342,231,29430,1,2,0:0:0:0:
232,200,29704,1,0,0:0:0:0:
401,134,29978,6,0,B|442:139|470:164|470:164|478:216|454:256,2,170.999994781494,2|0|0,0:0|0:0|0:0,0:0:0:0:
401,134,31307,1,2,0:0:0:0:
357,300,31581,1,2,0:0:0:0:
357,300,32158,6,0,B|300:312|249:275|249:275|184:274|153:323,1,227.999993041992,2|0,0:0|0:0,0:0:0:0:
46,281,32979,1,0,0:0:0:0:
160,134,33253,1,0,0:0:0:0:
50,166,33527,1,0,0:0:0:0:
174,20,33801,1,2,0:0:0:0:
284,52,34075,1,0,0:0:0:0:
183,237,34349,6,0,B|120:239|58:204|58:204|70:246,2,170.999994781494,2|0|0,0:0|0:0|0:0,0:0:0:0:
278,174,35445,1,2,0:0:0:0:
364,248,35719,2,0,P|377:186|433:24,1,227.999993041992,2|0,0:0|0:0,0:0:0:0:
299,100,36541,6,0,P|224:70|174:59,1,113.999996520996,2|0,0:0|0:0,0:0:0:0:
109,113,36952,1,2,0:0:0:0:
109,113,37089,2,0,P|99:168|101:230,1,113.999996520996,0|2,0:0|0:0,0:0:0:0:
172,291,37500,1,2,0:0:0:0:
172,291,37911,5,2,0:0:0:0:
282,184,38185,1,2,0:0:0:0:
370,330,38459,1,2,0:0:0:0:
172,291,38733,5,2,0:0:0:0:
172,291,39555,2,0,P|156:245|145:224,1,56.9999982604981,2|0,0:0|0:0,0:0:0:0:
276,350,39829,2,0,B|292:293|330:251|330:251|315:230|310:198,2,170.999994781494,2|0|0,0:0|0:0|0:0,0:0:0:0:
233,140,40925,6,0,P|336:108|406:189,1,227.999993041992,2|0,0:0|0:0,0:0:0:0:
221,237,41747,1,2,0:0:0:0:
221,237,42568,1,2,0:0:0:0:
316,112,42842,2,0,P|305:144|300:178,1,56.9999982604981
118,205,43116,6,0,B|119:163|94:127|94:127|45:125|13:156,2,170.999994781494,4|0|2,0:1|0:0|0:0,0:0:0:0:
118,205,44486,2,0,P|161:192|230:152,1,113.999996520996,2|0,0:0|0:0,0:0:0:0:
287,328,44897,1,2,0:0:0:0:
287,328,45320,6,0,P|336:307|389:300,1,95,4|0,0:0|3:0,0:0:0:0:
277,90,45593,2,0,P|329:128|411:147,1,142.5,8|0,0:0|2:0,0:0:0:0:
437,141,45867,1,0,3:0:0:0:
302,222,46004,1,0,3:0:0:0:
380,38,46141,1,8,0:0:0:0:
187,47,46278,6,0,B|171:93|171:93|195:160,1,95,2|0,2:0|3:0,0:0:0:0:
265,310,46552,1,0,2:0:0:0:
64,251,46689,2,0,L|214:229,1,142.5,8|0,0:0|2:0,0:0:0:0:
238,222,46963,1,2,3:2:0:0:
72,146,47100,1,0,3:0:0:0:
155,333,47237,2,0,L|250:354,1,95,8|0,0:0|2:0,0:0:0:0:
468,263,47511,6,0,P|402:269|358:380,1,190,2|8,3:2|0:0,0:0:0:0:
334,170,47922,1,2,2:0:0:0:
186,297,48059,2,0,P|237:270|287:254,1,95,0|0,3:0|3:0,0:0:0:0:
445,353,48333,1,8,0:0:0:0:
231,162,48470,1,2,2:0:0:0:
470,36,48607,6,0,P|439:93|353:93,1,142.5,2|0,3:2|2:0,0:0:0:0:
336,88,48881,2,0,P|351:144|357:200,1,95,8|0,0:0|2:0,0:0:0:0:
229,42,49155,1,0,3:0:0:0:
169,246,49292,1,2,3:2:0:0:
25,127,49429,2,0,L|147:110,1,95,8|0,0:0|2:0,0:0:0:0:
201,356,49703,6,0,L|94:340,1,95,4|0,0:0|2:0,0:0:0:0:
234,156,49977,2,0,B|267:184|267:184|377:166,1,142.5,8|0,0:0|2:0,0:0:0:0:
396,162,50251,1,0,3:0:0:0:
284,288,50388,1,0,3:0:0:0:
294,82,50525,1,8,0:0:0:0:
394,268,50662,6,0,P|375:347|369:382,1,95,2|0,2:0|3:0,0:0:0:0:
172,268,50936,1,2,2:0:0:0:
328,171,51073,2,0,P|297:219|278:269,1,95,8|0,0:0|2:0,0:0:0:0:
148,130,51347,1,2,3:2:0:0:
394,268,51484,1,0,3:0:0:0:
145,364,51621,2,0,P|98:339|71:254,1,142.5,8|0,0:0|2:0,0:0:0:0:
81,227,51895,5,2,3:2:0:0:
248,354,52032,1,0,2:0:0:0:
283,138,52169,1,8,0:0:0:0:
172,268,52306,2,0,P|221:250|282:238,1,95,2|0,2:0|3:0,0:0:0:0:
296,240,52511,1,0,3:0:0:0:
328,247,52580,1,0,3:0:0:0:
181,162,52717,1,8,0:0:0:0:
388,327,52854,6,2,P|428:259|374:157,1,190,4|2,0:0|3:1,0:0:0:0:
65,126,53265,2,0,P|81:211|88:277,1,142.5,10|0,0:0|2:0,0:0:0:0:
87,304,53539,1,8,0:0:0:0:
181,30,53676,1,8,0:0:0:0:
181,30,54087,6,0,B|220:59|220:59|261:38|261:38|294:66|351:60,1,190,4|0,0:0|2:0,0:0:0:0:
283,239,54498,1,0,3:0:0:0:
283,239,54566,1,0,3:0:0:0:
283,239,54635,2,0,P|274:180|265:141,1,95,8|0,0:0|3:0,0:0:0:0:
398,286,54909,1,2,2:0:0:0:
195,366,55046,6,0,P|140:312|177:215,1,190,2|0,3:2|3:0,0:0:0:0:
472,207,55456,2,0,P|407:186|375:169,1,95,8|0,0:0|2:0,0:0:0:0:
240,19,55730,1,0,3:0:0:0:
278,200,55867,1,0,3:0:0:0:
278,200,55936,1,0,3:0:0:0:
278,200,56004,2,0,P|285:142|300:95,1,95,8|0,0:0|2:0,0:0:0:0:
292,306,56278,6,0,P|225:292|124:287,1,142.5,2|0,3:2|2:0,0:0:0:0:
51,312,56552,1,0,3:0:0:0:
16,283,56644,2,0,L|31:203,1,63.3333333333333,0|0,3:0|3:0,0:0:0:0:
137,89,56826,1,8,3:1:0:0:
183,128,56918,2,0,L|167:206,1,69.6666687927247,0|0,3:0|3:0,0:0:0:0:
292,306,57100,1,8,3:1:0:0:
347,254,57192,2,0,L|330:172,1,75.9999976806641,0|0,3:0|3:0,0:0:0:0:
446,45,57374,6,0,B|470:86|470:86|458:144,1,95,2|0,3:2|3:0,0:0:0:0:
452,165,57580,1,0,3:0:0:0:
445,197,57648,1,8,0:0:0:0:
335,46,57785,1,0,3:0:0:0:
350,76,57854,1,0,3:0:0:0:
365,105,57922,1,8,0:0:0:0:
184,60,58059,1,0,3:0:0:0:
215,73,58128,1,0,3:0:0:0:
245,86,58196,2,0,L|270:139,1,47.5,8|0,0:0|0:0,0:0:0:0:
336,279,58333,1,8,0:0:0:0:
139,268,58470,6,0,L|196:248,2,47.5,4|0|0,0:0|3:0|3:0,0:0:0:0:
74,80,58744,2,0,P|98:124|138:162,1,95,8|0,0:0|3:0,0:0:0:0:
206,172,58950,1,0,3:0:0:0:
206,172,59018,2,0,L|308:139,1,95,8|0,0:0|3:0,0:0:0:0:
49,223,59292,1,8,0:0:0:0:
281,259,59429,1,0,3:0:0:0:
281,259,59498,1,0,3:0:0:0:
281,259,59566,6,0,L|381:272,1,95,8|0,0:0|3:0,0:0:0:0:
141,355,59840,2,0,B|121:312|121:312|140:264,1,95,8|0,0:0|3:0,0:0:0:0:
178,202,60046,1,0,3:0:0:0:
178,202,60114,2,0,L|157:98,1,95,8|0,0:0|3:0,0:0:0:0:
277,358,60388,1,8,0:0:0:0:
356,135,60525,1,0,3:0:0:0:
356,135,60593,1,0,3:0:0:0:
356,135,60662,6,0,L|370:38,1,95,8|0,0:0|3:0,0:0:0:0:
417,218,60936,1,8,0:0:0:0:
397,230,61004,1,0,3:0:0:0:
374,237,61073,1,0,3:0:0:0:
350,238,61141,1,0,3:0:0:0:
326,234,61210,1,8,0:0:0:0:
304,225,61278,1,0,3:0:0:0:
284,211,61347,1,0,3:0:0:0:
269,192,61415,1,0,3:0:0:0:
248,179,61484,1,8,0:0:0:0:
225,172,61552,1,0,3:0:0:0:
201,171,61621,1,0,3:0:0:0:
178,177,61689,1,0,3:0:0:0:
158,190,61758,6,0,L|150:245,1,47.5,8|0,0:0|3:0,0:0:0:0:
85,126,61895,2,0,L|76:75,1,47.5,0|0,3:0|3:0,0:0:0:0:
15,200,62032,1,8,3:0:0:0:
203,84,62169,1,8,3:0:0:0:
239,335,62306,1,0,0:0:0:0:
158,190,62443,6,0,L|218:209,1,47.5,8|0,3:0|3:0,3:0:0:0:
287,142,62580,2,0,L|320:195,1,47.5,0|0,3:0|3:0,3:0:0:0:
416,188,62717,2,0,L|407:250,1,47.5,0|0,3:0|3:0,3:0:0:0:
396,339,62854,5,12,0:0:0:0:
203,204,62991,1,2,3:2:0:0:
383,97,63128,1,2,3:2:0:0:
239,335,63265,2,2,P|179:300|96:299,1,149.624995433808,10|0,0:0|2:0,0:0:0:0:
47,371,63539,2,0,P|54:347|60:305,1,49.8749984779358,8|0,0:0|0:0,3:0:0:0:
12,136,63676,1,0,3:0:0:0:
287,142,63813,6,2,P|226:189|103:190,1,199.499993911743,12|2,0:0|3:2,0:0:0:0:
42,142,64155,1,0,3:0:0:0:
32,108,64224,1,10,0:0:0:0:
239,335,64361,1,0,3:0:0:0:
264,40,64498,6,0,P|200:66|196:115,1,104.500003189087,8|0,0:0|3:0,0:0:0:0:
287,142,64703,2,0,P|351:168|355:217,1,104.500003189087,8|0,0:0|3:0,0:0:0:0:
200,196,64909,2,0,P|174:214|155:246,1,52.2500015945435,8|0,0:0|2:0,0:0:0:0:
316,271,65046,6,0,P|376:278|441:199,1,156.750004783631,4|0,0:0|2:0,0:0:0:0:
428,127,65320,2,0,P|432:53|439:12,1,104.500003189087,2|0,2:0|2:0,0:0:0:0:
287,142,65593,1,0,3:0:0:0:
287,142,65662,1,0,3:0:0:0:
287,142,65730,1,0,3:0:0:0:
411,312,65867,1,8,0:0:0:0:
194,192,66004,6,0,B|183:109|239:50|239:50|214:63|185:64,1,209.000006378174,2|0,0:2|3:0,0:0:0:0:
121,278,66415,2,0,P|177:289|233:307,1,104.500003189087,8|0,0:0|3:0,0:0:0:0:
104,58,66689,2,0,P|48:47|-8:29,1,104.500003189087,2|0,3:2|2:0,0:0:0:0:
287,142,66963,2,0,P|354:121|444:104,1,156.750004783631,8|0,0:0|2:0,0:0:0:0:
510,223,67237,6,0,P|455:204|399:193,1,104.500003189087,2|0,0:2|2:0,0:0:0:0:
179,266,67511,1,8,0:0:0:0:
270,38,67648,2,0,L|289:159,1,104.500003189087,2|0,2:0|3:0,0:0:0:0:
291,167,67854,1,0,3:0:0:0:
296,192,67922,2,0,L|233:175,1,52.2500015945435,0|0,3:0|3:0,3:0:0:0:
375,80,68059,1,8,0:0:0:0:
132,147,68196,6,0,P|163:241|175:372,1,209.000006378174,2|0,0:2|3:0,0:0:0:0:
269,370,68539,1,0,3:0:0:0:
269,370,68607,2,0,P|259:313|256:264,1,104.500003189087,8|0,0:0|3:0,0:0:0:0:
481,100,68881,1,8,0:0:0:0:
361,306,69018,1,0,3:0:0:0:
239,63,69155,1,8,0:0:0:0:
204,49,69224,1,0,3:0:0:0:
167,45,69292,1,0,3:0:0:0:
132,56,69361,1,0,3:0:0:0:
102,76,69429,6,0,L|93:149,1,52.2500015945435,4|0,0:0|3:0,0:0:0:0:
73,317,69566,1,0,3:0:0:0:
178,140,69703,1,8,0:0:0:0:
0,207,69840,2,0,B|112:235,1,104.500003189087,2|0,3:2|3:0,0:0:0:0:
127,237,70046,1,0,3:0:0:0:
152,242,70114,1,0,3:0:0:0:
319,119,70251,1,8,0:0:0:0:
95,127,70388,1,2,3:2:0:0:
242,292,70525,6,0,B|261:242|261:242|241:186,1,104.500003189087,2|0,0:2|3:0,0:0:0:0:
17,68,70799,2,0,B|55:98|55:98|162:79,1,156.750004783631,8|0,0:0|2:0,0:0:0:0:
264,68,71073,2,0,L|245:183,1,104.500003189087,0|0,3:0|2:0,0:0:0:0:
470,293,71347,2,0,P|483:207|434:148,1,156.750004783631,8|0,0:0|2:0,0:0:0:0:
368,124,71621,5,2,0:2:0:0:
276,333,71758,1,0,2:0:0:0:
394,235,71895,1,8,0:0:0:0:
160,177,72032,1,2,2:0:0:0:
352,28,72169,1,0,3:0:0:0:
369,59,72237,1,0,3:0:0:0:
372,95,72306,1,0,3:0:0:0:
185,275,72443,1,8,0:0:0:0:
36,43,72580,6,0,P|100:69|201:88,1,156.750004783631,2|0,0:2|2:0,0:0:0:0:
272,92,72854,2,0,L|260:148,1,52.2500015945435,0|0,3:0|3:0,3:0:0:0:
277,236,72991,1,8,0:0:0:0:
279,251,73059,1,0,3:0:0:0:
281,266,73128,1,0,3:0:0:0:
283,281,73196,1,0,3:0:0:0:
285,296,73265,6,0,L|219:286,1,52.2500015945435,8|0,0:0|0:0,0:0:0:0:
150,201,73402,2,0,L|83:220,1,52.2500015945435,8|0,3:0|3:0,3:0:0:0:
261,143,73539,2,0,L|327:153,1,52.2500015945435,8|0,0:0|3:0,0:0:0:0:
396,238,73676,2,0,L|463:219,1,52.2500015945435,8|0,3:0|3:0,3:0:0:0:
372,355,73813,6,0,P|299:331|215:320,1,156.750004783631,4|0,0:0|2:0,0:0:0:0:
133,336,74087,1,8,0:0:0:0:
160,100,74224,1,2,2:0:0:0:
277,236,74361,1,0,3:0:0:0:
277,236,74429,1,0,3:0:0:0:
277,236,74498,1,2,3:2:0:0:
62,159,74635,1,8,0:0:0:0:
262,45,74772,6,0,B|370:27|347:108|462:86,1,209.000006378174,2|0,0:2|3:0,0:0:0:0:
277,236,75183,2,0,P|293:171|296:116,1,104.500003189087,8|0,0:0|2:0,0:0:0:0:
48,26,75456,2,0,P|66:90|72:137,1,104.500003189087,2|0,3:2|2:0,0:0:0:0:
75,331,75730,1,8,0:0:0:0:
188,102,75867,1,2,2:0:0:0:
340,289,76004,6,0,L|234:259,1,104.500003189087,2|0,0:2|2:0,0:0:0:0:
470,175,76278,1,8,0:0:0:0:
286,19,76415,2,0,B|267:67|267:67|288:128,1,104.500003189087,2|0,2:0|3:0,0:0:0:0:
312,141,76621,1,0,3:0:0:0:
347,145,76689,1,0,3:0:0:0:
380,130,76758,1,0,3:0:0:0:
397,98,76826,1,8,0:0:0:0:
229,200,76963,1,0,3:0:0:0:
435,284,77100,6,0,P|377:257|329:265,1,104.500003189087,2|0,2:0|3:0,0:0:0:0:
264,306,77306,1,0,3:0:0:0:
264,306,77374,2,0,L|274:361,1,52.2500015945435,8|0,0:0|3:0,0:0:0:0:
183,275,77511,2,0,L|173:337,1,52.2500015945435,0|0,3:0|3:0,3:0:0:0:
138,200,77648,2,0,L|144:139,1,52.2500015945435,8|0,0:0|3:0,3:0:0:0:
62,242,77785,2,0,L|42:175,1,52.2500015945435,0|0,3:0|3:0,3:0:0:0:
27,327,77922,1,8,0:0:0:0:
62,335,77991,1,0,3:0:0:0:
97,340,78059,1,0,3:0:0:0:
133,346,78128,1,0,3:0:0:0:
168,352,78196,5,12,0:0:0:0:
298,195,78333,1,0,3:0:0:0:
347,370,78470,1,8,0:0:0:0:
184,163,78607,1,0,3:0:0:0:
261,337,78744,1,8,0:0:0:0:
379,115,78881,5,0,3:0:0:0:
170,266,79018,2,0,P|142:257|118:243,1,52.2500015945435,8|0,3:0|3:0,3:0:0:0:
184,163,79155,2,0,P|168:137|155:104,1,52.2500015945435,8|0,3:0|3:0,3:0:0:0:
263,10,79292,5,8,0:0:0:0:
292,32,79361,1,8,0:0:0:0:
303,66,79429,2,0,P|291:88|272:114,1,52.2500015945435,0|0,3:0|3:0,3:0:0:0:
332,198,79566,2,0,P|303:209|269:218,1,52.2500015945435,8|0,3:0|3:0,3:0:0:0:
408,122,79703,5,8,0:0:0:0:
431,153,79772,1,8,0:0:0:0:
440,191,79840,2,0,P|436:219|426:259,1,56.9999982604981,8|0,3:0|3:0,3:0:0:0:
508,321,79977,2,0,P|483:338|447:355,1,56.9999982604981,8|0,3:0|3:0,3:0:0:0:
275,346,80114,1,8,0:0:0:0:
312,317,80183,1,8,0:0:0:0:
358,318,80251,1,8,0:0:0:0:
190,279,80388,6,0,B|145:288|109:269|109:269|76:325|3:333,2,209.000006378174,4|8|0,0:0|0:0|3:0,0:0:0:0:
223,263,81004,1,0,3:0:0:0:
244,233,81073,1,0,3:0:0:0:
205,31,81210,1,8,0:0:0:0:
345,199,81347,6,0,P|281:139|151:169,1,209.000006378174,4|0,0:0|3:0,0:0:0:0:
71,340,81758,1,8,0:0:0:0:
16,132,81895,2,0,L|81:161,1,52.2500015945435,0|0,3:0|3:0,3:0:0:0:
244,233,82032,1,8,0:0:0:0:
171,5,82169,2,0,L|152:72,1,52.2500015945435,0|0,3:0|3:0,3:0:0:0:
98,258,82306,1,8,0:0:0:0:
343,285,82443,6,0,L|306:93,1,190,4|0,0:0|3:0,0:0:0:0:
373,29,82785,1,0,3:0:0:0:
373,29,82854,2,0,B|399:70|399:70|396:126,1,95,8|0,0:0|2:0,0:0:0:0:
230,279,83128,1,0,3:0:0:0:
307,98,83265,1,0,3:0:0:0:
108,140,83402,2,0,L|215:165,1,95,8|0,0:0|2:0,2:0:0:0:
492,325,83676,6,0,B|448:306|448:306|307:349,1,190,2|8,0:2|0:0,0:0:0:0:
392,126,84087,2,0,P|388:176|372:238,1,95,2|0,2:0|3:0,0:0:0:0:
210,368,84361,1,0,3:0:0:0:
205,334,84429,1,0,3:0:0:0:
217,303,84498,1,10,0:2:0:0:
110,121,84635,6,0,P|178:101|278:162,1,190,4|0,0:0|3:0,0:0:0:0:
289,189,84977,1,0,3:0:0:0:
293,221,85046,1,8,0:0:0:0:
116,375,85183,1,0,2:0:0:0:
180,200,85320,1,0,3:0:0:0:
7,247,85456,1,0,3:0:0:0:
39,255,85525,1,0,3:0:0:0:
71,251,85593,1,10,0:2:0:0:
223,113,85730,6,0,P|218:212|245:316,1,190,4|0,0:0|3:0,0:0:0:0:
478,174,86141,2,0,L|372:203,1,95,8|2,0:0|3:2,0:0:0:0:
379,232,86347,1,0,3:0:0:0:
372,264,86415,2,0,L|362:314,1,47.5,8|0,3:1|3:0,3:0:0:0:
296,186,86552,1,0,3:0:0:0:
459,347,86689,1,0,3:0:0:0:
238,299,86826,6,0,B|140:267|149:343|52:311,1,190,4|0,0:0|3:0,0:0:0:0:
81,127,87237,2,0,P|91:177|100:251,1,95,8|0,0:0|2:0,0:0:0:0:
319,349,87511,1,2,3:2:0:0:
189,166,87648,1,0,3:0:0:0:
387,62,87786,2,0,P|375:110|365:158,1,95,8|0,0:0|2:0,0:0:0:0:
110,120,88059,6,0,P|179:118|252:94,1,142.5,2|0,0:2|2:0,0:0:0:0:
304,18,88333,2,0,P|255:3|205:12,1,95,8|0,0:0|3:0,0:0:0:0:
122,234,88608,1,0,3:0:0:0:
122,234,88676,1,0,3:0:0:0:
122,234,88745,1,0,3:0:0:0:
369,171,88881,1,8,0:0:0:0:
188,24,89018,1,2,3:2:0:0:
304,261,89155,5,12,0:0:0:0:
361,64,89292,1,0,3:0:0:0:
194,160,89429,2,0,L|265:180,1,56.9999982604981,0|0,3:0|3:0,3:0:0:0:
464,237,89565,5,12,0:0:0:0:
288,369,89703,2,0,P|282:311|308:255,1,113.999996520996,0|0,3:0|3:0,0:0:0:0:
340,243,89909,1,0,3:0:0:0:
379,244,89977,1,8,0:0:0:0:
172,250,90114,6,0,P|189:183|116:114,1,170.999994781494,4|0,0:0|2:0,0:0:0:0:
42,127,90388,1,2,3:2:0:0:
169,344,90525,1,2,2:0:0:0:
326,145,90662,1,0,3:0:0:0:
444,341,90799,1,8,0:0:0:0:
412,335,90867,1,0,0:0:0:0:
379,328,90936,1,8,0:0:0:0:
348,322,91004,1,0,0:0:0:0:
315,315,91073,1,8,0:0:0:0:
284,308,91141,1,8,0:0:0:0:
251,302,91210,6,0,B|231:234|231:234|253:188|253:188|238:122,1,190,4|0,0:0|3:0,0:0:0:0:
139,91,91552,1,0,3:0:0:0:
139,91,91621,2,0,L|169:200,1,95,8|0,0:0|2:0,0:0:0:0:
380,249,91895,1,2,3:2:0:0:
348,19,92032,2,0,L|324:133,1,95,2|8,3:2|0:0,0:0:0:0:
286,330,92306,1,0,3:0:0:0:
85,240,92443,6,0,P|124:216|199:213,1,95,2|0,2:0|3:0,0:0:0:0:
391,281,92716,1,8,0:0:0:0:
192,116,92854,2,0,P|237:142|266:190,1,95,2|0,3:2|3:0,0:0:0:0:
267,210,93059,1,0,3:0:0:0:
263,242,93128,1,0,3:0:0:0:
97,120,93265,2,0,L|108:9,1,95,10|0,0:2|3:0,0:0:0:0:
403,156,93539,6,0,B|393:253,1,95,2|0,2:0|3:0,0:0:0:0:
318,83,93812,1,8,0:0:0:0:
497,223,93949,1,2,2:0:0:0:
414,32,94086,1,2,3:2:0:0:
219,126,94224,1,0,3:0:0:0:
219,126,94292,1,0,3:0:0:0:
219,126,94361,2,0,B|241:168|241:168|297:190,1,95,8|0,0:0|3:0,0:0:0:0:
499,98,94634,5,2,2:0:0:0:
393,250,94771,1,0,3:0:0:0:
393,250,94840,1,0,3:0:0:0:
393,250,94909,2,0,B|404:149,1,95,8|0,0:0|2:0,0:0:0:0:
173,320,95182,2,0,L|168:370,1,47.5,2|0,3:1|3:0,3:0:0:0:
283,283,95319,1,0,3:0:0:0:
80,240,95456,1,8,0:0:0:0:
290,150,95593,1,2,2:1:0:0:
36,103,95730,6,2,B|63:120|63:120|101:112|101:112|134:129|173:118,1,142.5,4|0,0:0|2:0,0:0:0:0:
238,15,96004,2,0,P|196:27|142:36,1,95,8|0,0:0|2:0,0:0:0:0:
333,59,96278,1,0,3:0:0:0:
365,50,96347,1,0,3:0:0:0:
396,55,96415,1,2,3:1:0:0:
321,277,96552,1,10,0:0:0:0:
170,118,96689,1,2,3:1:0:0:
412,152,96826,5,12,0:0:0:0:
155,236,96963,2,0,L|219:253,1,56.9999982604981,0|0,3:0|3:0,0:0:0:0:
429,298,97100,1,0,3:0:0:0:
223,371,97237,6,2,L|240:254,1,113.999996520996,10|0,0:0|3:0,0:0:0:0:
247,218,97443,1,0,3:0:0:0:
253,178,97511,1,0,3:0:0:0:
81,295,97648,1,8,0:0:0:0:
325,329,97785,1,0,3:0:0:0:
314,93,97922,6,2,P|209:83|152:143,1,190,6|0,0:0|2:0,0:0:0:0:
380,209,98333,1,0,3:0:0:0:
164,294,98470,2,2,P|211:278|278:280,1,95,10|0,0:0|3:0,0:0:0:0:
325,329,98676,2,0,P|350:337|388:342,1,47.5,0|0,3:0|2:0,0:0:0:0:
253,176,98881,1,0,3:0:0:0:
121,380,99018,5,8,0:0:0:0:
82,350,99086,1,0,0:0:0:0:
66,306,99154,1,0,0:0:0:0:
73,260,99223,1,0,0:0:0:0:
99,220,99291,1,8,0:0:0:0:
137,190,99360,1,0,0:0:0:0:
153,147,99428,1,8,0:0:0:0:
144,101,99497,1,0,0:0:0:0:
109,69,99566,6,0,L|53:60,1,52.2500015945435,2|0,3:2|3:0,3:0:0:0:
255,90,99703,2,0,L|294:53,1,52.2500015945435,0|0,3:0|3:0,3:0:0:0:
230,222,99840,2,0,L|245:274,1,52.2500015945435,2|0,3:2|3:0,3:0:0:0:
344,223,99977,2,0,L|363:289,1,52.2500015945435,2|0,3:2|3:0,3:0:0:0:
450,221,100114,6,0,P|461:170|479:126,1,85.4999973907472,8|0,3:0|2:0,0:0:0:0:
378,71,100388,2,0,P|416:39|458:22,1,85.4999973907472,0|0,2:0|2:0,2:0:0:0:
336,195,100662,1,0,2:0:0:0:
203,52,100799,1,0,3:0:0:0:
203,52,100867,1,0,3:0:0:0:
203,52,100936,6,0,P|151:39|88:39,1,95,12|0,0:0|3:0,0:0:0:0:
0,230,101210,1,2,3:2:0:0:
141,134,101347,1,0,3:0:0:0:
243,278,101484,2,0,L|91:248,1,142.5,8|0,0:0|2:0,0:0:0:0:
72,244,101758,2,0,P|84:294|91:348,1,95,0|0,3:0|3:0,3:0:0:0:
247,168,102032,2,0,P|291:73|319:32,1,142.5,8|0,0:0|2:0,0:0:0:0:
416,10,102306,6,0,B|386:47|386:47|334:56,1,95,2|0,0:2|2:0,0:0:0:0:
158,41,102580,1,8,0:0:0:0:
390,143,102717,2,0,P|437:130|490:122,1,95,2|0,2:0|3:0,0:0:0:0:
334,268,102991,1,0,3:0:0:0:
120,187,103128,1,8,0:0:0:0:
260,7,103265,6,0,B|238:37|238:37|226:109|264:185,1,190,2|0,3:2|3:0,0:0:0:0:
81,294,103676,2,0,P|107:239|134:196,1,95,10|0,0:2|2:0,0:0:0:0:
115,28,103950,1,2,3:2:0:0:
6,203,104087,1,0,3:0:0:0:
189,297,104224,2,0,P|246:284|295:268,1,95,8|0,0:0|2:0,0:0:0:0:
421,97,104498,6,0,P|360:82|282:45,1,142.5,4|0,0:0|2:0,0:0:0:0:
263,31,104772,2,0,L|274:134,1,95,8|2,0:0|2:0,0:0:0:0:
393,309,105046,1,0,3:0:0:0:
213,202,105183,1,0,3:0:0:0:
416,211,105320,1,8,0:0:0:0:
224,300,105456,6,0,B|159:291|159:291|126:249|126:249|55:239,1,190,0|0,3:0|3:0,0:0:0:0:
213,202,105867,2,0,P|268:193|318:176,1,95,8|0,0:0|2:0,0:0:0:0:
128,139,106141,1,2,3:2:0:0:
251,301,106278,1,0,3:0:0:0:
409,201,106415,2,0,B|415:151|415:151|385:103,1,95,8|0,0:0|2:0,0:0:0:0:
196,51,106689,6,0,L|307:64,1,95,2|0,0:2|2:0,0:0:0:0:
109,144,106963,1,8,0:0:0:0:
330,171,107100,2,0,L|219:188,1,95,2|0,2:0|3:0,0:0:0:0:
420,272,107374,1,0,3:0:0:0:
157,317,107511,2,0,L|268:333,1,95,10|0,0:2|3:0,0:0:0:0:
84,230,107785,6,0,P|83:183|108:143,1,95,2|0,2:0|3:0,0:0:0:0:
365,56,108059,2,0,P|332:124|261:111,1,142.5,8|0,0:0|2:0,0:0:0:0:
248,103,108333,1,0,3:0:0:0:
305,238,108470,1,0,3:0:0:0:
362,373,108607,2,0,L|379:275,1,95,8|0,0:0|2:0,0:0:0:0:
101,171,108881,6,0,L|84:269,1,95,4|0,0:0|2:0,0:0:0:0:
287,36,109155,2,0,P|234:59|147:77,1,142.5,8|0,0:0|2:0,0:0:0:0:
118,74,109429,1,0,3:0:0:0:
296,195,109566,1,0,3:0:0:0:
388,15,109703,1,10,0:2:0:0:
203,155,109840,6,0,P|194:210|288:294,1,190,0|0,3:0|3:0,0:0:0:0:
512,112,110251,2,0,P|469:105|414:92,1,95,8|0,0:0|2:0,0:0:0:0:
313,292,110525,1,2,3:2:0:0:
480,206,110662,1,0,3:0:0:0:
312,110,110799,2,0,P|325:42|346:-1,1,95,8|0,0:0|3:0,0:0:0:0:
381,217,111073,6,0,P|316:203|220:197,1,142.5,2|0,0:2|2:0,0:0:0:0:
210,200,111347,2,0,P|195:138|179:103,1,95,8|2,0:0|2:0,0:0:0:0:
10,51,111621,1,0,3:0:0:0:
119,183,111758,1,0,3:0:0:0:
5,292,111895,1,8,0:0:0:0:
92,95,112032,1,0,3:0:0:0:
189,296,112169,6,0,L|81:269,1,95,2|0,2:0|3:0,0:0:0:0:
247,205,112443,1,8,0:0:0:0:
383,313,112580,2,0,L|288:342,1,95,2|0,2:0|3:0,0:0:0:0:
456,199,112854,1,0,3:0:0:0:
331,46,112991,2,0,P|336:103|354:150,1,95,8|0,0:0|3:0,0:0:0:0:
348,138,113196,1,0,0:0:0:0:
348,138,113265,5,4,0:0:0:0:
429,73,113402,1,0,3:0:0:0:
246,108,113539,5,8,0:0:0:0:
446,175,113676,1,0,3:0:0:0:
220,254,113813,5,10,0:2:0:0:
331,46,113950,1,0,3:0:0:0:
84,19,114087,2,0,L|101:132,1,104.500003189087,10|0,0:2|3:0,0:0:0:0:
105,158,114292,1,0,3:0:0:0:
111,194,114361,5,10,0:2:0:0:
311,145,114498,1,0,3:0:0:0:
180,63,114635,5,8,0:0:0:0:
319,248,114772,1,0,3:0:0:0:
451,53,114909,5,10,0:2:0:0:
226,206,115046,1,0,3:0:0:0:
455,306,115183,5,8,0:0:0:0:
331,46,115320,1,0,3:0:0:0:
128,259,115456,6,0,P|182:262|240:239,1,113.999996520996,10|0,0:2|3:0,0:0:0:0:
262,209,115662,1,0,3:0:0:0:
266,169,115730,1,0,3:0:0:0:
266,169,116004,6,0,P|297:175|336:178,1,56.9999982604981,0|0,3:0|3:0,3:0:0:0:
404,274,116141,2,0,P|432:266|470:259,1,56.9999982604981,0|8,3:0|3:0,3:0:0:0:
394,110,116278,1,8,3:0:0:0:
337,347,116415,1,4,3:0:0:0:
337,347,117100,5,2,2:0:0:0:
241,249,117237,2,0,B|203:221|153:214|153:214|198:189|212:144,1,190,2|2,2:0|2:0,2:0:0:0:
394,204,117648,6,0,P|348:192|298:174,1,95,4|0,0:0|3:0,0:0:0:0:
117,59,117922,2,0,P|173:26|266:25,1,142.5,8|0,0:0|2:0,0:0:0:0:
280,33,118196,1,0,3:0:0:0:
412,223,118333,1,0,3:0:0:0:
212,143,118470,1,8,0:0:0:0:
391,13,118607,6,0,B|396:61|396:61|364:104,1,95,2|0,2:0|3:0,0:0:0:0:
238,256,118881,1,0,2:0:0:0:
428,348,119018,2,0,P|407:278|357:212,1,142.5,8|0,0:0|2:0,0:0:0:0:
341,209,119292,1,2,3:2:0:0:
200,356,119429,1,0,3:0:0:0:
67,205,119566,2,0,P|71:155|93:100,1,95,8|0,0:0|2:0,0:0:0:0:
293,61,119840,6,0,L|193:85,1,95,2|0,3:2|2:0,0:0:0:0:
371,127,120114,1,8,0:0:0:0:
174,200,120251,1,2,2:0:0:0:
309,302,120388,2,0,L|292:202,1,95,0|0,3:0|3:0,0:0:0:0:
202,367,120662,1,8,0:0:0:0:
415,237,120799,1,2,2:0:0:0:
187,90,120936,6,0,P|145:128|186:204,1,142.5,2|0,3:2|2:0,0:0:0:0:
202,206,121210,2,0,L|105:223,1,95,8|0,0:0|2:0,0:0:0:0:
250,296,121484,1,0,3:0:0:0:
216,85,121621,1,2,3:2:0:0:
32,176,121758,2,0,B|14:221|14:221|30:266,1,95,8|0,0:0|2:0,0:0:0:0:
339,347,122032,6,0,B|358:304|358:304|345:254,1,95,4|0,0:0|2:0,0:0:0:0:
188,48,122306,2,0,B|206:88|206:88|183:195,1,142.5,8|0,0:0|2:0,0:0:0:0:
179,213,122580,1,0,3:0:0:0:
303,76,122717,1,0,3:0:0:0:
102,105,122854,1,8,0:0:0:0:
262,271,122991,6,0,L|284:171,1,95,2|0,2:0|3:0,0:0:0:0:
166,318,123265,1,2,2:0:0:0:
13,214,123402,2,0,P|74:223|124:242,1,95,8|0,0:0|2:0,0:0:0:0:
253,375,123676,1,2,3:2:0:0:
132,133,123813,1,0,3:0:0:0:
400,167,123950,2,0,P|342:207|273:223,1,142.5,8|0,0:0|2:0,0:0:0:0:
241,221,124224,5,2,3:2:0:0:
437,287,124361,1,0,2:0:0:0:
290,97,124498,1,8,0:0:0:0:
505,20,124635,2,0,L|495:123,1,95,2|0,2:0|3:0,0:0:0:0:
492,147,124840,1,0,3:0:0:0:
489,180,124909,1,0,3:0:0:0:
320,317,125046,1,8,0:0:0:0:
381,158,125183,6,2,B|386:219|386:219|423:272|423:272|430:335,1,190,4|2,0:0|3:1,0:0:0:0:
216,223,125594,2,0,B|185:157|185:157|212:90,1,142.5,10|0,0:0|2:0,0:0:0:0:
224,61,125868,1,8,0:0:0:0:
28,186,126005,1,8,0:0:0:0:
30,204,126073,1,0,0:0:0:0:
33,222,126141,1,8,0:0:0:0:
36,240,126210,1,0,0:0:0:0:
39,258,126278,1,8,0:0:0:0:
42,276,126347,1,0,0:0:0:0:
44,293,126416,6,0,B|85:298|111:325|111:325|143:304|143:304|174:333|216:330,1,190,4|0,0:0|2:0,0:0:0:0:
401,251,126827,1,0,3:0:0:0:
401,251,126895,1,0,3:0:0:0:
401,251,126964,2,0,P|351:270|299:283,1,95,8|0,0:0|3:0,0:0:0:0:
115,194,127238,1,2,2:0:0:0:
289,23,127375,6,0,P|357:88|321:170,1,190,2|0,3:2|3:0,0:0:0:0:
244,187,127717,1,0,3:0:0:0:
244,187,127785,2,0,P|193:177|134:176,1,95,8|0,0:0|3:0,0:0:0:0:
310,280,128059,1,0,3:0:0:0:
467,157,128196,1,2,3:2:0:0:
467,157,128265,1,0,3:0:0:0:
467,157,128333,2,0,P|478:107|488:44,1,95,8|0,0:0|2:0,0:0:0:0:
193,271,128607,6,0,P|172:208|160:119,1,142.5,2|0,3:2|2:0,0:0:0:0:
199,45,128881,1,0,3:0:0:0:
237,21,128973,2,0,L|322:35,1,63.3333333333333,0|0,3:0|3:0,0:0:0:0:
387,156,129155,1,8,3:1:0:0:
342,196,129247,2,0,L|263:184,1,69.6666687927247,0|0,3:0|3:0,0:0:0:0:
120,297,129429,1,8,3:1:0:0:
178,347,129521,2,0,L|276:332,1,75.9999976806641,0|0,3:0|3:0,0:0:0:0:
472,302,129703,6,0,B|433:276|433:276|385:284,1,95,2|0,3:2|3:0,0:0:0:0:
371,314,129909,1,0,3:0:0:0:
357,344,129977,1,8,0:0:0:0:
342,196,130114,1,0,3:0:0:0:
307,191,130183,1,0,3:0:0:0:
273,185,130251,1,8,0:0:0:0:
421,133,130388,1,0,3:0:0:0:
413,95,130457,1,0,3:0:0:0:
403,58,130525,2,0,L|343:46,1,47.5,8|0,0:0|0:0,0:0:0:0:
193,24,130662,1,8,0:0:0:0:
273,185,130799,6,0,L|262:131,2,47.5,4|0|0,0:0|3:0|3:0,0:0:0:0:
143,276,131073,2,0,L|164:177,1,95,8|0,0:0|3:0,0:0:0:0:
123,114,131279,1,0,3:0:0:0:
123,114,131347,2,0,B|81:92|81:92|26:96,1,95,8|0,0:0|3:0,0:0:0:0:
44,287,131621,1,8,0:0:0:0:
247,265,131758,1,0,3:0:0:0:
247,265,131827,1,0,3:0:0:0:
247,265,131895,6,0,L|346:250,1,95,8|0,0:0|3:0,0:0:0:0:
216,356,132169,1,8,0:0:0:0:
279,173,132306,1,0,3:0:0:0:
285,155,132375,1,0,3:0:0:0:
292,137,132443,1,8,0:0:0:0:
436,234,132580,1,0,3:0:0:0:
306,345,132717,1,8,0:0:0:0:
149,243,132854,1,0,3:0:0:0:
149,243,132922,1,0,3:0:0:0:
149,243,132991,6,0,P|135:198|138:140,1,95,8|0,0:0|3:0,0:0:0:0:
387,29,133265,1,8,0:0:0:0:
399,49,133333,1,0,3:0:0:0:
406,72,133402,1,0,3:0:0:0:
407,96,133470,1,0,3:0:0:0:
403,120,133539,1,8,0:0:0:0:
394,142,133607,1,0,3:0:0:0:
380,162,133676,1,0,3:0:0:0:
361,177,133744,1,0,3:0:0:0:
348,198,133813,1,8,0:0:0:0:
341,221,133881,1,0,3:0:0:0:
340,245,133950,1,0,3:0:0:0:
346,268,134018,1,0,3:0:0:0:
359,288,134087,6,0,L|408:324,1,47.5,8|0,0:0|3:0,0:0:0:0:
479,214,134224,2,0,L|426:238,1,47.5,8|0,3:0|3:0,3:0:0:0:
257,312,134361,1,8,3:0:0:0:
486,373,134498,1,8,3:0:0:0:
404,134,134635,1,0,0:0:0:0:
393,102,134703,1,8,0:0:0:0:
381,70,134772,6,0,L|362:15,1,47.5,8|0,3:0|3:0,3:0:0:0:
249,88,134909,2,0,L|215:55,1,47.5,8|0,3:0|3:0,3:0:0:0:
147,168,135046,2,0,L|85:156,1,47.5,0|0,3:0|3:0,3:0:0:0:
269,218,135183,5,12,0:0:0:0:
281,250,135251,1,0,3:0:0:0:
285,284,135320,1,10,0:2:0:0:
168,172,135457,1,2,2:0:0:0:
415,164,135594,2,2,P|391:264|390:326,1,149.624995433808,2|0,2:1|2:0,0:0:0:0:
467,354,135868,2,0,P|443:341|415:328,1,49.8749984779358,8|0,3:0|3:0,3:0:0:0:
278,317,136004,2,0,P|255:327|219:341,1,49.8749984779358,8|0,3:0|3:0,3:0:0:0:
131,205,136141,6,2,P|180:209|220:238,1,99.7499969558717,12|0,0:0|3:0,0:0:0:0:
143,341,136347,1,0,3:0:0:0:
143,341,136415,2,2,L|156:267,1,49.8749984779358,2|0,3:1|3:0,3:0:0:0:
193,45,136552,1,10,0:0:0:0:
278,317,136689,1,0,3:0:0:0:
361,91,136826,6,0,L|309:86,2,52.2500015945435,8|0|0,0:0|3:0|3:0,0:0:0:0:
256,192,137032,2,0,L|183:184,2,52.2500015945435,8|0|0,0:0|3:0|3:0,0:0:0:0:
152,292,137237,2,0,L|82:283,1,52.2500015945435,8|0,0:0|3:0,0:0:0:0:
79,139,137374,6,0,L|247:155,1,156.750004783631,4|0,0:0|2:0,0:0:0:0:
316,109,137648,2,0,B|337:61|337:61|322:12,1,104.500003189087,8|0,0:0|2:0,0:0:0:0:
383,177,137921,1,0,3:0:0:0:
371,211,137990,1,0,3:0:0:0:
385,244,138058,1,0,3:0:0:0:
452,103,138195,1,8,0:0:0:0:
282,265,138333,6,0,P|232:273|160:148,1,209.000006378174,2|0,0:2|3:0,0:0:0:0:
478,213,138744,2,0,P|467:258|457:321,1,104.500003189087,8|0,0:0|3:0,0:0:0:0:
258,105,139018,2,0,P|250:48|234:-6,1,104.500003189087,2|0,3:2|3:0,0:0:0:0:
60,267,139292,2,0,P|66:324|80:375,1,104.500003189087,8|0,0:0|2:0,0:0:0:0:
365,230,139566,6,0,B|345:213|335:191|335:191|294:225|233:219,1,156.750004783631,2|0,0:2|2:0,0:0:0:0:
165,182,139840,1,8,0:0:0:0:
465,48,139977,2,0,P|454:95|449:168,1,104.500003189087,2|0,2:0|3:0,0:0:0:0:
455,187,140183,1,0,3:0:0:0:
466,221,140251,1,0,3:0:0:0:
482,253,140320,1,0,3:0:0:0:
504,281,140388,1,8,0:0:0:0:
352,87,140525,6,0,B|254:34|253:128|153:77,1,209.000006378174,2|0,0:2|3:0,0:0:0:0:
85,134,140868,1,0,3:0:0:0:
85,134,140936,2,0,P|65:81|77:29,1,104.500003189087,8|0,0:0|3:0,0:0:0:0:
298,157,141210,1,8,0:0:0:0:
101,295,141347,1,0,3:0:0:0:
152,76,141484,1,8,0:0:0:0:
295,270,141621,1,0,3:0:0:0:
402,55,141758,6,0,L|345:85,1,52.2500015945435,4|0,0:0|3:0,0:0:0:0:
199,160,141895,1,0,3:0:0:0:
440,245,142032,1,8,0:0:0:0:
212,354,142169,2,0,B|185:312|185:312|201:244,1,104.500003189087,2|0,3:2|3:0,0:0:0:0:
197,258,142375,1,0,3:0:0:0:
197,258,142443,1,0,3:0:0:0:
338,351,142580,1,8,0:0:0:0:
383,160,142717,1,2,3:2:0:0:
236,58,142854,6,0,P|249:108|257:173,1,104.500003189087,2|0,0:2|3:0,0:0:0:0:
50,247,143128,2,0,B|98:225|98:225|200:259,1,156.750004783631,8|0,0:0|2:0,0:0:0:0:
298,251,143402,2,0,P|288:297|279:366,1,104.500003189087,0|0,3:0|2:0,0:0:0:0:
393,238,143676,1,8,0:0:0:0:
227,157,143813,1,0,2:0:0:0:
405,89,143950,5,2,0:2:0:0:
298,251,144087,1,0,2:0:0:0:
155,63,144224,1,8,0:0:0:0:
46,268,144361,1,2,2:0:0:0:
227,157,144498,1,0,3:0:0:0:
258,138,144566,1,0,3:0:0:0:
289,119,144635,1,0,3:0:0:0:
105,166,144772,1,8,0:0:0:0:
298,251,144909,6,0,L|454:320,1,156.750004783631,2|0,0:2|2:0,0:0:0:0:
503,205,145182,2,0,L|449:226,1,52.2500015945435,0|0,3:0|3:0,3:0:0:0:
472,114,145319,1,8,0:0:0:0:
474,99,145387,1,0,3:0:0:0:
476,84,145456,1,0,3:0:0:0:
478,69,145524,1,0,3:0:0:0:
480,54,145593,6,0,L|418:72,1,52.2500015945435,8|0,0:0|3:0,0:0:0:0:
340,17,145730,2,0,L|324:81,1,52.2500015945435,8|0,3:0|3:0,3:0:0:0:
236,174,145867,2,0,L|253:106,1,52.2500015945435,8|0,0:0|3:0,0:0:0:0:
100,141,146004,2,0,L|167:117,1,52.2500015945435,8|0,3:0|3:0,3:0:0:0:
58,55,146141,6,0,P|62:127|45:216,1,156.750004783631,4|0,0:0|2:0,0:0:0:0:
15,282,146415,1,8,0:0:0:0:
219,363,146552,1,2,2:0:0:0:
143,217,146689,1,0,3:0:0:0:
140,253,146757,1,0,3:0:0:0:
147,289,146826,1,2,3:2:0:0:
362,230,146963,1,8,0:0:0:0:
243,45,147101,6,0,B|233:113|233:113|260:170|260:170|249:248,1,209.000006378174,2|0,0:2|3:0,0:0:0:0:
442,95,147512,2,0,L|333:103,1,104.500003189087,8|0,0:0|2:0,0:0:0:0:
52,177,147785,2,0,L|157:191,1,104.500003189087,2|0,3:2|2:0,0:0:0:0:
397,220,148059,1,8,0:0:0:0:
163,80,148196,1,2,2:0:0:0:
247,287,148333,6,0,B|277:243|277:243|265:126,1,156.750004783631,2|0,0:2|2:0,0:0:0:0:
257,59,148607,1,8,0:0:0:0:
56,154,148744,2,0,B|74:262,1,104.500003189087,2|0,2:0|3:0,0:0:0:0:
89,290,148950,1,0,3:0:0:0:
115,314,149018,2,0,P|137:322|171:329,1,52.2500015945435,0|0,3:0|3:0,3:0:0:0:
168,227,149155,1,8,0:0:0:0:
24,374,149292,1,0,3:0:0:0:
255,286,149429,6,0,P|270:242|262:176,1,104.500003189087,2|0,2:0|3:0,0:0:0:0:
208,123,149635,1,0,3:0:0:0:
208,123,149703,2,0,L|146:112,1,52.2500015945435,8|0,0:0|3:0,0:0:0:0:
252,46,149840,2,0,L|180:34,1,52.2500015945435,0|0,3:0|3:0,3:0:0:0:
328,79,149977,2,0,L|395:68,1,52.2500015945435,8|0,0:0|3:0,3:0:0:0:
370,157,150114,2,0,L|445:145,1,52.2500015945435,0|0,3:0|3:0,3:0:0:0:
333,235,150251,1,8,0:0:0:0:
298,221,150320,1,0,3:0:0:0:
261,219,150388,1,0,3:0:0:0:
226,231,150457,1,0,3:0:0:0:
199,255,150525,5,12,0:0:0:0:
392,326,150662,1,0,3:0:0:0:
270,123,150799,1,8,0:0:0:0:
280,325,150936,1,0,3:0:0:0:
421,148,151073,1,8,0:0:0:0:
227,30,151210,5,0,3:0:0:0:
88,210,151347,2,0,P|79:240|75:266,1,52.2500015945435,8|0,3:0|3:0,3:0:0:0:
182,260,151484,2,0,P|187:237|196:197,1,52.2500015945435,8|0,3:0|3:0,3:0:0:0:
154,70,151621,5,8,0:0:0:0:
144,35,151690,1,8,0:0:0:0:
116,12,151758,2,0,P|91:15|59:23,1,52.2500015945435,0|0,3:0|3:0,3:0:0:0:
17,133,151895,2,0,P|48:127|89:113,1,52.2500015945435,8|0,3:0|3:0,3:0:0:0:
259,30,152032,5,8,0:0:0:0:
293,48,152101,1,8,0:0:0:0:
317,77,152169,2,0,P|325:105|333:145,1,56.9999982604981,8|0,3:0|3:0,3:0:0:0:
239,227,152306,2,0,P|229:197|222:159,1,56.9999982604981,8|0,3:0|3:0,3:0:0:0:
433,105,152443,1,8,0:0:0:0:
437,151,152512,1,8,0:0:0:0:
418,192,152580,1,8,0:0:0:0:
137,222,152717,6,0,B|115:163|61:134|61:134|107:115|124:73,2,209.000006378174,4|8|2,0:0|0:0|3:2,0:0:0:0:
138,258,153333,1,0,3:0:0:0:
127,293,153402,1,0,3:0:0:0:
208,138,153539,1,8,0:0:0:0:
426,210,153676,6,0,P|329:182|243:253,1,209.000006378174,4|0,1:1|3:0,0:0:0:0:
451,333,154087,2,0,P|399:307|342:304,1,104.500003189087,8|0,0:0|3:0,0:0:0:0:
318,315,154292,1,0,3:0:0:0:
291,341,154361,1,8,0:0:0:0:
164,179,154498,1,0,3:0:0:0:
145,210,154566,1,0,3:0:0:0:
143,246,154635,1,8,0:0:0:0:
278,149,154772,6,0,B|239:163|239:163|159:141|142:56,1,190,4|0,0:0|3:0,0:0:0:0:
375,97,155183,2,0,P|389:154|351:232,1,142.5,8|0,0:0|2:0,0:0:0:0:
326,245,155456,1,0,3:0:0:0:
143,246,155593,1,0,3:0:0:0:
278,149,155730,1,8,0:0:0:0:
204,329,155867,6,0,L|165:133,1,190,2|0,3:2|3:0,0:0:0:0:
286,28,156278,1,8,0:0:0:0:
264,124,156415,1,2,2:0:0:0:
394,80,156552,1,0,3:0:0:0:
304,213,156689,1,0,3:0:0:0:
487,185,156826,1,8,0:2:0:0:
306,313,156963,6,0,B|280:302|250:299|250:299|215:254|215:254|184:272|141:275,1,190,2|0,3:2|3:0,0:0:0:0:
110,267,157306,1,0,3:0:0:0:
83,247,157374,1,8,3:0:0:0:
205,141,157511,1,0,3:0:0:0:
182,165,157580,1,0,3:0:0:0:
151,179,157648,1,8,3:0:0:0:
120,19,157785,1,0,3:0:0:0:
129,51,157854,1,0,3:0:0:0:
126,85,157922,1,8,3:0:0:0:
15,224,158059,6,0,B|-13:199|-13:199|-25:115|40:60,1,190,4|0,3:1|3:0,0:0:0:0:
186,191,158470,1,8,0:0:0:0:
17,323,158607,1,8,3:0:0:0:
90,156,158744,1,0,3:0:0:0:
207,299,158881,2,0,P|140:274|98:274,1,95,2|8,2:0|0:0,0:0:0:0:
262,112,159155,6,0,P|330:147|455:144,1,190,4|0,0:0|3:0,0:0:0:0:
191,18,159566,2,0,P|156:87|105:145,1,142.5,8|0,0:0|2:0,0:0:0:0:
39,173,159840,2,0,P|65:165|98:160,1,47.5,0|0,3:0|3:0,3:0:0:0:
228,206,159977,1,0,3:0:0:0:
39,71,160114,1,8,0:0:0:0:
271,84,160251,6,0,P|365:67|435:7,1,190,4|0,0:0|3:0,0:0:0:0:
452,237,160662,2,0,P|433:177|428:122,1,95,8|0,0:0|2:0,0:0:0:0:
272,300,160936,1,2,3:2:0:0:
461,328,161073,1,0,3:0:0:0:
292,179,161210,2,0,P|273:239|268:294,1,95,8|0,0:0|2:0,0:0:0:0:
394,128,161484,5,4,0:0:0:0:
183,194,161621,1,0,3:0:0:0:
294,22,161758,2,0,P|307:89|314:179,1,142.5,8|0,0:0|2:0,0:0:0:0:
397,208,162032,2,0,P|402:183|412:144,1,47.5,0|0,3:0|3:0,3:0:0:0:
315,256,162169,1,0,3:0:0:0:
180,73,162306,1,8,0:0:0:0:
28,265,162443,6,0,B|98:257|163:218|163:218|151:240|149:263,1,190,2|0,3:2|3:0,0:0:0:0:
341,377,162854,1,8,0:0:0:0:
233,262,162991,1,0,3:0:0:0:
387,206,163128,1,8,0:0:0:0:
405,211,163196,1,0,0:0:0:0:
423,216,163265,1,0,0:0:0:0:
441,221,163333,1,0,0:0:0:0:
459,226,163402,1,8,0:0:0:0:
443,236,163470,1,0,0:0:0:0:
427,247,163539,1,0,0:0:0:0:
411,258,163607,1,0,0:0:0:0:
395,269,163676,6,0,B|437:195|347:181|401:107,1,170.999994781494,4|0,3:1|2:0,0:0:0:0:
497,73,164087,1,2,2:0:0:0:
337,27,164224,2,0,P|266:38|252:127,1,170.999994781494,0|2,3:0|0:0,0:0:0:0:
357,299,164772,2,0,P|271:303|187:320,2,170.999994781494,0|0|2,3:0|0:0|3:2,0:0:0:0:
430,227,165456,1,0,0:0:0:0:
316,111,165593,2,0,P|319:154|332:195,1,85.4999973907472,2|0,0:0|0:0,0:0:0:0:
143,249,165867,6,0,P|158:195|162:155,2,85.4999973907472,2|0|0,3:2|0:0|0:0,0:0:0:0:
45,284,166278,1,2,0:0:0:0:
31,104,166415,2,0,P|50:154|59:196,1,85.4999973907472,0|0,3:0|0:0,0:0:0:0:
239,228,166689,2,0,P|252:153|279:55,1,170.999994781494,2|0,0:0|3:0,0:0:0:0:
415,189,167100,2,0,P|430:273|452:355,1,170.999994781494,2|0,0:0|0:0,0:0:0:0:
231,326,167511,2,0,B|190:315|190:315|150:333,1,85.4999973907472,2|0,3:2|0:0,0:0:0:0:
154,164,167785,1,2,0:0:0:0:
239,228,167922,1,0,0:0:0:0:
62,207,168059,6,0,P|59:132|125:67,1,170.999994781494,2|0,3:2|0:0,0:0:0:0:
224,89,168470,1,2,0:0:0:0:
388,32,168607,2,0,P|340:33|289:19,1,85.4999973907472,0|0,3:0|0:0,0:0:0:0:
216,187,168881,2,0,P|281:162|394:147,1,170.999994781494,2|0,0:0|3:0,0:0:0:0:
227,290,169292,2,0,P|162:265|49:250,1,170.999994781494,2|0,0:0|0:0,0:0:0:0:
97,70,169703,1,2,3:2:0:0:
130,166,169840,1,0,0:0:0:0:
253,22,169977,1,0,0:0:0:0:
220,118,170114,1,2,0:0:0:0:
345,181,170251,6,0,L|322:87,2,85.4999973907472,2|0|0,3:2|0:0|0:0,0:0:0:0:
441,218,170662,1,2,0:0:0:0:
278,287,170799,2,0,B|319:272|319:272|374:286,1,85.4999973907472,0|0,3:0|0:0,0:0:0:0:
429,115,171073,2,0,L|445:21,1,85.4999973907472,2|0,0:0|0:0,0:0:0:0:
441,218,171347,1,0,3:0:0:0:
276,134,171484,2,0,B|233:113|233:113|109:156,1,170.999994781494,2|0,0:0|0:0,0:0:0:0:
246,306,171895,2,0,L|228:208,1,85.4999973907472,2|0,3:2|0:0,0:0:0:0:
136,53,172169,1,2,0:0:0:0:
116,153,172306,1,0,0:0:0:0:
36,304,172443,6,0,L|2:127,1,170.999994781494,2|0,3:2|0:0,0:0:0:0:
122,249,172854,1,2,0:0:0:0:
220,279,172991,2,0,P|271:258|275:149,1,170.999994781494,0|2,3:0|0:0,0:0:0:0:
50,44,173539,2,0,P|137:43|232:17,2,170.999994781494,0|0|2,3:0|0:0|3:2,0:0:0:0:
3,136,174224,1,0,0:0:0:0:
140,237,174361,2,0,P|71:221|41:220,1,85.4999973907472,2|0,0:0|0:0,0:0:0:0:
228,161,174635,6,0,P|276:109|292:83,2,85.4999973907472,2|0|0,3:2|0:0|0:0,0:0:0:0:
278,356,175046,2,0,P|261:317|251:276,2,85.4999973907472,2|0|0,0:0|3:0|0:0,0:0:0:0:
424,198,175456,2,0,L|322:212,1,85.4999973907472,2|0,0:0|0:0,0:0:0:0:
482,283,175730,1,0,3:0:0:0:
479,110,175867,2,0,P|398:95|302:65,1,170.999994781494,2|0,0:0|0:0,0:0:0:0:
154,139,176278,1,2,3:2:0:0:
255,153,176415,1,0,0:0:0:0:
85,256,176552,2,0,L|179:238,1,85.4999973907472,2|0,0:0|0:0,0:0:0:0:
24,44,176826,6,0,B|86:59|86:59|116:96|116:96|176:108,1,170.999994781494,2|0,3:2|0:0,0:0:0:0:
265,59,177237,1,2,0:0:0:0:
425,116,177374,2,0,P|366:120|318:131,1,85.4999973907472,0|0,3:0|0:0,0:0:0:0:
146,201,177648,2,0,P|240:213|321:236,1,170.999994781494,2|0,0:0|3:0,0:0:0:0:
369,14,178059,2,0,P|275:26|194:49,1,170.999994781494,2|0,0:0|0:0,0:0:0:0:
491,152,178470,2,0,P|475:114|458:57,1,85.4999973907472,2|0,3:2|0:0,0:0:0:0:
423,224,178744,1,0,0:0:0:0:
438,264,178813,1,2,0:0:0:0:
436,306,178881,2,0,P|413:313|390:323,1,42.7499986953736,2|0,0:0|0:0,0:0:0:0:
211,236,179018,6,0,B|259:179|330:197|330:197|340:164|367:144,2,199.499993911743,2|0|0,3:2|0:0|0:0,0:0:0:0:
298,301,180114,1,2,0:0:0:0:
140,173,180662,1,2,0:0:0:0:
329,101,181210,1,2,0:0:0:0:
256,192,181278,12,0,183402,0:0:0:0:
144,166,198744,6,0,P|107:122|128:60,2,113.999996520996,2|0|0,3:2|0:0|0:0,0:0:0:0:
255,85,199566,1,0,3:0:0:0:
377,146,199840,2,0,P|355:244|351:332,1,170.999994781494,2|0,0:0|0:0,0:0:0:0:
436,349,200388,1,0,0:0:0:0:
274,210,200662,1,0,0:0:0:0:
439,55,200936,6,0,P|385:61|320:50,1,113.999996520996,2|0,3:2|0:0,0:0:0:0:
262,120,201347,2,0,P|205:111|149:116,1,113.999996520996,0|0,3:0|0:0,0:0:0:0:
80,57,201758,1,0,3:0:0:0:
280,215,202032,2,0,B|323:204|348:166|348:166|395:151|430:171,1,170.999994781494,2|0,0:0|0:0,0:0:0:0:
485,246,202580,1,0,0:0:0:0:
292,305,202854,1,2,0:0:0:0:
280,215,202991,1,0,0:0:0:0:
268,125,203128,6,0,L|280:4,1,113.999996520996,2|0,3:2|0:0,0:0:0:0:
175,114,203539,2,0,L|164:237,1,113.999996520996,2|0,0:0|0:0,0:0:0:0:
82,99,203950,1,0,3:0:0:0:
268,125,204224,2,0,B|325:131|325:131|378:101,1,113.999996520996,2|0,0:0|0:0,0:0:0:0:
234,39,204772,1,0,0:0:0:0:
169,230,205046,1,0,0:0:0:0:
343,210,205320,5,2,3:2:0:0:
135,147,205593,1,0,0:0:0:0:
78,218,205730,2,0,P|91:278|147:317,1,113.999996520996,0|0,3:0|0:0,0:0:0:0:
222,310,206141,2,0,P|280:296|344:289,1,113.999996520996,0|2,3:0|0:0,0:0:0:0:
365,106,206689,1,0,0:0:0:0:
506,215,206963,2,0,P|449:213|393:203,1,113.999996520996,2|0,0:0|0:0,0:0:0:0:
260,35,207511,6,0,L|248:157,2,113.999996520996,2|0|0,3:2|0:0|0:0,0:0:0:0:
143,106,208333,1,0,3:0:0:0:
199,231,208607,2,0,B|254:246|254:246|307:222,1,113.999996520996,2|0,0:0|0:0,0:0:0:0:
399,47,209155,2,0,B|358:87|358:87|352:145,1,113.999996520996,2|0,0:0|0:0,0:0:0:0:
398,224,209566,1,0,0:0:0:0:
445,302,209703,6,0,P|480:265|484:195,1,113.999996520996,2|0,3:2|0:0,0:0:0:0:
398,224,210114,2,0,P|383:175|324:136,1,113.999996520996,0|0,3:0|0:0,0:0:0:0:
308,227,210525,1,0,3:0:0:0:
391,57,210799,2,0,P|333:98|219:112,1,170.999994781494,2|0,0:0|0:0,0:0:0:0:
150,82,211347,1,0,0:0:0:0:
83,298,211621,1,2,0:0:0:0:
154,241,211758,1,0,0:0:0:0:
207,315,211895,6,0,P|265:293|326:294,2,113.999996520996,2|0|0,3:2|0:0|0:0,0:0:0:0:
321,194,212717,1,0,3:0:0:0:
394,358,212991,2,0,P|412:304|404:237,1,113.999996520996,2|0,0:0|0:0,0:0:0:0:
264,25,213539,2,0,P|246:79|254:146,1,113.999996520996,2|0,0:0|0:0,0:0:0:0:
321,194,213950,1,0,0:0:0:0:
488,103,214087,6,0,L|374:120,1,113.999996520996,2|0,3:2|0:0,0:0:0:0:
321,194,214498,2,0,L|193:176,1,113.999996520996,0|0,3:0|0:0,0:0:0:0:
167,95,214909,1,0,3:0:0:0:
252,276,215183,1,8,0:0:0:0:
313,71,215456,1,8,3:0:0:0:
109,238,215730,1,0,3:0:0:0:
407,314,216004,1,0,3:0:0:0:
233,7,216278,6,0,B|205:54|205:54|238:182,1,170.999994781494,4|0,0:0|2:0,0:0:0:0:
280,356,216825,1,8,0:0:0:0:
368,84,217099,1,0,3:0:0:0:
172,285,217373,1,8,0:0:0:0:
100,43,217647,1,8,3:0:0:0:
150,53,217716,1,0,3:0:0:0:
196,32,217784,1,0,3:0:0:0:
58,162,217921,1,8,0:0:0:0:
402,192,218195,6,0,B|342:180|342:180|296:205|296:205|233:193,1,170.999994781494,4|0,0:0|2:0,0:0:0:0:
366,296,218743,1,8,0:0:0:0:
280,88,219017,1,8,3:0:0:0:
216,189,219154,1,0,3:0:0:0:
115,124,219291,1,0,3:0:0:0:
179,23,219428,1,0,3:0:0:0:
216,189,219565,5,8,0:0:0:0:
442,64,219839,1,8,0:0:0:0:
437,322,220113,1,4,3:1:0:0:
356,233,220250,1,0,3:0:0:0:
258,302,220387,1,8,0:0:0:0:
60,210,220661,6,0,B|109:235|109:235|226:184,1,170.999994781494,4|0,0:0|2:0,0:0:0:0:
392,104,221208,1,8,0:0:0:0:
114,124,221482,1,0,3:0:0:0:
419,287,221756,1,8,0:0:0:0:
136,339,222030,1,8,3:0:0:0:
152,290,222099,1,0,3:0:0:0:
138,241,222167,1,0,3:0:0:0:
296,366,222304,1,8,0:0:0:0:
287,72,222578,6,0,P|252:134|251:236,1,170.999994781494,4|0,0:0|2:0,0:0:0:0:
390,372,223126,1,8,0:0:0:0:
131,240,223400,1,8,3:0:0:0:
89,129,223537,1,0,3:0:0:0:
279,116,223674,1,4,0:1:0:0:
250,232,223811,1,0,3:0:0:0:
179,51,223948,5,8,0:0:0:0:
408,259,224222,1,4,3:1:0:0:
115,356,224496,1,8,3:0:0:0:
141,311,224565,1,0,3:0:0:0:
135,260,224633,1,0,3:0:0:0:
96,225,224702,1,0,3:0:0:0:
45,224,224770,1,8,0:0:0:0:
330,323,225044,6,2,B|292:266|301:191|364:153|431:169|431:169|447:226|405:261,1,341.999989562989,6|8,0:0|0:0,0:0:0:0:
228,367,225865,1,0,3:0:0:0:
72,168,226139,1,0,0:0:0:0:
346,30,226413,1,8,3:0:0:0:
365,77,226482,1,0,3:0:0:0:
345,124,226550,1,0,3:0:0:0:
190,144,226687,6,2,P|145:94|169:22,1,128.249996086121,2|0,2:0|2:0,0:0:0:0:
184,7,226961,1,6,0:0:0:0:
428,190,227235,1,0,2:0:0:0:
145,285,227509,2,2,P|82:273|56:177,1,170.999994781494,10|8,0:0|3:0,0:0:0:0:
112,73,227920,1,0,3:0:0:0:
126,210,228057,1,0,3:0:0:0:
222,78,228194,1,0,3:0:0:0:
284,247,228331,1,8,0:0:0:0:
318,35,228605,5,8,0:0:0:0:
459,241,228879,2,0,L|469:304,1,42.7499986953736,6|0,3:1|2:0,0:0:0:0:
442,143,229016,1,2,3:2:0:0:
368,343,229153,2,2,P|370:278|349:216,1,128.249996086121,10|0,0:0|2:0,0:0:0:0:
330,193,229427,6,0,P|303:204|262:214,2,56.9999982604981,4|0|0,0:0|2:0|2:0,0:0:0:0:
208,155,229700,2,2,B|260:187|270:260|234:306|234:306|205:270|153:263,1,256.499992172241,2|0,2:0|2:0,1:0:0:0:
60,328,230248,6,2,B|-7:286|-20:190|26:130|26:130|63:177|119:184,1,332.499989852906,2|0,2:1|2:0,0:0:0:0:
135,182,231207,2,2,P|152:149|157:117,1,66.4999979705811,2|2,2:1|2:0,1:0:0:0:
137,41,231481,1,0,2:0:0:0:
331,41,231618,5,2,2:1:0:0:
156,120,231755,1,0,2:0:0:0:
357,126,231892,1,2,2:1:0:0:
184,110,232029,1,0,2:0:0:0:
334,212,232166,1,2,2:1:0:0:
212,111,232303,1,2,2:1:0:0:
260,262,232440,1,2,2:1:0:0:
238,124,232577,1,0,2:0:0:0:
174,240,232714,5,2,2:1:0:0:
256,144,232851,1,0,2:0:0:0:
152,196,232988,1,2,2:1:0:0:
277,187,233125,1,0,2:0:0:0:
167,151,233262,1,2,2:1:0:0:
263,233,233399,1,0,2:0:0:0:
210,129,233536,1,2,2:1:0:0:
219,254,233673,1,2,2:1:0:0:
300,97,233810,6,0,P|304:72|315:42,2,44.3333319803874,2|0|0,2:0|2:0|2:0,2:0:0:0:
369,160,234084,2,0,L|339:185,1,33.2499989852906,2|0,2:0|2:0,2:0:0:0:
345,278,234221,2,0,L|305:270,1,33.2499989852906,2|0,2:0|2:0,2:0:0:0:
188,244,234358,6,0,P|185:270|177:294,2,50.6666666666667,2|0|0,2:0|2:0|2:0,2:0:0:0:
154,169,234632,1,2,2:1:0:0:
63,295,234769,1,2,2:1:0:0:
28,130,234906,6,0,P|28:107|36:71,2,56.9999982604981,2|0|0,2:0|2:0|2:0,0:0:0:0:
157,210,235180,2,0,P|194:200|243:198,1,71.25,2|0,2:0|2:0,0:0:0:0:
292,84,235385,2,2,P|327:93|367:95,1,71.25,2|2,2:0|2:1,0:0:0:0:
424,242,235591,1,2,2:1:0:0:
424,242,235865,6,2,B|461:231|484:201|484:201|462:260|468:336,1,209.000006378174,6|2,0:0|3:2,0:0:0:0:
308,239,236276,1,10,0:2:0:0:
318,36,236413,1,2,2:0:0:0:
404,152,236550,2,0,P|375:147|339:138,1,52.2500015945435,8|0,0:0|3:2,3:2:0:0:
193,271,236687,1,2,3:2:0:0:
193,271,236961,6,0,B|186:255|173:236|173:236|248:288|331:282,1,209.000006378174,4|2,0:0|3:2,0:0:0:0:
219,122,237372,1,10,0:2:0:0:
97,303,237509,1,0,0:0:0:0:
29,138,237646,2,0,L|98:147,1,52.2500015945435,8|0,0:0|3:0,0:0:0:0:
191,78,237783,2,0,L|228:136,1,52.2500015945435,8|0,0:0|3:0,0:0:0:0:
341,163,237920,2,0,L|320:229,1,52.2500015945435,8|0,0:0|3:0,0:0:0:0:
446,144,238057,6,2,P|364:128|360:11,1,209.000006378174,4|2,0:0|3:1,0:0:0:0:
429,269,238468,2,0,P|368:293|315:323,1,104.500003189087,10|0,0:2|3:0,0:0:0:0:
55,174,238742,2,0,P|114:200|168:232,1,104.500003189087,10|0,0:2|3:0,0:0:0:0:
425,66,239016,2,0,P|373:98|320:136,1,104.500003189087,10|0,0:2|3:0,0:0:0:0:
65,34,239290,5,2,0:2:0:0:
65,34,239358,2,0,P|92:44|125:53,1,52.2500015945435,0|0,3:0|3:0,3:0:0:0:
252,36,239495,1,10,0:2:0:0:
252,36,239563,2,0,P|229:54|205:78,1,52.2500015945435,0|0,3:0|3:0,3:0:0:0:
155,197,239700,1,10,0:2:0:0:
155,197,239768,2,0,P|150:168|141:135,1,52.2500015945435,0|0,3:0|3:0,3:0:0:0:
93,254,239906,1,0,3:0:0:0:
137,280,239974,1,0,3:0:0:0:
189,275,240043,1,0,3:0:0:0:
230,243,240111,1,2,3:2:0:0:
447,132,240248,6,0,B|408:130|382:99|382:99|305:87|263:150,1,209.000006378174,4|0,0:0|3:0,0:0:0:0:
313,352,240659,2,0,P|380:330|402:248,1,156.750004783631,8|0,0:0|2:0,0:0:0:0:
348,186,240933,1,0,3:0:0:0:
170,347,241070,1,2,3:2:0:0:
115,119,241207,1,10,0:2:0:0:
317,267,241344,1,2,2:0:0:0:
403,42,241481,6,0,P|333:62|241:63,1,156.750004783631,0|0,3:0|2:0,0:0:0:0:
163,43,241755,2,0,L|143:158,1,104.500003189087,8|0,0:0|2:0,0:0:0:0:
332,358,242029,2,0,L|352:243,1,104.500003189087,2|0,3:2|3:0,0:0:0:0:
428,213,242235,1,2,2:0:0:0:
413,178,242303,1,8,0:0:0:0:
208,282,242440,1,2,3:2:0:0:
37,129,242577,5,2,3:2:0:0:
116,103,242669,2,0,L|104:185,1,69.6666687927247,0|0,2:0|2:0,2:0:0:0:
83,336,242851,1,10,0:2:0:0:
20,280,242943,2,0,L|97:249,1,69.6666687927247,2|0,2:0|2:0,2:0:0:0:
266,179,243125,1,10,0:2:0:0:
187,153,243217,2,0,L|199:235,1,69.6666687927247,0|0,2:0|2:0,2:0:0:0:
331,364,243399,1,10,0:2:0:0:
357,285,243491,2,2,L|275:297,1,69.6666687927247,2|0,2:0|2:0,2:0:0:0:
367,177,243673,5,8,3:0:0:0:
387,182,243742,1,0,3:0:0:0:
407,187,243810,1,0,3:0:0:0:
427,192,243879,1,0,3:0:0:0:
447,197,243947,2,0,L|440:122,1,52.2500015945435,2|0,3:2|3:0,0:0:0:0:
457,299,244084,1,2,3:2:0:0:
48,210,244358,1,2,3:2:0:0:
430,41,244632,6,0,B|325:94|334:6|226:60,1,209.000006378174,4|0,0:0|3:0,0:0:0:0:
297,235,245043,2,0,B|315:187|315:187|278:116,1,104.500003189087,8|0,0:0|2:0,0:0:0:0:
127,44,245317,1,2,3:2:0:0:
21,279,245454,1,0,3:0:0:0:
192,151,245591,1,10,0:2:0:0:
309,371,245728,6,0,P|378:359|378:228,1,209.000006378174,2|0,0:2|3:0,0:0:0:0:
139,264,246139,2,0,P|166:321|177:370,1,104.500003189087,8|0,0:0|2:0,0:0:0:0:
248,206,246413,1,2,3:2:0:0:
58,116,246550,1,0,3:0:0:0:
66,348,246687,1,10,0:2:0:0:
196,109,246824,6,0,B|266:98|266:98|326:129|326:129|396:120,1,209.000006378174,2|0,0:2|3:0,0:0:0:0:
248,206,247235,2,0,P|177:213|122:230,1,104.500003189087,8|0,0:0|2:0,0:0:0:0:
320,296,247509,1,2,3:2:0:0:
420,113,247646,1,0,3:0:0:0:
184,89,247783,1,10,0:2:0:0:
469,213,247920,6,0,P|451:124|446:6,1,209.000006378174,2|0,0:2|3:0,0:0:0:0:
301,153,248331,1,10,0:2:0:0:
482,241,248468,1,0,2:0:0:0:
251,341,248605,1,2,3:2:0:0:
375,233,248742,1,0,3:0:0:0:
111,157,248879,1,10,0:2:0:0:
323,50,249016,6,0,B|305:26|273:17|273:17|240:88|283:162,1,209.000006378174,2|0,0:2|3:0,0:0:0:0:
119,240,249427,1,8,0:0:0:0:
272,377,249563,2,0,P|265:318|237:262,1,104.500003189087,2|0,2:0|3:0,0:0:0:0:
82,125,249837,1,0,3:0:0:0:
156,351,249974,1,10,0:2:0:0:
384,283,250111,1,2,3:2:0:0:
310,57,250248,6,0,L|291:226,1,156.750004783631,2|0,0:2|2:0,0:0:0:0:
223,127,250522,2,0,L|392:146,1,156.750004783631,8|0,0:0|2:0,0:0:0:0:
461,153,250796,1,2,3:2:0:0:
284,295,250933,1,0,3:0:0:0:
139,114,251070,2,0,B|124:66|124:66|148:9,1,104.500003189087,8|0,0:0|2:0,0:0:0:0:
263,209,251344,6,0,P|193:236|105:295,1,156.750004783631,2|0,0:2|2:0,0:0:0:0:
19,247,251618,2,0,P|81:284|114:322,1,104.500003189087,8|0,0:0|2:0,0:0:0:0:
141,138,251892,1,0,3:0:0:0:
237,321,252029,1,0,3:0:0:0:
361,141,252166,2,0,P|312:114|274:79,1,104.500003189087,10|0,0:2|2:0,0:0:0:0:
397,251,252440,6,0,P|451:216|455:74,1,209.000006378174,2|8,0:2|0:0,0:0:0:0:
280,223,252851,1,2,2:0:0:0:
146,92,252988,2,0,P|205:110|265:119,1,104.500003189087,2|0,3:2|3:0,0:0:0:0:
293,339,253262,2,0,P|209:316|136:305,1,156.750004783631,8|0,0:0|2:0,0:0:0:0:
56,347,253536,5,12,0:0:0:0:
23,305,253605,1,0,3:0:0:0:
24,253,253673,1,0,3:0:0:0:
51,208,253742,1,0,3:0:0:0:
101,194,253810,2,0,P|126:206|165:215,1,52.2500015945435,0|0,3:0|3:0,0:0:0:0:
273,178,253947,5,8,0:0:0:0:
306,136,254016,1,0,3:0:0:0:
305,84,254084,1,0,3:0:0:0:
278,39,254153,1,0,3:0:0:0:
228,25,254221,2,0,P|202:37|164:46,1,52.2500015945435,0|0,3:0|3:0,0:0:0:0:
34,40,254358,2,0,B|116:55|81:112|160:127,1,156.750004783631,8|0,0:0|2:0,0:0:0:0:
158,237,254632,5,8,0:0:0:0:
158,237,254700,1,0,3:0:0:0:
158,237,254769,2,0,P|198:224|228:219,1,56.9999982604981,0|0,3:0|3:0,3:0:0:0:
306,123,254906,1,8,0:0:0:0:
306,123,254974,2,0,P|354:150|422:153,1,113.999996520996,0|0,3:0|2:0,0:0:0:0:
314,283,255180,6,0,B|303:257|303:257|310:223,1,61.7499971733095,8|0,0:0|3:0,0:0:0:0:
206,119,255317,2,0,B|217:93|217:93|210:59,1,61.7499971733095,8|0,0:0|3:0,0:0:0:0:
256,360,255728,1,4,3:1:0:0:
256,360,260111,5,12,0:0:0:0:
192,191,260248,1,0,3:0:0:0:
71,316,260385,2,0,B|123:327|123:327|173:299,1,104.500003189087,8|0,0:0|3:0,0:0:0:0:
332,182,260659,1,8,0:0:0:0:
108,231,260796,1,0,3:0:0:0:
355,302,260933,1,8,0:0:0:0:
311,69,261070,6,0,B|299:19|299:19|247:85|158:91,1,209.000006378174,4|0,0:0|3:0,0:0:0:0:
262,311,261481,2,0,P|241:245|237:196,1,104.500003189087,8|0,0:0|3:0,0:0:0:0:
56,9,261755,2,0,P|48:60|31:109,1,104.500003189087,8|0,0:0|3:0,0:0:0:0:
152,289,262029,1,8,0:0:0:0:
319,99,262166,1,0,3:0:0:0:
453,333,262303,6,0,B|409:311|409:311|350:331,1,104.500003189087,12|0,0:0|3:0,0:0:0:0:
166,192,262577,1,8,0:0:0:0:
354,230,262714,1,0,3:0:0:0:
122,373,262851,1,8,0:0:0:0:
336,337,262988,1,0,3:0:0:0:
72,228,263125,1,8,0:0:0:0:
339,86,263262,6,0,B|297:90|265:77|265:77|223:103|223:103|182:86|138:91,1,209.000006378174,4|0,0:0|3:0,0:0:0:0:
281,286,263673,2,0,P|290:239|286:178,1,104.500003189087,8|0,0:0|3:0,0:0:0:0:
185,351,263947,1,8,0:0:0:0:
419,170,264084,1,8,0:0:0:0:
123,190,264221,1,8,0:0:0:0:
380,336,264358,1,8,0:0:0:0:
265,77,264495,6,2,L|153:60,1,99.7499969558717,6|0,0:0|3:0,0:0:0:0:
286,182,264769,1,8,0:0:0:0:
374,56,264906,1,2,3:1:0:0:
374,56,264974,2,0,P|376:113|392:225,1,149.624995433808,0|0,3:0|3:0,0:0:0:0:
238,357,265317,2,2,P|231:299|218:245,1,99.7499969558717,10|0,0:0|3:0,0:0:0:0:
162,207,265522,1,0,3:0:0:0:
162,207,265591,6,0,L|54:236,1,99.7499969558717,0|2,3:0|3:1,0:0:0:0:
335,334,265865,2,0,L|443:305,1,99.7499969558717,8|0,0:0|3:0,0:0:0:0:
468,95,266139,1,2,3:1:0:0:
354,217,266276,1,0,3:0:0:0:
511,250,266413,1,8,0:0:0:0:
380,50,266550,1,2,3:1:0:0:
244,231,266687,6,2,P|296:213|358:206,1,99.7499969558717,6|0,0:0|3:0,0:0:0:0:
166,159,266961,1,8,0:0:0:0:
317,309,267098,2,0,P|382:301|438:177,1,199.499993911743,2|0,3:1|3:0,0:0:0:0:
325,5,267509,1,10,0:0:0:0:
499,82,267646,5,0,3:0:0:0:
499,82,267714,2,0,P|443:96|341:105,1,149.624995433808,0|2,3:0|3:1,0:0:0:0:
306,100,267988,1,0,3:0:0:0:
263,85,268057,1,8,0:0:0:0:
426,195,268194,1,0,3:0:0:0:
382,202,268262,1,0,3:0:0:0:
341,222,268331,1,10,0:0:0:0:
505,278,268468,1,2,3:1:0:0:
351,105,268605,1,8,0:0:0:0:
253,318,268742,6,2,P|338:328|464:357,1,199.499993911743,4|2,0:0|2:1,0:0:0:0:
254,133,269153,2,2,P|217:191|191:223,1,99.7499969558717,10|0,0:0|2:0,0:0:0:0:
437,220,269427,1,2,3:1:0:0:
437,220,269495,1,0,3:0:0:0:
437,220,269563,2,0,P|429:196|421:162,1,49.8749984779358,2|0,3:2|3:0,3:0:0:0:
429,66,269700,1,8,0:0:0:0:
330,222,269837,6,0,P|256:248|196:213,1,149.624995433808,2|0,0:1|2:0,0:0:0:0:
254,77,270111,2,2,B|282:118|282:118|267:165,1,99.7499969558717,2|8,3:1|0:0,0:0:0:0:
130,266,270385,1,2,2:0:0:0:
80,94,270522,1,2,3:1:0:0:
80,94,270591,1,0,3:0:0:0:
197,215,270728,1,0,3:0:0:0:
197,215,270796,1,8,0:0:0:0:
20,156,270933,6,2,L|167:114,1,149.624995433808,2|0,0:0|2:0,0:0:0:0:
245,91,271207,1,2,2:0:0:0:
412,216,271344,2,0,L|318:183,1,99.7499969558717,10|2,0:0|2:0,0:0:0:0:
73,308,271618,1,2,3:1:0:0:
73,308,271687,2,0,L|168:280,1,99.7499969558717,0|0,3:0|3:0,0:0:0:0:
243,330,271892,2,2,P|257:271|229:214,1,99.7499969558717,8|2,0:0|3:1,0:0:0:0:
87,115,272166,5,2,3:2:0:0:
277,11,272303,1,0,3:0:0:0:
277,11,272372,1,0,3:0:0:0:
277,11,272440,2,0,L|261:118,1,99.7499969558717,10|0,0:0|3:0,0:0:0:0:
378,249,272714,1,10,0:0:0:0:
455,104,272851,1,0,3:0:0:0:
414,83,272920,1,0,3:0:0:0:
369,85,272988,2,0,L|361:143,1,49.8749984779358,10|0,0:0|3:0,0:0:0:0:
261,249,273125,2,0,L|275:312,1,49.8749984779358,8|0,3:0|3:0,3:0:0:0:
461,307,273262,6,0,P|411:241|355:274,1,128.249996086121,4|0,3:1|2:0,0:0:0:0:
283,337,273536,2,0,P|351:350|394:363,1,85.4999973907472,2|8,3:2|3:0,0:0:0:0:
250,207,273810,2,0,P|188:245|121:273,1,128.249996086121,2|0,3:2|2:0,0:0:0:0:
58,280,274084,1,2,3:2:0:0:
112,82,274221,1,8,3:0:0:0:
112,82,274290,1,0,3:0:0:0:
112,82,274358,6,0,P|134:132|159:170,1,85.4999973907472,2|0,3:2|3:0,0:0:0:0:
350,151,274632,2,0,P|401:180|443:194,1,85.4999973907472,10|0,3:2|3:0,0:0:0:0:
275,69,274906,1,2,3:2:0:0:
250,207,275043,1,0,3:0:0:0:
225,345,275180,2,0,P|272:324|322:312,1,85.4999973907472,10|0,3:2|3:0,0:0:0:0:
304,315,275385,1,0,3:0:0:0:
304,315,275454,5,4,0:0:0:0:
126,198,275591,1,0,3:0:0:0:
366,240,275728,1,8,3:0:0:0:
210,40,275865,1,0,3:0:0:0:
448,195,276002,2,0,P|395:150|307:163,1,149.624995433808,8|0,0:0|2:0,0:0:0:0:
246,227,276276,6,0,B|269:202|299:193|299:193|300:137|271:95|271:95|244:115|213:123,1,228,4|0,0:0|3:0,0:0:0:0:
138,100,276755,5,0,3:0:0:0:
138,100,276824,2,0,P|164:59|210:41,1,99.7499969558717,8|8,0:0|3:0,0:0:0:0:
237,311,277098,1,8,0:0:0:0:
193,300,277166,1,8,0:0:0:0:
164,264,277235,2,0,L|154:200,1,49.8749984779358,0|0,3:0|3:0,3:0:0:0:
345,308,277372,2,0,L|383:261,1,49.8749984779358,8|0,3:0|3:0,3:0:0:0:
245,188,277509,2,0,L|235:124,1,49.8749984779358,8|0,3:0|3:0,3:0:0:0:
399,243,277646,5,14,0:0:0:0:
322,65,277783,1,0,3:0:0:0:
259,279,277920,1,0,3:0:0:0:
259,279,277988,1,0,3:0:0:0:
259,279,278057,2,2,P|189:279|157:209,1,149.624995433808,10|0,0:0|2:0,0:0:0:0:
272,141,278331,2,0,P|266:165|260:203,1,49.8749984779358,10|0,0:1|3:0,0:0:0:0:
334,334,278468,1,8,3:0:0:0:
500,188,278605,6,2,B|467:208|452:246|452:246|384:242|353:184,1,199.499993911743,14|0,0:0|3:0,0:0:0:0:
351,93,278947,1,0,3:0:0:0:
394,105,279016,1,10,0:0:0:0:
259,279,279153,1,0,3:0:0:0:
163,81,279290,1,10,0:2:0:0:
163,81,279358,2,0,L|173:13,1,49.8749984779358,0|0,3:0|3:0,3:0:0:0:
260,73,279495,1,10,0:2:0:0:
260,73,279563,2,0,L|250:141,1,49.8749984779358,0|0,3:0|3:0,3:0:0:0:
79,125,279700,2,0,L|65:59,1,49.8749984779358,10|0,0:2|3:0,0:0:0:0:
265,37,279837,5,12,0:0:0:0:
230,350,279974,1,10,3:1:0:0:
230,350,280522,2,2,B|221:320|198:303|198:303|255:327|302:303,1,163.875003125668,2|0,0:0|2:0,0:0:0:0:
192,222,280796,6,0,B|139:227|108:272|117:324|117:324|80:303|80:261,1,218.500004167557,6|0,0:0|3:0,0:0:0:0:
189,122,281207,1,10,0:2:0:0:
300,303,281344,1,0,3:0:0:0:
450,103,281481,1,10,0:2:0:0:
450,103,281550,1,0,0:0:0:0:
450,103,281618,2,0,L|473:164,1,54.6250010418892,0|0,3:0|3:0,3:0:0:0:
444,308,281755,1,8,3:0:0:0:
406,275,281824,1,0,3:0:0:0:
399,226,281892,1,0,3:0:0:0:
469,154,284221,5,2,0:0:0:0:
373,126,285317,1,2,0:0:0:0:
302,197,286413,1,2,0:0:0:0:
206,169,287372,6,0,P|178:224|232:308,1,163.875003125668,4|0,0:0|2:0,0:0:0:0:
306,307,287646,1,8,0:0:0:0:
437,162,287783,1,8,0:0:0:0:
232,60,287920,1,8,0:0:0:0:
405,264,288057,6,0,P|434:268|474:265,1,54.6250010418892,10|0,0:2|0:0,0:0:0:0:
319,134,288194,2,0,L|332:197,1,54.6250010418892,10|0,0:2|0:0,0:0:0:0:
225,305,288331,2,0,P|254:295|289:292,1,54.6250010418892,2|0,3:2|3:0,3:0:0:0:
109,242,288468,2,0,L|98:178,1,54.6250010418892,0|0,3:0|3:0,3:0:0:0:
213,22,288605,6,0,B|233:41|233:41|226:114,1,85.4999973907472,4|0,3:0|2:0,0:0:0:0:
220,178,288879,6,0,L|348:164,1,113.999996520996,12|2,0:0|2:0,2:0:0:0:
125,82,289153,1,0,3:0:0:0:
122,122,289221,1,0,3:0:0:0:
117,162,289290,1,2,3:2:0:0:
258,350,289427,1,8,0:0:0:0:
449,202,289563,6,0,B|407:207|368:190|368:190|317:220|317:220|278:202|232:204,1,227.999993041992,2|0,0:2|3:0,0:0:0:0:
343,18,289974,2,0,P|382:62|429:104,1,113.999996520996,8|0,0:0|2:0,0:0:0:0:
195,321,290248,2,0,P|160:280|110:237,1,113.999996520996,2|0,3:2|2:0,0:0:0:0:
233,51,290523,1,8,0:0:0:0:
307,299,290660,1,2,2:0:0:0:
53,165,290797,6,0,P|123:145|200:203,1,170.999994781494,2|0,0:2|2:0,0:0:0:0:
200,283,291071,1,8,0:0:0:0:
406,99,291208,2,0,P|367:133|348:198,1,113.999996520996,2|0,2:0|3:0,0:0:0:0:
356,274,291414,1,0,3:0:0:0:
356,274,291482,2,0,P|386:262|410:247,1,56.9999982604981,0|0,3:0|3:0,3:0:0:0:
276,239,291619,1,8,0:0:0:0:
474,319,291756,1,0,3:0:0:0:
250,344,291893,6,0,P|203:331|124:328,1,113.999996520996,2|0,2:0|3:0,0:0:0:0:
99,339,292099,1,0,3:0:0:0:
67,363,292167,2,0,L|43:294,1,56.9999982604981,8|0,0:0|3:0,0:0:0:0:
109,202,292304,2,0,L|133:127,1,56.9999982604981,0|0,3:0|3:0,3:0:0:0:
276,239,292441,2,0,L|299:171,1,56.9999982604981,8|0,0:0|3:0,3:0:0:0:
234,78,292578,2,0,L|214:10,1,56.9999982604981,0|0,3:0|3:0,3:0:0:0:
331,97,292715,1,8,0:0:0:0:
368,110,292784,1,0,3:0:0:0:
407,104,292852,1,0,3:0:0:0:
444,88,292921,1,0,3:0:0:0:
466,55,292989,5,12,0:0:0:0:
294,185,293126,1,0,3:0:0:0:
489,245,293263,1,8,0:0:0:0:
376,11,293400,1,0,3:0:0:0:
176,213,293537,1,8,0:0:0:0:
409,157,293674,5,0,3:0:0:0:
197,36,293810,2,0,L|189:93,1,56.9999982604981,8|0,3:0|3:0,3:0:0:0:
278,163,293947,2,0,L|289:231,1,56.9999982604981,8|0,3:0|3:0,3:0:0:0:
166,330,294084,5,8,0:0:0:0:
166,330,294153,1,8,0:0:0:0:
166,330,294221,2,0,L|234:315,1,56.9999982604981,0|0,3:0|3:0,3:0:0:0:
355,287,294358,2,0,L|429:301,1,56.9999982604981,8|0,3:0|3:0,3:0:0:0:
457,154,294495,5,8,0:0:0:0:
457,154,294564,1,8,0:0:0:0:
457,154,294632,2,0,L|391:173,1,56.9999982604981,8|0,3:0|3:0,3:0:0:0:
242,126,294769,2,0,L|184:108,1,56.9999982604981,8|0,3:0|3:0,3:0:0:0:
69,251,294906,1,8,0:0:0:0:
118,238,294975,1,8,0:0:0:0:
167,226,295043,1,8,0:0:0:0:
411,297,295180,6,0,B|368:317|368:317|305:296|300:223,1,170.999994781494,4|0,0:0|2:0,0:0:0:0:
355,121,295454,2,0,B|398:101|398:101|461:122|466:195,1,170.999994781494,8|0,0:0|2:0,0:0:0:0:
411,297,295728,6,0,P|349:281|289:272,1,118.75,4|0,3:0|0:0,0:0:0:0:
241,279,295933,1,0,0:0:0:0:
197,310,296002,1,8,0:0:0:0:
172,357,296070,1,0,0:0:0:0:
122,379,296139,1,8,0:0:0:0:
69,376,296207,1,8,0:0:0:0:
27,344,296276,6,0,B|49:266|28:182|28:182|43:222|81:249,1,246.999988693238,4|0,0:0|2:0,0:0:0:0:
342,127,296687,1,8,3:0:0:0:
287,99,296755,1,0,3:0:0:0:
226,112,296824,1,8,3:0:0:0:
433,284,296961,1,8,0:0:0:0:
211,15,297098,2,0,P|152:45|138:162,1,185.249991519928,8|0,0:0|2:0,0:0:0:0:
254,218,297372,6,0,B|275:215|296:219|296:219|255:171|222:104,1,170.999994781494,4|0,0:0|2:0,0:0:0:0:
162,248,297646,2,0,P|146:299|133:381,1,113.999996520996,8|0,0:0|2:0,0:0:0:0:
367,357,297919,1,0,3:0:0:0:
331,339,297988,1,0,3:0:0:0:
291,334,298056,1,0,3:0:0:0:
225,111,298193,1,8,0:0:0:0:
467,177,298331,6,0,B|360:149|368:259|249:216,1,227.999993041992,2|0,0:2|3:0,0:0:0:0:
89,69,298742,2,0,P|113:126|139:204,1,113.999996520996,8|0,0:0|3:0,0:0:0:0:
398,384,299016,2,0,P|413:332|438:276,1,113.999996520996,2|0,3:2|3:0,0:0:0:0:
295,119,299290,1,8,0:0:0:0:
229,358,299427,1,2,2:0:0:0:
36,202,299564,6,0,B|208:234,1,170.999994781494,2|0,0:2|2:0,0:0:0:0:
293,249,299838,1,8,0:0:0:0:
192,9,299975,2,0,B|166:61|166:61|188:121,1,113.999996520996,2|0,2:0|3:0,0:0:0:0:
219,135,300181,1,0,3:0:0:0:
258,135,300249,1,0,3:0:0:0:
295,119,300318,1,0,3:0:0:0:
315,85,300385,2,0,L|305:24,1,56.9999982604981,8|0,0:0|3:0,0:0:0:0:
393,153,300523,6,0,B|375:233|375:233|405:276|405:276|384:373,1,227.999993041992,2|0,0:2|3:0,0:0:0:0:
209,341,300866,1,0,3:0:0:0:
209,341,300934,2,0,B|265:342|265:342|319:289,1,113.999996520996,8|0,0:0|3:0,0:0:0:0:
216,213,301139,1,0,3:0:0:0:
230,250,301208,1,8,0:0:0:0:
314,55,301345,1,0,3:0:0:0:
95,163,301482,1,8,0:0:0:0:
371,231,301619,1,0,3:0:0:0:
104,319,301756,6,0,P|96:295|90:263,1,56.9999982604981,4|0,0:0|3:0,0:0:0:0:
189,121,301893,1,0,3:0:0:0:
290,352,302030,1,8,0:0:0:0:
431,166,302167,2,0,P|395:148|315:156,1,113.999996520996,2|0,3:2|3:0,0:0:0:0:
254,202,302373,1,0,3:0:0:0:
254,202,302441,1,0,3:0:0:0:
456,284,302578,1,8,0:0:0:0:
382,47,302715,1,2,3:2:0:0:
167,207,302852,6,0,P|175:260|191:332,1,113.999996520996,2|0,0:2|3:0,0:0:0:0:
198,91,303126,2,0,P|123:123|30:101,1,170.999994781494,8|0,0:0|2:0,0:0:0:0:
58,239,303400,2,0,P|114:218|172:206,1,113.999996520996,0|0,3:0|2:0,0:0:0:0:
383,323,303674,1,8,0:0:0:0:
254,169,303811,1,0,2:0:0:0:
458,268,303948,5,2,0:2:0:0:
249,290,304085,1,0,2:0:0:0:
404,90,304222,1,8,0:0:0:0:
146,62,304359,1,2,2:0:0:0:
356,204,304496,1,0,3:0:0:0:
395,201,304564,1,0,3:0:0:0:
429,180,304633,1,0,3:0:0:0:
172,159,304770,1,8,0:0:0:0:
248,358,304907,6,2,B|237:320|237:320|262:301|262:301|247:254|250:199,1,170.999994781494,2|0,0:0|2:0,0:0:0:0:
327,67,305180,2,0,P|310:95|288:119,1,56.9999982604981,0|0,3:0|3:0,3:0:0:0:
130,92,305317,1,8,0:0:0:0:
144,99,305385,1,0,3:0:0:0:
159,106,305454,1,0,3:0:0:0:
173,113,305522,1,0,3:0:0:0:
188,120,305591,6,0,L|199:46,1,56.9999982604981,8|0,0:0|3:0,0:0:0:0:
244,233,305728,2,0,L|230:298,1,56.9999982604981,8|0,3:0|3:0,3:0:0:0:
294,113,305865,2,0,L|362:102,1,56.9999982604981,8|0,0:0|3:0,0:0:0:0:
145,247,306002,2,0,L|73:260,1,56.9999982604981,8|0,3:0|3:0,3:0:0:0:
339,287,306139,6,0,B|393:303|393:303|453:280,1,113.999996520996,4|0,0:0|3:0,0:0:0:0:
294,113,306413,1,8,0:0:0:0:
222,327,306550,1,2,3:2:0:0:
173,98,306687,1,8,0:0:0:0:
339,287,306824,1,2,3:2:0:0:
385,21,306961,1,8,0:0:0:0:
127,211,307098,6,0,L|206:223,1,56.9999982604981,2|0,3:2|3:0,0:0:0:0:
371,177,307235,2,0,P|340:122|271:120,1,113.999996520996,8|0,0:0|3:0,0:0:0:0:
32,249,307509,2,0,P|63:304|132:306,1,113.999996520996,8|0,0:0|3:0,0:0:0:0:
198,308,307714,1,0,3:0:0:0:
192,347,307783,1,10,0:2:0:0:
79,132,307920,1,0,3:0:0:0:
300,31,308057,1,10,0:2:0:0:
413,246,308194,1,0,3:0:0:0:
375,232,308262,1,0,3:0:0:0:
336,219,308331,6,0,P|353:284|358:336,1,113.999996520996,2|0,0:2|3:0,0:0:0:0:
222,153,308605,1,10,0:2:0:0:
500,127,308742,2,0,L|378:99,1,113.999996520996,2|8,3:2|0:0,0:0:0:0:
107,215,309016,1,2,3:2:0:0:
413,246,309153,1,8,0:0:0:0:
137,82,309290,1,0,3:0:0:0:
251,351,309427,6,0,B|277:328|277:328|264:223,1,113.999996520996,10|0,0:2|3:0,0:0:0:0:
244,42,309700,1,8,0:0:0:0:
107,215,309837,2,0,P|136:204|169:181,1,56.9999982604981,2|0,3:2|3:0,3:0:0:0:
345,157,309974,2,0,P|380:162|413:175,1,56.9999982604981,8|0,0:0|3:0,0:0:0:0:
272,286,310111,1,0,3:0:0:0:
240,10,310248,1,8,0:0:0:0:
240,10,310522,6,0,B|182:-4|182:-4|128:28|121:98|168:138,1,227.999993041992,4|8,0:0|0:0,0:0:0:0:
356,35,310933,1,2,2:0:0:0:
303,239,311070,1,0,3:0:0:0:
474,120,311207,1,0,3:0:0:0:
434,126,311276,1,0,3:0:0:0:
394,132,311344,1,8,0:0:0:0:
209,277,311481,6,0,P|288:283|390:321,1,170.999994781494,2|0,3:2|2:0,0:0:0:0:
442,371,311755,1,0,3:0:0:0:
216,185,311892,2,0,P|171:250|87:319,1,170.999994781494,8|0,0:0|2:0,0:0:0:0:
303,239,312166,2,0,P|303:175|307:124,1,113.999996520996,2|0,3:2|3:0,0:0:0:0:
219,72,312372,1,2,3:2:0:0:
219,72,312440,2,0,P|173:103|118:129,1,113.999996520996,8|0,0:0|3:0,0:0:0:0:
452,162,312714,6,0,P|462:83|337:21,1,227.999993041992,2|8,0:2|0:0,0:0:0:0:
244,257,313125,1,0,2:0:0:0:
59,78,313262,2,0,P|119:100|176:107,1,113.999996520996,2|0,3:2|3:0,0:0:0:0:
251,83,313468,1,0,3:0:0:0:
262,45,313536,1,8,0:0:0:0:
60,222,313673,6,0,P|50:301|175:363,1,227.999993041992,2|0,0:2|3:0,0:0:0:0:
453,306,314084,2,0,P|393:284|336:277,1,113.999996520996,8|0,0:0|3:0,0:0:0:0:
261,301,314290,1,0,3:0:0:0:
250,339,314358,1,8,0:0:0:0:
310,113,314495,1,0,3:0:0:0:
317,151,314563,1,0,3:0:0:0:
325,190,314632,1,8,0:0:0:0:
190,1,314769,6,0,L|148:209,1,209.000006378174,4|0,0:0|3:0,0:0:0:0:
444,283,315180,2,0,B|409:255|409:255|295:289,1,156.750004783631,8|0,0:0|2:0,0:0:0:0:
217,312,315454,1,2,3:2:0:0:
299,143,315591,1,0,3:0:0:0:
150,29,315728,1,8,0:0:0:0:
66,197,315865,6,0,P|176:161|284:143,1,209.000006378174,2|0,0:2|3:0,0:0:0:0:
106,319,316276,2,0,P|186:344|265:356,1,156.750004783631,8|0,0:0|2:0,0:0:0:0:
342,316,316550,1,2,3:2:0:0:
184,128,316687,2,0,P|197:187|204:236,1,104.500003189087,0|8,3:0|0:0,0:0:0:0:
434,335,316961,6,0,P|467:238|418:149,1,209.000006378174,2|0,0:2|3:0,0:0:0:0:
280,87,317372,1,8,0:0:0:0:
361,231,317509,1,0,3:0:0:0:
352,11,317646,1,2,3:2:0:0:
111,147,317783,1,0,3:0:0:0:
312,111,317920,1,8,0:0:0:0:
46,68,318057,6,0,P|9:156|89:251,1,209.000006378174,2|0,0:2|3:0,0:0:0:0:
303,241,318468,2,0,P|229:217|158:246,1,156.750004783631,8|0,0:0|2:0,0:0:0:0:
110,324,318742,1,2,3:2:0:0:
150,141,318879,1,0,3:0:0:0:
235,342,319016,1,8,0:0:0:0:
281,110,319153,6,0,B|321:41|409:39|409:39|381:54|369:81,1,209.000006378174,2|0,0:2|3:0,0:0:0:0:
440,279,319563,2,0,P|436:195|463:110,1,156.750004783631,8|0,0:0|2:0,0:0:0:0:
511,48,319837,1,2,3:2:0:0:
343,213,319974,2,0,P|298:233|239:248,1,104.500003189087,0|8,3:0|0:0,0:0:0:0:
59,147,320248,6,0,B|160:188|160:97|265:140,1,209.000006378174,2|0,0:2|3:0,0:0:0:0:
79,367,320659,2,0,P|57:309|29:254,1,104.500003189087,8|0,0:0|2:0,0:0:0:0:
108,57,320933,1,2,3:2:0:0:
162,273,321070,1,0,3:0:0:0:
8,129,321207,2,0,P|90:138|171:166,1,156.750004783631,8|0,0:0|2:0,0:0:0:0:
268,112,321481,6,0,P|210:147|163:198,1,104.500003189087,4|0,0:0|2:0,0:0:0:0:
493,313,321755,2,0,P|410:303|330:276,1,156.750004783631,10|0,0:2|2:0,0:0:0:0:
277,213,322029,1,2,3:2:0:0:
439,60,322166,1,0,3:0:0:0:
453,93,322235,1,0,3:0:0:0:
453,129,322303,1,8,0:0:0:0:
216,295,322440,6,0,P|162:243|183:171,1,156.750004783631,4|0,0:0|2:0,0:0:0:0:
314,176,322714,2,0,P|288:198|271:221,1,52.2500015945435,8|0,3:0|3:0,3:0:0:0:
419,273,322851,2,0,P|395:269|357:267,1,52.2500015945435,8|0,3:0|3:0,3:0:0:0:
224,351,322988,5,8,0:0:0:0:
224,351,323057,1,8,0:0:0:0:
224,351,323125,2,0,L|215:290,1,56.9999982604981,8|0,3:0|3:0,3:0:0:0:
314,176,323262,2,0,L|321:117,1,56.9999982604981,8|0,3:0|3:0,3:0:0:0:
156,8,323399,2,0,L|144:79,1,61.7499971733095,8|0,0:0|3:0,0:0:0:0:
211,264,323536,6,0,L|243:41,1,209.000006378174,4|0,0:0|3:0,0:0:0:0:
301,296,323947,2,0,P|246:353|156:341,1,156.750004783631,8|0,0:0|2:0,0:0:0:0:
114,276,324221,1,2,3:2:0:0:
366,214,324358,2,0,P|347:204|311:192,1,52.2500015945435,0|0,3:0|3:0,0:0:0:0:
86,186,324495,1,8,0:0:0:0:
383,112,324632,6,0,P|329:158|189:174,1,209.000006378174,2|0,0:2|3:0,0:0:0:0:
379,20,325043,2,0,P|410:77|469:147,1,156.750004783631,8|0,0:0|2:0,0:0:0:0:
443,237,325317,1,2,3:2:0:0:
226,4,325454,2,0,P|257:54|279:107,1,104.500003189087,0|8,3:0|0:0,0:0:0:0:
132,336,325728,6,0,P|131:267|234:178,1,209.000006378174,4|0,0:0|3:0,0:0:0:0:
325,179,326070,1,0,3:0:0:0:
325,179,326139,2,0,P|386:219|471:195,1,156.750004783631,8|0,0:0|2:0,0:0:0:0:
405,127,326413,1,2,3:2:0:0:
309,305,326550,1,0,3:0:0:0:
276,289,326618,1,0,3:0:0:0:
239,291,326687,1,8,0:0:0:0:
455,329,326824,6,0,P|436:271|402:108,1,209.000006378174,4|0,0:2|3:0,0:0:0:0:
200,370,327235,2,0,P|210:313|216:257,1,104.500003189087,10|0,0:2|3:0,0:0:0:0:
203,176,327440,1,0,3:0:0:0:
188,142,327509,2,0,P|181:118|175:80,1,52.2500015945435,8|0,3:0|3:0,3:0:0:0:
300,226,327646,2,0,P|306:202|313:164,1,52.2500015945435,8|0,3:0|3:0,3:0:0:0:
122,254,327783,1,8,0:0:0:0:
364,337,327920,6,0,B|296:329|296:329|242:367|242:367|168:357,1,209.000006378174,4|0,0:0|3:0,0:0:0:0:
28,239,328331,1,10,0:2:0:0:
215,266,328468,1,0,3:0:0:0:
114,84,328605,1,10,0:2:0:0:
313,230,328742,1,0,3:0:0:0:
285,2,328879,1,8,0:0:0:0:
408,269,329016,1,2,3:2:0:0:
130,188,329153,6,0,B|108:139|108:139|124:90,1,104.500003189087,8|0,0:0|3:0,0:0:0:0:
471,22,329427,2,0,B|492:70|492:70|476:119,1,104.500003189087,10|0,0:2|3:0,0:0:0:0:
258,284,329700,1,10,0:2:0:0:
363,27,329837,2,0,L|388:84,1,52.2500015945435,0|8,3:0|3:0,3:0:0:0:
487,302,329974,1,10,0:2:0:0:
284,96,330111,1,0,3:0:0:0:
212,365,330248,6,0,P|273:315|363:303,1,156.750004783631,4|0,0:0|2:0,0:0:0:0:
180,269,330522,2,0,P|129:235|76:228,1,104.500003189087,10|0,0:2|2:0,0:0:0:0:
385,206,330796,1,2,3:2:0:0:
183,116,330933,1,0,3:0:0:0:
219,114,331002,1,0,3:0:0:0:
254,104,331070,1,8,0:0:0:0:
100,328,331207,6,0,B|132:314|150:287|150:287|226:288|283:336,1,209.000006378174,2|0,0:2|3:0,0:0:0:0:
443,141,331618,2,0,P|372:163|331:185,1,104.500003189087,10|0,0:2|3:0,0:0:0:0:
47,71,331892,1,8,0:0:0:0:
81,82,331961,1,0,0:0:0:0:
115,93,332029,1,0,0:0:0:0:
149,105,332098,1,0,0:0:0:0:
183,116,332166,1,8,0:0:0:0:
216,101,332235,1,0,0:0:0:0:
249,86,332303,1,0,0:0:0:0:
282,71,332372,1,0,0:0:0:0:
316,57,332440,6,0,B|267:44|234:5|234:5|243:104|328:159|328:159|274:153|243:193|243:193|208:139|142:140,1,498.750019025803,4|0,0:0|2:0,0:0:0:0:
70,201,333536,5,12,0:0:0:0:
310,238,333673,1,0,3:0:0:0:
310,238,333742,1,0,3:0:0:0:
310,238,333810,1,2,3:1:0:0:
70,201,333947,5,8,0:0:0:0:
363,177,334084,1,0,3:0:0:0:
363,177,334153,1,0,3:0:0:0:
363,177,334221,1,0,3:0:0:0:
70,201,334358,5,8,0:0:0:0:
394,102,334495,1,0,3:0:0:0:
150,243,334632,6,0,B|174:195|156:133|98:114|98:114|124:56|188:77|188:77|222:90|332:108|418:81|470:55|470:55|443:100|434:116|384:142|312:151|312:151|347:171|383:178|410:182|410:182|380:200|333:208|283:198|283:198|299:216|327:233|355:243|355:243|317:252|280:248|255:242|255:242|268:269|286:283|286:283|220:290|182:272,1,1330
70,201,336687,6,2,P|165:185|270:92,1,227.999993041992,4|2,0:0|3:1,0:0:0:0:
331,333,337098,2,0,P|304:271|274:220,1,113.999996520996,10|0,0:0|2:0,0:0:0:0:
432,20,337372,1,2,3:2:0:0:
391,238,337509,1,0,3:0:0:0:
176,89,337646,2,0,L|351:114,1,170.999994781494,10|0,0:2|2:0,0:0:0:0:
496,142,337920,6,0,P|434:174|393:202,1,113.999996520996,2|0,0:2|2:0,0:0:0:0:
137,258,338194,2,2,P|214:278|293:218,1,170.999994781494,10|0,0:0|2:0,0:0:0:0:
188,127,338468,2,0,P|192:157|206:195,1,56.9999982604981,2|0,3:1|3:0,0:0:0:0:
391,238,338605,2,0,P|385:207|371:164,1,56.9999982604981,0|0,3:0|3:0,0:0:0:0:
317,334,338742,1,10,0:0:0:0:
87,152,338879,6,2,P|131:41|233:36,1,227.999993041992,4|2,0:0|3:1,0:0:0:0:
112,270,339290,2,0,P|43:245|-11:238,1,113.999996520996,10|0,0:0|2:0,0:0:0:0:
200,182,339563,1,2,3:2:0:0:
240,180,339632,1,0,3:0:0:0:
276,165,339700,1,0,3:0:0:0:
87,152,339837,1,10,0:0:0:0:
265,318,339974,6,2,B|330:365|360:299|428:344,1,170.999994781494,6|0,0:0|2:0,0:0:0:0:
315,245,340248,1,0,3:0:0:0:
315,245,340317,1,0,3:0:0:0:
315,245,340385,2,2,P|297:189|297:123,1,113.999996520996,10|0,0:0|3:0,0:0:0:0:
479,11,340659,1,10,0:0:0:0:
480,51,340728,1,8,0:0:0:0:
461,86,340796,2,0,L|395:75,1,56.9999982604981,8|0,3:0|3:0,3:0:0:0:
211,42,340933,1,4,3:0:0:0:
416,173,341070,6,2,B|345:180|345:180|285:230|285:230|206:241,1,227.999993041992,6|0,0:0|3:0,0:0:0:0:
89,32,341481,2,0,B|60:114|60:114|106:187,1,170.999994781494,8|0,0:0|2:0,0:0:0:0:
225,107,341755,2,0,L|148:99,1,56.9999982604981,0|0,3:0|3:0,3:0:0:0:
118,287,341892,2,0,L|62:282,1,56.9999982604981,2|0,3:1|3:0,3:0:0:0:
216,221,342029,1,10,0:0:0:0:
9,120,342166,1,2,3:1:0:0:
277,18,342303,6,0,P|320:64|303:173,1,170.999994781494,0|0,3:0|2:0,0:0:0:0:
312,278,342577,2,0,P|267:243|215:220,1,113.999996520996,8|2,0:0|2:0,0:0:0:0:
430,134,342851,1,2,3:1:0:0:
423,173,342920,1,0,3:0:0:0:
425,212,342988,1,2,3:1:0:0:
225,107,343125,1,10,0:0:0:0:
479,51,343262,1,2,3:2:0:0:
401,302,343399,5,12,0:0:0:0:
326,38,343536,2,0,P|352:54|373:76,1,61.7499971733095,2|0,3:2|3:0,0:0:0:0:
144,96,343673,1,0,3:0:0:0:
448,155,343810,5,12,0:0:0:0:
245,380,343947,2,2,P|296:299|311:177,1,185.249991519928,2|0,3:1|2:0,0:0:0:0:
292,123,344221,1,10,0:2:0:0:
29,288,344358,6,2,P|89:260|156:244,1,123.499994346619,4|2,0:0|2:1,0:0:0:0:
472,330,344632,1,2,3:2:0:0:
423,355,344700,1,2,2:0:0:0:
367,358,344769,1,2,2:0:0:0:
221,187,344906,1,0,3:0:0:0:
443,64,345043,1,10,0:0:0:0:
475,108,345111,1,0,0:0:0:0:
472,163,345180,1,8,0:0:0:0:
442,209,345248,1,0,0:0:0:0:
388,223,345317,2,0,L|316:208,1,61.7499971733095,10|0,0:0|0:0,0:0:0:0:
99,95,345454,6,2,B|136:91|165:104|165:104|205:75|205:75|255:104|314:96,1,227.999993041992,6|0,0:0|3:0,0:0:0:0:
116,233,345865,2,0,P|175:261|224:297,1,113.999996520996,8|0,0:0|2:0,0:0:0:0:
422,128,346139,1,2,3:1:0:0:
454,353,346276,2,0,P|404:327|348:286,1,113.999996520996,2|8,2:0|0:0,0:0:0:0:
233,88,346550,1,0,3:0:0:0:
53,247,346687,6,2,L|182:218,1,113.999996520996,2|0,2:0|3:0,0:0:0:0:
346,56,346961,1,10,0:0:0:0:
71,12,347098,2,0,B|52:67|52:67|84:118,1,113.999996520996,2|0,3:2|3:0,0:0:0:0:
81,114,347303,1,0,3:0:0:0:
81,114,347372,1,0,3:0:0:0:
360,231,347509,1,10,0:0:0:0:
172,53,347646,5,4,3:1:0:0:
248,324,347783,2,2,L|265:207,1,113.999996520996,2|0,2:1|3:0,0:0:0:0:
347,370,348057,1,8,0:0:0:0:
156,256,348194,1,2,2:0:0:0:
363,95,348331,1,2,3:1:0:0:
137,165,348468,1,2,2:0:0:0:
450,239,348605,2,0,P|475:194|453:131,1,113.999996520996,8|0,0:0|3:0,0:0:0:0:
274,267,348879,5,2,2:0:0:0:
358,290,348970,2,0,P|357:238|338:206,1,75.9999976806641,2|0,2:0|2:0,2:0:0:0:
199,104,349153,1,10,0:2:0:0:
137,165,349244,2,0,P|182:190|219:189,1,75.9999976806641,2|0,2:0|2:0,2:0:0:0:
363,95,349427,1,2,3:2:0:0:
359,78,349495,1,0,3:0:0:0:
356,61,349563,2,0,L|287:44,1,56.9999982604981,2|0,3:2|2:0,3:0:0:0:
382,207,349700,1,10,0:0:0:0:
461,18,349837,1,2,2:1:0:0:
281,147,349974,6,0,P|277:240|283:329,1,170.999994781494,4|0,0:0|2:0,0:0:0:0:
184,226,350248,2,2,B|136:197|136:197|79:216,1,113.999996520996,8|2,0:0|2:1,0:0:0:0:
188,41,350522,1,2,3:1:0:0:
223,59,350591,1,0,3:0:0:0:
262,59,350659,1,0,3:0:0:0:
300,47,350728,1,0,3:0:0:0:
328,19,350796,1,8,0:0:0:0:
385,270,350933,1,2,3:1:0:0:
452,53,351070,5,12,0:0:0:0:
232,165,351207,2,0,L|308:176,1,61.7499971733095,0|0,3:0|3:0,0:0:0:0:
497,202,351344,1,0,3:0:0:0:
297,380,351481,6,2,P|261:348|286:266,1,123.499994346619,10|0,0:0|3:0,0:0:0:0:
385,270,351687,1,0,3:0:0:0:
366,308,351755,1,0,3:0:0:0:
190,104,351892,1,10,0:0:0:0:
423,100,352029,1,0,3:0:0:0:
404,138,352097,1,0,3:0:0:0:
379,171,352166,6,2,P|292:174|167:200,1,209.000006378174,6|0,0:0|2:0,0:0:0:0:
366,308,352577,1,0,3:0:0:0:
46,326,352714,2,2,P|151:339|256:374,1,209.000006378174,8|2,0:0|2:1,0:0:0:0:
47,193,353125,1,0,3:0:0:0:
303,64,353262,5,2,0:0:0:0:
293,114,353331,1,0,0:0:0:0:
257,151,353399,1,0,0:0:0:0:
206,159,353468,1,0,0:0:0:0:
172,198,353536,1,0,0:0:0:0:
166,249,353605,1,0,0:0:0:0:
189,294,353673,1,0,3:0:0:0:
235,316,353742,1,0,3:0:0:0:
285,309,353810,6,0,L|295:250,1,56.9999982604981,8|0,3:0|3:0,3:0:0:0:
208,65,353947,2,0,L|194:0,1,56.9999982604981,0|0,3:0|3:0,3:0:0:0:
408,156,354084,2,0,L|349:173,1,56.9999982604981,8|0,3:0|3:0,3:0:0:0:
138,136,354221,2,0,L|81:124,1,56.9999982604981,8|0,3:0|3:0,3:0:0:0:
198,214,354358,5,4,3:1:0:0:
296,16,354495,2,0,P|297:91|322:189,1,170.999994781494
288,303,354906,2,0,P|340:328|462:341,1,170.999994781494,2|0,0:0|0:0,0:0:0:0:
198,214,355317,2,0,B|109:199|126:270|37:251,1,170.999994781494,2|0,0:0|0:0,0:0:0:0:
179,304,355728,2,0,P|212:342|240:385,1,85.4999973907472,2|0,0:0|0:0,0:0:0:0:
293,211,356002,1,2,0:0:0:0:
198,214,356139,2,0,P|160:151|219:80,1,170.999994781494
382,174,356550,5,2,0:0:0:0:
214,314,356687,2,0,P|178:299|108:286,2,85.4999973907472
304,246,357098,2,0,P|353:269|468:292,1,170.999994781494,2|0,0:0|0:0,0:0:0:0:
312,354,357509,1,0,0:0:0:0:
228,177,357646,2,0,P|278:153|319:145,1,85.4999973907472,2|0,0:0|0:0,0:0:0:0:
163,255,357920,2,0,P|109:229|-4:212,1,170.999994781494,2|0,0:0|0:0,0:0:0:0:
165,20,358331,2,0,P|208:94|227:176,1,170.999994781494,2|0,0:0|0:0,0:0:0:0:
352,265,358742,5,2,0:0:0:0:
324,175,358879,1,0,0:0:0:0:
203,268,359016,1,0,0:0:0:0:
278,323,359153,1,0,0:0:0:0:
227,176,359290,2,0,B|170:178|170:178|126:211|126:211|68:214,1,170.999994781494,2|0,0:0|0:0,0:0:0:0:
191,87,359700,2,0,B|134:89|134:89|90:122|90:122|31:124,1,170.999994781494,2|0,0:0|0:0,0:0:0:0:
263,18,360111,2,0,P|284:58|287:113,1,85.4999973907472,2|0,0:0|0:0,0:0:0:0:
217,300,360385,1,2,0:0:0:0:
311,282,360522,2,0,P|259:216|153:226,1,170.999994781494
344,166,360933,5,2,0:0:0:0:
382,61,361070,1,0,0:0:0:0:
139,107,361207,1,0,0:0:0:0:
177,212,361344,1,0,0:0:0:0:
388,280,361481,2,0,B|381:248|381:248|332:235|290:263,1,128.249996086121,2|0,0:0|0:0,0:0:0:0:
242,335,361755,5,0,0:0:0:0:
270,49,361892,1,2,3:2:0:0:
