osu file format v14

[General]
AudioFilename: audio.mp3
AudioLeadIn: 0
PreviewTime: 195033
Countdown: 0
SampleSet: Soft
StackLeniency: 0.7
Mode: 0
LetterboxInBreaks: 0
WidescreenStoryboard: 1

[Editor]
DistanceSpacing: 0.2
BeatDivisor: 3
GridSize: 32
TimelineZoom: 1

[Metadata]
Title:Virgin Mary feat. Sennzai
TitleUnicode:Virgin Mary feat. Sennzai
Artist:Tokyo.MeltiMelt
ArtistUnicode:Tokyo.MeltiMelt
Creator:-Aqua
Version:Erisu's Tragic Love Insane
Source:
Tags:紅雨咲月 Saki Akau 胡桃坂庵 Iwori Kurumizaka Awakening the third Heaven Nameless Replica 3rd Single Japanese Metal Rock Tokyo Melti Melt TokyoMeltiMelt Mocaotic -Hitomi L1ght_u Light_u Erisu Lanzhu Laplus- La+
BeatmapID:3796286
BeatmapSetID:1830770

[Difficulty]
HPDrainRate:5
CircleSize:3.8
OverallDifficulty:8
ApproachRate:9
SliderMultiplier:1
SliderTickRate:0.5

[Events]
//Background and Video events
0,0,"97926118_p1.jpg",0,0
//Break Periods
//Storyboard Layer 0 (Background)
//Storyboard Layer 1 (Fail)
//Storyboard Layer 2 (Pass)
//Storyboard Layer 3 (Foreground)
//Storyboard Layer 4 (Overlay)
//Storyboard Sound Samples

[TimingPoints]
536,270.27027027027,6,2,69,40,1,0
536,-400,4,2,69,40,0,0
2157,-400,4,2,68,20,0,0
3779,-400,4,2,69,40,0,0
7022,-250,4,2,69,50,0,0
8644,-250,4,2,68,35,0,0
10265,-250,4,2,69,50,0,0
12698,-333.333333333333,4,2,1,30,0,0
12748,-333.333333333333,4,2,1,15,0,0
13373,-333.333333333333,4,2,1,5,0,0
13376,-333.333333333333,4,2,1,5,0,0
13508,-66.6666666666667,4,2,1,70,0,0
26481,-66.6666666666667,4,2,68,60,0,0
31346,-66.6666666666667,4,2,1,70,0,0
32968,-83.3333333333333,4,2,1,50,0,0
45941,-200,4,2,1,60,0,0
49184,-83.3333333333333,4,2,1,70,0,0
62157,-58.8235294117647,4,2,3,85,0,0
62292,-58.8235294117647,4,2,1,85,0,0
67833,-80,4,2,1,85,0,0
68103,-66.6666666666667,4,2,1,85,0,0
68373,-57.1428571428571,4,2,1,85,0,0
68644,-58.8235294117647,4,2,1,85,0,0
94590,-66.6666666666667,4,2,1,70,0,0
107968,-57.1428571428571,4,2,1,70,0,0
110806,-57.1428571428571,4,2,2,60,0,0
112427,270.27027027027,6,2,1,40,1,0
112427,-166.666666666667,4,2,1,40,0,0
115670,-250,4,2,1,40,0,0
118913,-303.030303030303,4,2,1,40,0,0
122156,-285.714285714286,4,2,1,40,0,0
125399,-200,4,2,1,40,0,0
128643,-200,4,2,1,40,0,0
131886,-242.130750605327,4,2,1,40,0,0
135129,-399.999999999997,4,2,1,50,0,0
137562,-100,4,2,1,50,0,0
138372,-66.6666666666667,4,2,1,60,0,0
151345,-80,4,2,1,60,0,0
161075,-62.5,4,2,1,60,0,0
164318,-74.0740740740741,4,2,1,50,0,0
169183,-66.6666666666667,4,2,1,50,0,0
170805,-74.0740740740741,4,2,1,50,0,0
174048,-74.0740740740741,4,2,1,60,0,0
177291,-83.3333333333333,4,2,1,65,0,0
183778,-74.0740740740741,4,2,1,65,0,0
195129,270.27027027027,6,2,69,40,1,0
195129,-133.333333333333,4,2,69,40,0,0
196750,-181.818181818181,4,2,69,40,0,0
197561,-133.333333333333,4,2,69,40,0,0
203237,-181.818181818181,4,2,69,40,0,0
204858,-133.333333333333,4,2,69,40,0,0
207291,-133.333333333333,4,2,68,40,0,0
208101,-133.333333333333,4,2,69,40,0,0
209723,-181.818181818181,4,2,69,40,0,0
211345,-133.333333333333,4,2,69,40,0,0
213777,-133.333333333333,4,2,68,40,0,0
214047,-133.333333333333,4,2,69,40,0,0
217020,-133.333333333333,4,2,68,40,0,0
217561,-133.333333333333,4,2,69,40,0,0
219453,-333.333333333333,4,2,69,40,0,0
220264,-333.333333333333,4,2,1,40,0,0
221074,-58.8235294117647,4,2,3,85,0,0
221210,-58.8235294117647,4,2,1,85,0,0
226750,-71.4285714285714,4,2,1,85,0,0
227020,-62.5,4,2,1,85,0,0
227291,-55.5555555555556,4,2,1,85,0,0
227561,-58.8235294117647,4,2,1,85,0,0
240534,-58.8235294117647,4,2,1,85,0,0
241074,-62.5,4,2,1,85,0,0
243777,-58.8235294117647,4,2,1,85,0,0
247020,-58.8235294117647,4,2,1,85,0,0
253507,-100,4,2,2,50,0,0
255129,-100,4,2,1,30,0,0
256750,-100,4,2,1,35,0,0
258372,-100,4,2,1,40,0,0
259183,-100,4,2,1,50,0,0
259993,-62.5,4,2,1,70,0,0
285939,-76.9230769230769,4,2,1,60,0,0
297291,-62.5,4,2,1,60,0,0
298912,-62.5,4,2,68,40,0,0
304588,-62.5,4,2,69,40,0,0
305264,-62.5,4,2,2,15,0,0

[Colours]
Combo1 : 255,255,62
Combo2 : 211,211,211
Combo3 : 255,255,168
Combo4 : 105,105,105

[HitObjects]
79,148,536,5,2,0:0:0:0:
97,128,806,1,2,0:0:0:0:
43,71,1076,5,2,0:0:0:0:
88,156,1346,1,2,0:0:0:0:
48,292,2157,6,0,L|73:298,3,25,2|2|2|2,0:0|0:0|0:0|0:0,0:0:0:0:
84,311,3779,5,2,0:0:0:0:
209,274,4319,1,2,0:0:0:0:
200,292,4860,5,2,0:0:0:0:
144,218,5130,1,2,0:0:0:0:
93,301,5400,1,2,0:0:0:0:
385,345,7022,5,2,0:0:0:0:
421,260,7292,1,2,0:0:0:0:
336,265,7562,5,2,0:0:0:0:
371,343,7832,1,2,0:0:0:0:
415,174,8644,6,0,P|436:178|457:185,3,40,2|2|2|2,0:0|0:0|0:0|0:0,0:0:0:0:
328,67,10265,1,2,0:0:0:0:
269,153,10806,5,2,0:0:0:0:
233,221,11076,1,2,0:0:0:0:
225,233,11617,5,2,0:0:0:0:
261,301,11887,1,2,0:0:0:0:
428,72,12698,6,0,L|349:57,1,74.9999977111817,2|0,1:2|0:0,0:0:0:0:
286,7,13508,6,0,P|241:52|272:162,1,150.000005722046,4|0,1:0|1:0,0:0:0:0:
252,239,13914,2,0,P|235:177|124:149,1,150.000005722046,8|0,0:0|0:0,0:0:0:0:
85,91,14319,2,0,P|45:96|8:113,1,75.000002861023,8|0,0:0|1:0,0:0:0:0:
185,61,14590,2,0,P|160:28|127:5,1,75.000002861023,8|2,0:0|0:0,0:0:0:0:
256,114,14860,2,0,P|271:76|275:36,1,75.000002861023,8|0,0:0|1:0,0:0:0:0:
391,137,15130,6,0,P|382:211|371:285,1,150.000005722046,4|0,1:0|1:0,0:0:0:0:
252,239,15536,1,0,1:0:0:0:
215,315,15671,2,0,P|177:320|140:325,1,75.000002861023,8|0,0:0|1:0,0:0:0:0:
286,365,15941,2,0,P|298:291|227:232,1,150.000005722046,4|2,1:0|1:3,0:0:0:0:
114,157,16346,1,4,3:0:0:0:
60,210,16481,2,0,L|78:297,1,75.000002861023,8|0,0:0|1:0,0:0:0:0:
129,141,16752,6,0,B|215:139|192:186|283:174,1,150.000005722046,4|0,1:0|1:0,0:0:0:0:
414,94,17157,1,8,0:0:0:0:
354,43,17292,2,0,B|330:73|330:73|342:137,1,75.000002861023,0|0,1:0|0:0,0:0:0:0:
450,253,17563,2,0,P|440:217|408:198,1,75.000002861023,8|0,0:0|1:0,0:0:0:0:
328,334,17833,2,0,P|360:351|395:342,1,75.000002861023,8|0,0:0|1:0,0:0:0:0:
305,194,18103,2,0,P|279:220|278:256,1,75.000002861023,8|0,0:0|1:0,0:0:0:0:
213,343,18373,5,0,1:0:0:0:
213,343,18508,1,8,0:0:0:0:
133,329,18644,1,0,1:0:0:0:
153,256,18779,1,0,1:0:0:0:
88,210,18914,2,0,P|48:216|8:221,1,75.000002861023,10|0,0:0|1:0,0:0:0:0:
152,132,19184,1,0,1:0:0:0:
152,132,19319,1,8,1:2:0:0:
152,132,19454,2,0,P|189:136|226:142,1,75.000002861023,0|0,1:0|1:0,0:0:0:0:
102,22,19725,1,8,0:0:0:0:
24,66,19860,1,0,1:0:0:0:
22,157,19995,6,0,P|27:185|45:322,1,150.000005722046,4|0,1:0|1:0,0:0:0:0:
172,359,20400,2,0,P|167:331|149:194,1,150.000005722046,8|0,0:0|0:0,0:0:0:0:
163,122,20806,2,0,P|199:141|241:137,1,75.000002861023,8|0,0:0|1:0,0:0:0:0:
346,20,21076,2,0,P|311:41|294:80,1,75.000002861023,8|0,0:0|1:0,0:0:0:0:
341,230,21346,2,0,P|340:193|322:161,1,75.000002861023,8|0,0:0|1:0,0:0:0:0:
207,30,21616,6,0,P|133:49|53:65,1,150.000005722046,4|0,1:0|1:0,0:0:0:0:
198,141,22022,1,0,1:0:0:0:
153,205,22157,2,0,L|164:285,1,75.000002861023,8|0,0:0|1:0,0:0:0:0:
131,360,22427,2,0,P|155:305|245:308,1,150.000005722046,8|8,0:0|3:0,0:0:0:0:
387,362,22832,1,2,3:0:0:0:
313,372,22967,2,0,P|343:367|394:362,1,75.000002861023,8|0,0:0|1:0,0:0:0:0:
352,244,23238,6,0,B|354:158|307:181|317:102,1,150.000005722046,4|0,1:0|1:0,0:0:0:0:
420,33,23644,1,8,0:0:0:0:
483,106,23779,2,0,P|448:111|398:120,1,75.000002861023,0|0,1:0|0:0,0:0:0:0:
248,15,24049,2,0,P|202:29|192:117,1,112.500004291535,8|0,0:0|0:0,0:0:0:0:
175,119,24319,2,0,P|141:112|80:101,1,75.000002861023,8|0,0:0|1:0,0:0:0:0:
49,197,24590,2,0,P|85:203|122:211,1,75.000002861023,8|0,0:0|1:0,0:0:0:0:
244,253,24860,5,0,1:0:0:0:
192,329,24995,1,8,0:0:0:0:
256,246,25130,2,0,L|246:168,1,75.000002861023,0|0,1:0|1:0,0:0:0:0:
178,341,25400,2,0,B|266:337|242:370|348:361,1,150.000005722046,8|8,0:0|0:0,0:0:0:0:
415,274,25806,1,0,1:0:0:0:
483,318,25941,1,8,3:0:0:0:
415,357,26076,1,4,3:0:0:0:
487,239,26211,2,0,L|499:160,1,75.000002861023,8|0,0:0|0:0,0:0:0:0:
451,81,26481,5,2,1:2:0:0:
256,192,26617,12,2,31346,1:2:0:0:
69,242,31617,5,8,0:0:0:0:
5,178,31752,1,0,1:0:0:0:
69,114,31887,1,8,0:0:0:0:
132,178,32022,1,0,1:0:0:0:
83,248,32427,5,8,0:0:0:0:
35,171,32562,1,0,1:0:0:0:
111,123,32697,1,8,0:0:0:0:
158,199,32832,1,0,1:0:0:0:
222,150,32968,6,0,B|309:129|284:100|391:80,1,179.999994506836,4|0,1:0|0:0,0:0:0:0:
435,12,33508,1,2,1:2:0:0:
435,12,33779,2,0,P|481:56|473:130,1,119.999996337891,10|2,0:0|1:2,0:0:0:0:
439,192,34319,2,0,P|445:222|451:266,1,59.9999981689454,2|0,0:0|1:0,0:0:0:0:
512,315,34590,6,0,B|437:321|465:346|363:355,1,119.999996337891,2|0,1:2|1:0,0:0:0:0:
257,235,35130,2,0,P|242:263|243:305,1,59.9999981689454,2|0,0:0|1:0,0:0:0:0:
320,337,35400,2,0,P|314:274|283:219,1,119.999996337891,8|0,0:0|1:0,0:0:0:0:
152,131,35941,1,2,0:0:0:0:
152,131,36211,6,0,P|161:69|173:5,2,119.999996337891,2|2|2,1:2|0:0|1:2,0:0:0:0:
73,182,37022,2,0,P|135:180|178:251,1,119.999996337891,10|0,0:0|1:0,0:0:0:0:
146,300,37563,2,0,L|66:286,1,59.9999981689454,2|2,0:0|1:2,0:0:0:0:
204,359,37833,2,0,L|336:346,1,119.999996337891,2|0,1:2|1:0,0:0:0:0:
466,240,38373,2,0,L|397:225,1,59.9999981689454,2|0,0:0|1:0,0:0:0:0:
493,158,38644,2,0,L|361:136,1,119.999996337891,8|8,0:0|3:0,0:0:0:0:
298,98,39049,1,2,3:0:0:0:
355,36,39184,2,0,P|393:34|427:25,1,59.9999981689454,8|0,3:0|0:0,0:0:0:0:
281,109,39454,6,0,P|247:136|271:275,1,179.999994506836,4|0,1:0|0:0,0:0:0:0:
318,324,39995,1,2,1:2:0:0:
318,324,40265,2,0,B|266:333|266:333|248:352|248:352|190:361,1,119.999996337891,10|2,0:0|1:2,0:0:0:0:
81,239,40806,2,0,P|100:257|106:295,1,59.9999981689454,2|0,0:0|1:0,0:0:0:0:
41,352,41076,2,0,P|25:294|61:208,1,119.999996337891,2|0,1:2|1:0,0:0:0:0:
114,49,41617,2,0,P|141:38|171:41,1,59.9999981689454,2|0,0:0|1:2,0:0:0:0:
125,135,41887,2,0,B|59:136|79:103|10:102,1,119.999996337891,10|0,0:0|1:0,0:0:0:0:
215,122,42427,2,0,P|203:153|194:209,1,59.9999981689454,2|2,0:0|0:0,0:0:0:0:
149,246,42698,5,2,1:2:0:0:
319,252,42968,1,2,0:0:0:0:
398,95,43238,2,0,P|421:113|430:141,1,59.9999981689454,2|0,1:2|0:0,0:0:0:0:
479,207,43508,2,0,P|439:193|361:184,1,119.999996337891,10|0,0:0|1:2,0:0:0:0:
297,269,44049,1,2,0:0:0:0:
339,338,44184,1,0,1:0:0:0:
410,302,44319,2,0,L|484:316,1,59.9999981689454,2|0,1:2|0:0,0:0:0:0:
282,264,44590,2,0,P|225:275|142:287,1,119.999996337891,0|2,1:0|0:0,0:0:0:0:
41,262,44995,1,0,1:0:0:0:
68,189,45130,6,0,P|100:195|128:229,1,59.9999981689454,8|0,0:0|0:0,0:0:0:0:
45,334,45400,2,0,P|34:303|49:262,1,59.9999981689454,2|8,3:0|3:0,0:0:0:0:
15,129,45671,5,4,3:0:0:0:
60,61,45806,1,0,0:0:0:0:
141,85,45941,1,6,1:0:0:0:
141,85,46752,6,0,L|136:25,2,50,2|2|2,0:0|0:0|0:0,0:0:0:0:
209,147,47563,2,0,P|232:144|262:137,1,50,2|2,0:1|0:0,0:0:0:0:
348,60,48373,2,0,P|312:49|274:43,1,75,2|0,0:0|0:0,0:0:0:0:
450,54,48914,1,0,0:0:0:0:
450,54,49184,6,0,P|438:84|412:207,1,119.999996337891,6|0,1:0|0:0,0:0:0:0:
495,259,49590,1,0,1:2:0:0:
416,245,49725,1,8,0:0:0:0:
439,319,49860,1,0,0:0:0:0:
366,364,49995,6,0,B|300:363|314:329|205:329,1,119.999996337891,4|8,1:0|0:0,0:0:0:0:
101,245,50400,1,8,0:0:0:0:
173,189,50536,1,8,3:0:0:0:
186,276,50671,1,4,3:0:0:0:
89,232,50806,6,0,P|84:165|77:90,1,119.999996337891,4|0,1:0|0:0,0:0:0:0:
229,23,51211,1,0,1:0:0:0:
241,40,51346,2,0,P|237:75|235:111,1,59.9999981689454,8|4,0:0|3:0,0:0:0:0:
263,192,51617,2,0,P|235:154|148:169,1,119.999996337891,4|2,1:0|3:2,0:0:0:0:
287,267,52022,2,0,L|376:255,1,59.9999981689454,2|2,3:2|3:2,0:0:0:0:
505,148,52292,1,2,3:2:0:0:
438,106,52427,6,0,B|398:152|398:152|420:212,1,119.999996337891,4|2,1:2|3:2,0:0:0:0:
278,60,52968,2,0,P|306:64|337:72,1,59.9999981689454,0|2,1:0|3:2,0:0:0:0:
405,19,53238,2,0,P|356:32|287:45,1,119.999996337891,10|0,0:0|1:0,0:0:0:0:
122,44,53779,2,0,P|102:66|96:95,1,59.9999981689454,2|0,3:2|1:0,0:0:0:0:
176,154,54049,6,0,P|165:94|144:18,1,119.999996337891,2|0,1:2|0:0,0:0:0:0:
74,175,54454,2,0,P|82:223|99:283,1,59.9999981689454,2|0,3:2|1:2,0:0:0:0:
187,340,54725,1,2,3:2:0:0:
156,269,54860,2,0,P|97:267|54:307,1,119.999996337891,8|0,0:0|1:0,0:0:0:0:
207,353,55265,1,2,3:2:0:0:
225,365,55400,2,0,L|299:355,1,59.9999981689454,8|2,0:0|1:2,0:0:0:0:
448,267,55671,6,0,B|405:262|405:262|376:236|376:236|309:229,1,119.999996337891,4|8,1:0|0:0,0:0:0:0:
423,104,56076,1,0,0:0:0:0:
439,116,56211,2,0,L|451:189,1,59.9999981689454,0|0,1:0|1:0,0:0:0:0:
320,249,56481,2,0,P|274:199|304:119,1,119.999996337891,8|0,0:0|1:0,0:0:0:0:
363,28,56887,1,2,3:2:0:0:
400,100,57022,1,0,1:0:0:0:
358,167,57157,1,8,0:0:0:0:
284,136,57292,5,2,1:2:0:0:
234,192,57427,2,0,B|159:200|184:218|87:221,1,119.999996337891,2|2,1:2|1:2,0:0:0:0:
219,278,57833,2,0,L|201:352,1,59.9999981689454,10|2,0:2|1:2,0:0:0:0:
126,135,58103,2,0,L|108:61,1,59.9999981689454,10|0,0:2|1:0,0:0:0:0:
241,24,58373,1,8,0:0:0:0:
241,24,58508,2,0,L|228:96,1,59.9999981689454,0|8,1:0|0:0,0:0:0:0:
217,163,58779,1,0,1:0:0:0:
334,72,58914,6,0,P|387:85|445:37,1,119.999996337891,4|8,1:0|0:0,0:0:0:0:
313,149,59319,1,2,0:0:0:0:
322,163,59454,1,0,1:0:0:0:
332,179,59590,2,0,L|344:257,1,59.9999981689454,0|8,0:0|0:0,0:0:0:0:
399,362,59860,1,0,0:0:0:0:
441,297,59995,2,0,L|502:282,1,59.9999981689454,2|0,1:2|0:0,0:0:0:0:
321,326,60265,2,0,L|260:341,1,59.9999981689454,2|8,1:2|0:0,0:0:0:0:
120,349,60536,5,2,1:2:0:0:
40,323,60671,1,0,1:0:0:0:
40,239,60806,1,8,3:0:0:0:
120,213,60941,1,4,3:0:0:0:
169,281,61076,6,0,L|258:267,1,59.9999981689454,2|2,3:0|3:0,0:0:0:0:
29,231,61346,1,0,1:0:0:0:
87,83,62157,6,0,P|133:44|215:81,1,127.50000243187,4|0,1:0|0:0,0:0:0:0:
225,82,62427,2,0,P|215:128|203:204,1,85.0000016212464,2|0,0:0|1:0,0:0:0:0:
124,270,62698,2,0,P|115:220|105:171,1,85.0000016212464,10|0,0:0|0:0,0:0:0:0:
27,296,62968,2,0,B|131:291|104:341|248:330,1,170.000003242493,2|0,1:2|0:0,0:0:0:0:
365,297,63373,1,0,1:0:0:0:
313,226,63508,2,0,P|283:271|329:359,1,85.0000016212464,10|2,0:0|0:0,0:0:0:0:
438,350,63779,6,0,B|449:288|449:288|415:236|415:236|424:180,1,170.000003242493,2|0,1:2|0:0,0:0:0:0:
423,5,64184,1,0,1:0:0:0:
494,37,64319,2,0,P|431:103|339:79,1,170.000003242493,8|2,0:0|1:2,0:0:0:0:
358,94,64725,1,2,0:0:0:0:
270,52,64860,2,0,L|168:68,1,85.0000016212464,8|0,0:0|1:0,0:0:0:0:
129,167,65130,2,0,L|230:150,1,85.0000016212464,10|2,0:2|0:2,0:0:0:0:
143,337,65400,6,0,P|66:343|19:226,1,170.000003242493,2|0,1:2|0:0,0:0:0:0:
143,337,65806,1,0,1:0:0:0:
207,290,65941,2,0,B|213:199|273:228|265:71,1,170.000003242493,10|0,0:0|1:0,0:0:0:0:
301,277,66346,1,0,0:0:0:0:
301,277,66481,2,0,L|430:252,1,85.0000016212464,10|0,0:2|0:0,0:0:0:0:
177,142,66752,2,0,L|48:117,1,85.0000016212464,2|0,1:2|0:0,0:0:0:0:
303,22,67022,6,0,P|291:78|269:228,1,170.000003242493,6|0,1:2|0:0,0:0:0:0:
391,356,67427,1,0,1:0:0:0:
471,262,67563,1,8,0:0:0:0:
384,268,67698,1,0,1:0:0:0:
484,350,67833,6,0,L|463:267,1,62.5,0|0,1:0|0:0,0:0:0:0:
330,203,68103,2,0,P|308:231|309:286,1,75.000002861023,8|0,0:0|1:0,0:0:0:0:
448,181,68373,2,0,P|466:131|417:74,1,131.250001251698,10|0,0:0|0:0,0:0:0:0:
395,61,68644,6,0,P|344:68|295:78,1,85.0000016212464,4|0,1:0|0:0,0:0:0:0:
151,47,68914,1,2,0:0:0:0:
226,7,69049,1,0,1:0:0:0:
162,66,69184,2,0,P|147:122|143:178,1,85.0000016212464,10|0,0:0|0:0,0:0:0:0:
97,265,69454,6,0,P|139:201|233:222,1,170.000003242493,2|0,1:2|0:0,0:0:0:0:
26,197,69860,1,2,1:2:0:0:
78,137,69995,2,0,L|64:45,1,85.0000016212464,10|0,0:0|0:0,0:0:0:0:
200,111,70265,2,0,L|176:304,1,170.000003242493,2|0,1:2|0:0,0:0:0:0:
282,363,70671,1,0,1:0:0:0:
336,303,70806,2,0,L|437:321,1,85.0000016212464,8|0,0:0|0:0,0:0:0:0:
364,86,71076,6,0,P|298:120|317:210,1,170.000003242493,2|8,1:2|0:0,0:0:0:0:
463,163,71481,1,2,1:2:0:0:
508,86,71617,1,10,0:2:0:0:
460,173,71752,1,0,0:0:0:0:
387,98,71887,6,0,B|297:92|312:149|212:138,1,170.000003242493,2|0,1:2|0:0,0:0:0:0:
96,15,72292,1,2,1:2:0:0:
178,62,72427,2,0,P|129:102|122:165,1,85.0000016212464,10|2,0:2|0:0,0:0:0:0:
142,248,72698,2,0,P|96:162|21:184,1,170.000003242493,2|8,1:2|0:0,0:0:0:0:
82,304,73103,1,0,0:0:0:0:
131,363,73238,2,0,L|236:348,1,85.0000016212464,2|0,1:2|0:0,0:0:0:0:
411,273,73508,5,6,1:2:0:0:
329,307,73644,1,0,0:0:0:0:
326,229,73779,1,8,0:0:0:0:
401,266,73914,1,0,0:0:0:0:
312,225,74049,2,0,L|187:204,1,85.0000016212464,0|0,1:0|1:0,0:0:0:0:
0,66,74319,2,0,P|48:60|89:88,1,85.0000016212464,8|8,0:0|0:0,0:0:0:0:
206,87,74590,2,0,P|210:39|181:0,1,85.0000016212464,0|0,1:0|1:0,0:0:0:0:
25,146,74860,2,0,P|33:188|50:308,1,127.50000243187,8|0,0:0|0:0,0:0:0:0:
48,294,75130,6,0,B|97:298|97:298|153:351|153:351|205:358,1,170.000003242493,4|2,1:0|0:0,0:0:0:0:
381,310,75536,1,0,1:0:0:0:
314,227,75671,2,0,L|299:330,1,85.0000016212464,10|0,0:0|0:0,0:0:0:0:
449,384,75941,2,0,L|484:137,1,170.000003242493,0|0,1:0|0:0,0:0:0:0:
330,83,76346,1,2,1:2:0:0:
412,103,76481,2,0,P|465:77|526:103,1,85.0000016212464,10|0,0:0|0:0,0:0:0:0:
319,92,76752,6,0,B|324:199|368:145|380:250,1,170.000003242493,2|0,1:2|0:0,0:0:0:0:
253,364,77157,1,0,1:0:0:0:
202,305,77292,2,0,P|195:256|220:214,1,85.0000016212464,8|0,0:0|0:0,0:0:0:0:
49,43,77563,2,0,P|56:76|74:248,1,170.000003242493,2|8,1:2|0:0,0:0:0:0:
181,142,77968,1,2,1:2:0:0:
140,74,78103,1,10,0:0:0:0:
191,155,78238,1,0,0:0:0:0:
260,78,78373,6,0,B|290:84|316:78|316:78|351:110|351:110|378:105|421:122,1,170.000003242493,2|0,1:2|0:0,0:0:0:0:
458,11,78779,1,2,1:2:0:0:
381,34,78914,2,0,P|314:102|332:197,1,170.000003242493,10|0,0:2|1:0,0:0:0:0:
431,346,79319,1,0,0:0:0:0:
477,275,79454,2,0,L|496:172,1,85.0000016212464,10|0,0:0|0:0,0:0:0:0:
415,352,79725,2,0,L|310:323,1,85.0000016212464,2|0,1:2|0:0,0:0:0:0:
166,247,79995,6,0,B|249:215|242:273|335:223,1,170.000003242493,6|0,1:2|0:0,0:0:0:0:
168,134,80400,1,0,1:0:0:0:
103,178,80536,2,0,P|73:219|80:275,1,85.0000016212464,8|0,0:0|1:0,0:0:0:0:
177,116,80806,2,0,P|179:67|150:27,1,85.0000016212464,0|8,1:0|0:0,0:0:0:0:
103,178,81076,5,8,0:0:0:0:
162,255,81211,1,0,1:0:0:0:
259,232,81346,2,0,P|340:206|332:153,1,127.50000243187,8|0,0:0|0:0,0:0:0:0:
351,157,81617,6,0,B|351:271|414:209|417:318,1,170.000003242493,4|0,1:0|0:0,0:0:0:0:
260,144,82022,1,2,1:2:0:0:
388,74,82157,2,0,P|329:148|236:128,1,170.000003242493,10|2,0:2|1:2,0:0:0:0:
34,55,82698,2,0,B|84:40|84:40|143:67,1,85.0000016212464,2|0,0:0|1:0,0:0:0:0:
53,237,82968,2,0,B|15:201|15:201|8:136,1,85.0000016212464,8|0,0:0|0:0,0:0:0:0:
158,165,83238,6,0,B|196:236|196:236|149:356,1,170.000003242493,4|0,1:0|0:0,0:0:0:0:
279,271,83644,1,0,1:0:0:0:
320,333,83779,2,0,L|430:351,1,85.0000016212464,8|0,0:0|0:0,0:0:0:0:
359,191,84049,2,0,L|260:174,1,85.0000016212464,0|8,1:0|0:0,0:0:0:0:
14,267,84319,2,0,P|53:278|110:186,1,127.50000243187,8|0,0:0|0:0,0:0:0:0:
105,214,84590,1,10,0:2:0:0:
0,173,84725,1,2,1:2:0:0:
96,206,84860,6,0,B|60:125|60:125|71:59|167:77,1,170.000003242493,4|0,1:0|0:0,0:0:0:0:
276,100,85265,1,2,1:2:0:0:
279,111,85400,2,0,P|271:157|263:224,1,85.0000016212464,10|0,0:2|0:0,0:0:0:0:
236,351,85671,2,0,B|227:289|227:289|185:247|185:247|181:181,2,170.000003242493,2|8|2,1:2|0:0|1:2,0:0:0:0:
83,255,86346,1,0,0:0:0:0:
87,176,86481,6,0,P|164:106|254:142,1,170.000003242493,6|10,1:2|3:2,0:0:0:0:
420,27,86887,1,0,0:0:0:0:
343,11,87022,2,0,P|307:46|323:127,1,85.0000016212464,0|0,1:0|1:0,0:0:0:0:
431,219,87292,2,0,P|426:170|390:136,1,85.0000016212464,10|0,0:0|1:0,0:0:0:0:
207,262,87563,5,8,0:0:0:0:
256,188,87698,1,0,1:0:0:0:
344,214,87833,1,10,0:0:0:0:
345,304,87968,1,0,1:0:0:0:
260,333,88103,6,0,B|186:324|144:366|144:366|115:343|75:352,1,170.000003242493,4|0,1:0|0:0,0:0:0:0:
63,189,88508,1,0,1:0:0:0:
153,173,88644,2,0,P|141:213|129:286,1,85.0000016212464,8|0,0:0|0:0,0:0:0:0:
35,103,88914,1,0,1:0:0:0:
35,103,89184,2,0,P|90:92|165:86,1,85.0000016212464,2|0,0:0|1:0,0:0:0:0:
303,61,89454,1,8,0:0:0:0:
236,14,89590,1,0,0:0:0:0:
225,102,89725,6,0,B|221:213|155:148|155:268,1,170.000003242493,2|0,1:2|0:0,0:0:0:0:
332,354,90130,1,0,1:0:0:0:
245,282,90265,2,0,P|254:330|262:386,1,85.0000016212464,8|0,0:0|0:0,0:0:0:0:
393,312,90536,2,0,P|400:262|409:213,1,85.0000016212464,0|0,1:0|0:0,0:0:0:0:
488,63,90806,5,8,0:0:0:0:
406,35,90941,1,0,1:0:0:0:
241,127,91076,5,10,0:0:0:0:
323,99,91211,1,0,0:0:0:0:
411,121,91346,6,0,P|406:145|378:354,1,170.000003242493,4|0,1:0|0:0,0:0:0:0:
193,274,91752,1,2,1:2:0:0:
211,198,91887,2,0,P|253:212|322:220,1,85.0000016212464,10|0,0:2|0:0,0:0:0:0:
142,347,92157,2,0,P|57:296|106:207,1,170.000003242493,2|8,1:2|0:0,0:0:0:0:
197,82,92563,1,2,0:0:0:0:
107,64,92698,1,2,1:2:0:0:
133,150,92833,1,0,0:0:0:0:
206,76,92968,6,0,B|123:49|123:49|13:145,1,170.000003242493,4|0,1:2|0:0,0:0:0:0:
38,259,93373,1,0,1:0:0:0:
106,217,93508,2,0,B|145:232|145:232|197:183,1,85.0000016212464,8|0,0:0|1:0,0:0:0:0:
329,30,93779,1,2,1:2:0:0:
403,130,93914,1,8,0:0:0:0:
321,210,94049,2,0,P|317:160|307:111,1,85.0000016212464,8|0,0:0|1:0,0:0:0:0:
416,117,94319,1,8,0:0:0:0:
464,200,94454,1,0,1:0:0:0:
405,278,94590,6,0,B|320:268|339:333|224:299,1,150.000005722046,4|0,1:0|1:0,0:0:0:0:
315,99,94995,2,0,B|338:189|338:189|318:217|281:209,1,150.000005722046,8|0,0:0|1:0,0:0:0:0:
181,186,95400,2,0,B|149:156|93:172,1,75.000002861023,8|0,0:0|1:0,0:0:0:0:
7,208,95671,2,0,B|48:221|62:277,1,75.000002861023,8|0,0:0|1:0,0:0:0:0:
202,164,95941,2,0,B|236:138|232:81,1,75.000002861023,8|0,0:0|1:0,0:0:0:0:
82,4,96211,6,0,B|-6:41|33:135,1,150.000005722046,4|0,1:0|1:0,0:0:0:0:
201,197,96617,1,0,1:0:0:0:
155,268,96752,2,0,L|141:348,1,75.000002861023,8|0,0:0|1:0,0:0:0:0:
323,382,97022,2,0,L|297:229,1,150.000005722046,8|8,0:0|0:0,0:0:0:0:
391,132,97427,1,4,3:0:0:0:
451,189,97562,2,0,B|424:224|374:212|374:212,1,75.000002861023,10|0,1:2|1:0,0:0:0:0:
251,102,97833,6,0,B|261:181|214:158|221:253,1,150.000005722046,4|0,1:0|1:0,0:0:0:0:
161,123,98238,1,8,0:0:0:0:
105,174,98373,2,0,P|113:204|124:268,1,75.000002861023,0|0,1:0|1:0,0:0:0:0:
62,351,98644,2,0,P|17:342|-32:335,1,75.000002861023,8|0,0:0|1:0,0:0:0:0:
166,337,98914,2,0,P|211:328|260:321,1,75.000002861023,8|0,0:0|1:0,0:0:0:0:
21,175,99184,2,0,P|29:205|40:269,1,75.000002861023,8|0,0:0|1:0,0:0:0:0:
109,98,99454,5,4,1:0:0:0:
109,98,99589,1,8,0:0:0:0:
176,53,99725,1,0,1:0:0:0:
106,11,99860,1,0,1:0:0:0:
183,135,99995,2,0,L|257:124,1,75.000002861023,8|0,0:0|1:0,0:0:0:0:
325,18,100265,1,0,1:0:0:0:
325,18,100400,1,8,0:0:0:0:
325,18,100535,2,0,P|362:22|399:28,1,75.000002861023,0|0,1:0|1:0,0:0:0:0:
363,112,100806,1,8,0:0:0:0:
409,178,100941,1,8,0:0:0:0:
346,236,101076,6,0,L|369:401,1,150.000005722046,4|0,1:0|1:0,0:0:0:0:
419,166,101481,2,0,B|367:79|251:132,1,150.000005722046,8|0,0:0|1:0,0:0:0:0:
107,233,101887,2,0,B|140:256|183:248,1,75.000002861023,8|0,0:0|1:0,0:0:0:0:
78,154,102157,2,0,B|39:165|18:203,1,75.000002861023,8|0,0:0|1:0,0:0:0:0:
263,278,102427,2,0,B|272:238|249:201,1,75.000002861023,8|0,0:0|1:0,0:0:0:0:
150,20,102697,6,0,B|165:68|165:68|150:108|150:108|169:178,1,150.000005722046,4|0,1:0|1:0,0:0:0:0:
342,54,103103,1,0,1:0:0:0:
267,31,103238,2,0,L|256:105,1,75.000002861023,8|0,0:0|1:0,0:0:0:0:
376,155,103508,2,0,B|286:158|331:202|229:208,1,150.000005722046,8|8,0:0|3:0,0:0:0:0:
391,235,103913,1,2,3:0:0:0:
340,294,104048,2,0,L|351:368,1,75.000002861023,8|0,0:0|1:0,0:0:0:0:
209,352,104319,6,0,B|144:288|206:192,1,150.000005722046,4|0,1:0|1:0,0:0:0:0:
359,92,104725,1,8,0:0:0:0:
344,170,104860,2,0,B|305:200|258:182,1,75.000002861023,0|0,1:0|1:0,0:0:0:0:
421,46,105130,2,0,B|500:56|485:158,1,112.500004291535,8|0,0:0|0:0,0:0:0:0:
464,162,105400,2,0,P|471:195|486:256,1,75.000002861023,8|0,0:0|1:0,0:0:0:0:
338,81,105671,2,0,P|301:73|264:66,1,75.000002861023,8|0,0:0|1:0,0:0:0:0:
137,32,105941,5,4,1:0:0:0:
70,88,106076,1,8,0:0:0:0:
149,122,106211,2,0,L|139:200,1,75.000002861023,0|0,1:0|1:0,0:0:0:0:
79,356,106481,2,0,B|90:265|21:305|41:187,1,150.000005722046,8|10,0:0|0:0,0:0:0:0:
273,345,106887,1,0,1:0:0:0:
189,375,107022,1,8,3:0:0:0:
205,293,107157,1,2,3:0:0:0:
300,261,107292,2,0,L|374:272,1,75.000002861023,12|0,0:0|0:0,0:0:0:0:
186,283,107562,5,4,1:0:0:0:
231,212,107698,2,0,L|245:123,1,75.000002861023,8|8,0:0|0:0,0:0:0:0:
259,61,107968,1,0,1:0:0:0:
159,157,108103,2,0,L|59:141,1,87.500000834465,2|8,3:0|3:0,0:0:0:0:
263,44,108373,1,4,3:0:0:0:
329,95,108508,2,0,L|429:79,1,87.500000834465,0|8,1:0|0:0,0:0:0:0:
267,26,108779,1,0,1:0:0:0:
157,76,108914,2,0,L|57:60,1,87.500000834465,2|8,3:0|3:0,0:0:0:0:
253,175,109184,5,4,3:0:0:0:
336,202,109319,1,8,0:0:0:0:
336,289,109454,1,8,0:0:0:0:
253,316,109590,1,2,1:2:0:0:
354,300,109725,2,0,L|446:315,1,87.500000834465,8|2,0:0|3:0,0:0:0:0:
204,244,109995,6,0,L|90:261,1,87.500000834465,8|8,0:0|0:0,0:0:0:0:
35,167,110265,1,8,0:0:0:0:
5,248,110400,1,8,0:0:0:0:
131,158,110536,1,8,0:0:0:0:
101,77,110671,1,0,1:0:0:0:
96,65,110806,5,6,0:0:0:0:
111,99,112427,6,0,B|80:78|95:27|95:27|165:3|218:83|224:142|173:203|182:201|191:206|202:205|135:276|164:362|164:362|125:336|90:342|90:342|76:300|98:246,1,659.999979858399,14|0,1:3|0:0,0:0:0:0:
0,312,115670,6,0,B|24:369|97:393|166:342|172:283|161:268|153:256|162:196|198:143|298:151|313:224,1,440,14|0,1:3|0:0,0:0:0:0:
386,265,118913,6,0,P|288:236|24:182,1,362.999998892212,14|0,1:3|0:0,0:0:0:0:
197,184,122156,6,0,B|228:151|211:83|171:70|79:56|49:185|104:283|182:292,1,384.999988250733,14|2,1:3|3:2,0:0:0:0:
270,313,125399,6,0,B|298:390|376:358|376:358|402:306|373:237|342:245|315:252|317:143|317:143|401:120|454:172|444:238,1,550,2|4,1:0|3:0,0:0:0:0:
469,311,128643,6,0,B|449:292|429:298|429:298|415:306|415:306|366:336|296:306|244:238|304:216|258:165|188:141|137:169|137:169|121:254|202:278,1,550,14|8,1:3|3:0,0:0:0:0:
79,315,131886,6,0,P|256:182|464:115,1,440.533329770671,14|4,1:3|3:0,0:0:0:0:
359,108,135129,5,4,1:0:0:0:
438,41,137562,6,0,P|429:86|474:131,2,100,10|10|10,3:0|3:0|3:0,0:0:0:0:
479,139,138372,6,0,P|385:150|365:217,1,150.000005722046,4|0,1:0|1:0,0:0:0:0:
402,352,138778,2,0,B|404:268|476:317|471:192,1,150.000005722046,8|2,0:0|0:2,0:0:0:0:
322,283,139183,1,2,1:2:0:0:
322,283,139318,1,8,0:0:0:0:
267,338,139454,2,0,P|228:340|169:315,1,75.000002861023,2|0,1:2|0:0,0:0:0:0:
73,281,139724,2,0,P|97:248|185:252,1,112.500004291535,2|0,1:2|0:0,0:0:0:0:
185,226,139994,6,0,B|231:231|231:231|273:252|273:252|332:256,1,150.000005722046,2|0,1:2|1:0,0:0:0:0:
295,90,140399,1,8,0:0:0:0:
295,90,140535,2,0,P|301:123|307:199,1,75.000002861023,2|0,0:0|0:0,0:0:0:0:
361,37,140805,2,0,B|391:23|391:23|471:51,1,75.000002861023,2|2,1:2|1:2,0:0:0:0:
484,150,141075,2,0,P|443:153|374:164,1,75.000002861023,10|2,0:2|1:2,0:0:0:0:
222,33,141345,1,10,0:2:0:0:
280,103,141481,1,0,0:0:0:0:
207,34,141616,6,0,P|119:34|80:103,1,150.000005722046,2|0,1:2|1:0,0:0:0:0:
234,224,142021,2,0,B|306:209|302:265|409:246,1,150.000005722046,8|2,0:0|0:0,0:0:0:0:
197,352,142427,1,2,1:2:0:0:
257,305,142562,1,10,0:2:0:0:
191,364,142697,2,0,P|149:354|102:348,1,75.000002861023,2|8,1:2|0:0,0:0:0:0:
18,296,142967,1,2,1:2:0:0:
18,296,143237,6,0,B|28:239|28:239|57:221|57:221|77:131,1,150.000005722046,2|2,1:2|1:2,0:0:0:0:
154,116,143643,1,10,0:2:0:0:
26,88,143778,2,0,B|65:132|65:132|185:111,1,150.000005722046,0|2,0:0|1:2,0:0:0:0:
256,42,144183,1,2,1:2:0:0:
272,32,144318,1,10,0:2:0:0:
353,104,144454,1,2,1:2:0:0:
337,94,144589,1,10,0:2:0:0:
391,16,144724,1,10,0:2:0:0:
452,78,144859,6,0,P|446:99|426:265,1,150.000005722046,4|0,1:0|1:0,0:0:0:0:
443,350,145264,2,0,B|371:310|365:362|275:302,1,150.000005722046,8|2,0:0|0:0,0:0:0:0:
212,249,145670,1,0,1:0:0:0:
212,249,145940,2,0,P|246:241|298:231,1,75.000002861023,2|2,1:2|0:2,0:0:0:0:
413,145,146210,2,0,P|376:137|339:129,1,75.000002861023,2|10,1:2|0:2,0:0:0:0:
257,19,146481,6,0,P|202:49|215:162,1,150.000005722046,6|0,1:2|1:0,0:0:0:0:
70,220,146886,1,8,0:0:0:0:
100,151,147021,2,0,L|80:69,1,75.000002861023,2|2,0:0|0:0,0:0:0:0:
0,272,147291,2,0,B|28:280|48:307|48:307|89:326|157:284,1,150.000005722046,2|10,1:2|0:2,0:0:0:0:
263,237,147697,1,0,1:0:0:0:
304,307,147832,2,0,L|290:393,1,75.000002861023,8|8,0:0|0:0,0:0:0:0:
179,215,148102,6,0,P|228:161|348:197,1,150.000005722046,4|0,1:0|1:0,0:0:0:0:
438,84,148508,1,8,0:0:0:0:
382,136,148643,2,0,P|388:173|396:234,1,75.000002861023,0|0,0:0|0:0,0:0:0:0:
495,346,148913,1,2,1:2:0:0:
413,341,149048,2,0,B|420:261|481:301|479:197,1,150.000005722046,10|0,0:2|0:0,0:0:0:0:
359,240,149454,1,0,1:0:0:0:
309,310,149589,1,8,0:0:0:0:
363,232,149724,6,0,P|351:150|342:83,1,150.000005722046,4|0,1:0|1:0,0:0:0:0:
248,5,150129,1,8,0:0:0:0:
237,14,150264,2,0,L|221:105,1,75.000002861023,0|0,0:0|0:0,0:0:0:0:
136,149,150535,1,0,1:0:0:0:
138,136,150670,1,0,1:0:0:0:
140,124,150805,1,8,0:0:0:0:
69,67,150940,1,8,0:0:0:0:
1,136,151075,1,8,0:0:0:0:
69,205,151210,1,0,1:0:0:0:
70,189,151345,6,0,L|131:178,2,62.5,4|2|2,0:2|0:0|1:2,0:0:0:0:
165,327,151751,2,0,L|187:268,2,62.5,10|2|2,0:2|0:0|0:0,0:0:0:0:
13,290,152156,2,0,L|52:338,2,62.5,2|10|2,1:2|0:0|1:2,0:0:0:0:
103,265,152562,6,0,L|125:206,2,62.5,2|2|10,0:0|1:2|0:0,0:0:0:0:
270,252,152968,2,0,L|230:203,2,62.5,4|2|2,1:0|0:0|1:2,0:0:0:0:
161,365,153373,2,0,L|222:354,2,62.5,10|2|2,0:0|0:0|0:0,0:0:0:0:
182,272,153778,6,0,L|141:224,2,62.5,2|2|10,1:2|1:2|0:0,0:0:0:0:
253,120,154184,2,0,L|190:130,2,62.5,2|10|2,1:2|0:0|0:0,0:0:0:0:
296,271,154589,2,0,L|318:213,2,62.5,2|2|2,1:2|0:0|1:2,0:0:0:0:
226,215,154994,6,0,L|165:226,2,62.5,10|2|2,0:0|0:0|0:0,0:0:0:0:
129,77,155400,2,0,L|107:136,2,62.5,2|10|2,1:2|0:0|1:2,0:0:0:0:
282,115,155805,2,0,L|243:66,2,62.5,2|2|10,0:0|1:2|0:0,0:0:0:0:
195,143,156210,6,0,L|174:201,2,62.5,2|2|2,1:2|0:0|1:2,0:0:0:0:
26,158,156616,2,0,L|66:206,2,62.5,10|2|2,0:0|0:0|0:0,0:0:0:0:
136,44,157021,2,0,L|74:53,2,62.5,2|2|10,1:2|1:2|0:0,0:0:0:0:
112,133,157427,1,2,1:2:0:0:
112,133,157562,1,12,0:0:0:0:
340,32,157832,5,4,1:0:0:0:
358,38,157967,2,0,P|377:64|374:122,1,62.5,2|2,0:0|1:2,0:0:0:0:
472,98,158237,1,10,0:0:0:0:
475,116,158372,2,0,P|461:145|410:171,1,62.5,2|2,0:0|0:0,0:0:0:0:
476,239,158643,1,2,1:2:0:0:
461,250,158778,2,0,P|428:253|380:221,1,62.5,10|2,0:0|1:2,0:0:0:0:
299,177,159048,1,2,0:0:0:0:
281,172,159183,1,2,1:2:0:0:
266,167,159318,1,10,0:0:0:0:
321,252,159454,5,2,1:2:0:0:
307,269,159589,2,0,L|318:340,1,62.5,2|2,0:0|1:2,0:0:0:0:
169,205,159859,1,10,0:0:0:0:
183,222,159994,2,0,L|172:293,1,62.5,2|2,0:0|0:0,0:0:0:0:
65,144,160264,1,2,1:2:0:0:
51,161,160399,2,0,L|62:232,1,62.5,2|10,1:2|0:0,0:0:0:0:
78,298,160670,1,2,1:2:0:0:
96,374,160805,1,10,0:0:0:0:
285,123,161075,5,4,1:0:0:0:
285,47,161210,2,0,L|325:9,1,40,2|0,1:2|1:0,0:0:0:0:
221,10,161345,1,10,0:0:0:0:
156,48,161481,1,2,1:2:0:0:
156,123,161616,2,0,P|177:151|243:150,1,80,10|10,0:0|0:0,0:0:0:0:
361,261,161886,5,2,1:2:0:0:
361,185,162021,2,0,L|321:147,1,40,2|0,1:2|1:0,0:0:0:0:
425,148,162156,1,10,0:0:0:0:
490,186,162292,1,2,1:2:0:0:
490,261,162427,2,0,P|469:289|403:288,1,80,10|2,0:0|1:2,0:0:0:0:
293,359,162697,5,10,0:0:0:0:
256,288,162832,1,2,1:2:0:0:
242,281,162967,5,2,1:2:0:0:
279,210,163102,1,2,1:2:0:0:
292,199,163237,5,2,1:2:0:0:
255,128,163372,1,8,0:0:0:0:
315,76,163508,6,0,P|354:83|400:86,1,80,2|2,1:2|1:2,0:0:0:0:
245,132,163778,5,2,1:2:0:0:
191,194,163913,1,10,0:0:0:0:
165,115,164048,1,10,0:0:0:0:
251,129,164183,2,0,L|264:197,1,40,4|4,3:0|3:0,0:0:0:0:
156,111,164318,6,0,L|171:24,1,67.5000002574921,4|0,1:0|0:0,0:0:0:0:
37,28,164589,2,0,P|45:54|68:195,1,135.000000514984,2|2,1:2|1:2,0:0:0:0:
124,316,165129,2,0,P|79:362|13:358,1,135.000000514984,2|2,1:2|1:2,0:0:0:0:
136,296,165535,1,0,0:0:0:0:
151,279,165670,2,0,L|227:288,1,67.5000002574921,2|0,1:2|0:0,0:0:0:0:
361,328,165940,6,0,B|286:326|320:382|202:373,2,135.000000514984,2|2|2,1:2|1:2|1:2,0:0:0:0:
361,328,166616,1,0,0:0:0:0:
469,363,166751,2,0,B|509:289|509:289|477:249,1,135.000000514984,2|2,1:2|1:2,0:0:0:0:
331,208,167156,1,0,0:0:0:0:
411,201,167291,2,0,L|303:220,1,67.5000002574921,2|0,1:2|0:0,0:0:0:0:
502,108,167562,6,0,L|323:76,1,135.000000514984,2|2,1:2|1:2,0:0:0:0:
182,119,168102,2,0,P|211:186|265:143,1,135.000000514984,2|2,1:2|1:2,0:0:0:0:
255,169,168508,1,0,0:0:0:0:
284,89,168643,2,0,L|269:20,1,67.5000002574921,2|0,1:2|0:0,0:0:0:0:
350,175,168913,2,0,L|335:244,1,67.5000002574921,2|0,1:2|0:0,0:0:0:0:
203,362,169183,5,2,1:2:0:0:
252,302,169318,2,0,B|163:303|197:342|85:334,1,150.000005722046,8|0,0:0|1:0,0:0:0:0:
24,233,169724,2,0,P|58:244|106:249,1,75.000002861023,8|0,0:0|1:0,0:0:0:0:
192,180,169994,5,2,1:2:0:0:
208,156,170129,1,0,1:0:0:0:
149,100,170264,1,8,0:0:0:0:
133,76,170399,1,2,1:2:0:0:
196,29,170535,2,0,L|285:42,1,75.000002861023,8|0,0:0|1:0,0:0:0:0:
66,17,170805,6,0,P|30:46|70:167,1,135.000000514984,4|2,1:0|1:2,0:0:0:0:
171,281,171345,2,0,P|162:248|139:224,1,67.5000002574921,2|0,1:2|0:0,0:0:0:0:
49,327,171616,2,0,B|136:322|101:372|205:363,1,135.000000514984,2|2,1:2|1:2,0:0:0:0:
310,217,172156,6,0,P|276:208|244:216,1,67.5000002574921,2|0,1:2|0:0,0:0:0:0:
331,343,172427,2,0,B|340:269|387:312|397:204,1,135.000000514984,2|2,1:2|1:2,0:0:0:0:
460,162,172832,2,0,P|456:133|445:93,2,67.5000002574921,0|2|0,0:0|1:2|0:0,0:0:0:0:
491,366,173237,2,0,P|471:331|320:366,1,202.500000772476,2|0,1:2|0:0,0:0:0:0:
232,372,173778,2,0,P|194:369|156:365,1,67.5000002574921,2|0,1:2|0:0,0:0:0:0:
22,199,174048,6,0,P|48:259|118:250,1,135.000000514984,4|2,1:0|1:2,0:0:0:0:
109,257,174454,1,0,0:0:0:0:
207,179,174589,2,0,L|221:244,1,67.5000002574921,2|0,1:2|0:0,0:0:0:0:
115,159,174859,2,0,B|101:88|101:88|145:28,1,135.000000514984,2|2,1:2|1:2,0:0:0:0:
295,92,175264,1,0,0:0:0:0:
236,32,175399,2,0,P|218:62|224:125,1,67.5000002574921,2|0,1:2|0:0,0:0:0:0:
350,243,175670,5,4,1:2:0:0:
404,189,175805,2,0,P|411:108|362:56,1,135.000000514984,2|8,1:2|0:0,0:0:0:0:
339,253,176345,1,0,1:0:0:0:
280,301,176481,2,0,B|200:302|237:346|134:341,1,135.000000514984,10|0,0:0|1:0,0:0:0:0:
33,250,176886,1,8,0:0:0:0:
100,211,177021,1,2,1:2:0:0:
100,211,177291,6,0,B|172:208|143:256|246:231,1,119.999996337891,4|2,1:0|0:0,0:0:0:0:
436,372,177832,2,0,P|463:364|510:355,1,59.9999981689454,2|0,1:2|0:0,0:0:0:0:
495,280,178102,2,0,P|439:299|413:351,1,119.999996337891,8|2,0:0|1:2,0:0:0:0:
481,176,178643,2,0,P|485:143|495:98,1,59.9999981689454,2|0,0:0|1:2,0:0:0:0:
428,21,178913,6,0,P|363:25|360:103,1,119.999996337891,2|2,1:2|0:0,0:0:0:0:
184,109,179454,2,0,L|171:40,1,59.9999981689454,2|0,1:2|0:0,0:0:0:0:
267,143,179724,2,0,P|253:188|239:287,1,119.999996337891,10|0,0:0|1:0,0:0:0:0:
129,354,180264,5,10,0:0:0:0:
66,302,180399,1,10,0:0:0:0:
149,342,180535,2,0,B|213:333|194:378|288:368,1,119.999996337891,4|8,1:0|0:0,0:0:0:0:
394,292,181075,5,0,1:0:0:0:
446,355,181210,1,2,1:2:0:0:
406,272,181346,2,0,P|411:209|425:143,1,119.999996337891,10|0,0:0|1:0,0:0:0:0:
317,60,181886,6,0,P|318:31|324:-4,1,59.9999981689454,0|8,1:0|0:0,0:0:0:0:
404,68,182156,2,0,P|336:143|247:115,1,179.999994506836,4|0,1:0|1:0,0:0:0:0:
182,56,182697,2,0,L|123:48,1,59.9999981689454,8|0,0:0|1:0,0:0:0:0:
66,0,182967,2,0,B|33:30|33:30|63:150,1,119.999996337891,8|0,0:0|1:0,0:0:0:0:
151,232,183372,1,0,1:0:0:0:
140,217,183508,2,0,L|155:150,1,59.9999981689454,8|0,0:0|1:0,0:0:0:0:
45,263,183778,6,0,P|61:320|241:308,1,270.000001029968,4|8,1:0|0:0,0:0:0:0:
312,190,184589,2,0,L|246:159,1,67.5000002574921,8|0,0:0|1:0,0:0:0:0:
393,75,184859,2,0,L|399:147,1,67.5000002574921,8|0,0:0|1:0,0:0:0:0:
249,62,185129,2,0,L|308:20,1,67.5000002574921,8|0,0:0|0:0,0:0:0:0:
483,26,185399,6,0,B|503:42|492:90|431:149|418:124|400:97|335:163|334:242|393:236,1,270.000001029968,2|8,1:2|0:0,0:0:0:0:
443,280,186075,1,0,1:0:0:0:
447,260,186210,2,0,L|511:232,1,67.5000002574921,8|0,0:0|1:0,0:0:0:0:
307,182,186481,2,0,L|250:140,1,67.5000002574921,8|0,0:0|1:0,0:0:0:0:
350,308,186751,2,0,L|342:377,1,67.5000002574921,10|0,0:0|0:0,0:0:0:0:
388,194,187021,6,0,P|323:196|284:249,1,135.000000514984,4|2,1:0|0:0,0:0:0:0:
118,362,187427,1,0,1:0:0:0:
167,297,187562,2,0,L|175:197,1,67.5000002574921,8|0,0:0|1:0,0:0:0:0:
86,83,187832,5,8,0:0:0:0:
127,152,187967,1,0,1:0:0:0:
4,225,188102,5,8,0:0:0:0:
45,156,188237,1,0,1:0:0:0:
167,81,188372,6,0,P|227:83|247:132,1,101.250000386238,8|0,0:0|0:0,0:0:0:0:
260,146,188643,2,0,L|366:131,1,67.5000002574921,2|2,1:2|1:2,0:0:0:0:
446,44,188913,2,0,L|552:59,1,67.5000002574921,0|2,0:0|1:2,0:0:0:0:
365,34,189183,1,8,0:0:0:0:
413,113,189318,1,0,1:0:0:0:
371,201,189454,1,8,0:0:0:0:
431,278,189589,1,0,1:0:0:0:
436,293,189724,5,8,0:0:0:0:
376,216,189859,1,0,1:0:0:0:
418,128,189995,1,10,0:0:0:0:
370,49,190130,1,0,1:0:0:0:
425,144,190264,6,0,P|411:183|283:57,1,337.50000128746,4|0,1:0|1:0,0:0:0:0:
145,14,191075,2,0,P|153:47|159:80,1,67.5000002574921,8|0,0:0|0:0,0:0:0:0:
48,147,191345,2,0,B|127:146|100:196|204:190,2,135.000000514984,2|0|10,1:2|1:0|1:2,0:0:0:0:
50,279,192021,5,0,1:0:0:0:
68,272,192156,1,8,3:0:0:0:
160,317,192291,5,4,3:0:0:0:
194,330,192426,1,2,3:0:0:0:
277,271,192562,5,2,3:0:0:0:
369,234,192697,1,0,1:0:0:0:
109,102,195129,6,0,P|111:64|121:28,3,75.000002861023,2|2|2|2,0:0|0:0|0:0|0:0,0:0:0:0:
36,149,196480,1,2,0:0:0:0:
193,107,196750,2,0,B|86:106|117:151|13:149,1,165.000005035401,2|2,0:0|0:0,0:0:0:0:
265,64,198101,5,2,0:0:0:0:
315,126,198372,2,0,P|305:168|288:282,2,150.000005722046,2|2|2,0:0|0:0|0:0,0:0:0:0:
387,40,199723,1,2,0:0:0:0:
313,4,199993,1,2,0:0:0:0:
408,217,200534,5,0,0:0:0:0:
408,217,200804,2,0,P|442:208|493:201,2,75.000002861023,2|0|0,0:0|0:0|0:0,0:0:0:0:
307,302,201615,6,0,P|267:292|227:286,3,75.000002861023,2|2|2|2,0:0|0:0|0:0|0:0,0:0:0:0:
161,335,202966,1,2,0:0:0:0:
200,206,203237,2,0,P|157:232|167:341,1,165.000005035401,2|2,0:0|0:0,0:0:0:0:
187,130,204588,5,0,0:0:0:0:
261,156,204858,2,0,B|307:159|307:159|359:187|359:187|409:192,1,150.000005722046,2|2,0:0|0:0,0:0:0:0:
175,121,205669,2,0,B|128:124|128:124|76:152|76:152|26:157,1,150.000005722046,2|2,0:0|0:0,0:0:0:0:
245,54,206480,6,0,P|236:90|216:235,1,150.000005722046,2|0,0:0|0:0,0:0:0:0:
162,261,207291,2,0,P|170:297|176:338,2,75.000002861023,2|0|0,0:0|0:0|0:0,0:0:0:0:
53,302,208101,6,0,P|45:338|39:379,3,75.000002861023,2|2|2|2,0:0|0:0|0:0|0:0,0:0:0:0:
39,215,209453,1,2,0:0:0:0:
194,221,209723,2,0,B|149:199|100:233|100:233|71:210|37:216,1,165.000005035401,2|2,0:0|0:0,0:0:0:0:
224,305,211074,1,2,0:0:0:0:
295,249,211345,6,0,P|307:197|322:146,1,75.000002861023,2|0,0:0|0:0,0:0:0:0:
193,175,211885,2,0,P|181:123|166:72,1,75.000002861023,2|0,0:0|0:0,0:0:0:0:
302,85,212426,2,0,P|314:33|329:-18,2,75.000002861023,2|2|2,0:0|0:0|0:0,0:0:0:0:
127,19,213507,1,0,0:0:0:0:
127,19,213777,1,2,0:0:0:0:
127,19,214047,2,0,P|99:48|100:94,1,75.000002861023,2|2,0:0|0:0,0:0:0:0:
172,149,214588,6,0,P|220:198|218:277,1,150.000005722046,2|2,0:0|0:0,0:0:0:0:
34,342,215669,2,0,L|50:259,1,75.000002861023,2|2,0:0|0:0,0:0:0:0:
14,179,216210,2,0,P|57:223|167:220,1,150.000005722046,2|0,0:0|0:0,0:0:0:0:
172,149,217020,1,2,0:0:0:0:
328,333,217561,5,2,0:0:0:0:
393,289,217831,2,0,P|398:242|422:154,1,125.000004768372,2|2,0:0|0:0,0:0:0:0:
294,204,218642,2,0,P|288:157|264:69,1,125.000004768372,2|2,0:0|0:0,0:0:0:0:
424,143,219453,2,0,P|410:186|400:229,1,89.9999972534181,2|2,0:0|0:0,0:0:0:0:
54,341,221074,6,0,P|43:295|25:239,1,85.0000016212464,4|0,1:0|0:0,0:0:0:0:
201,140,221345,1,2,0:0:0:0:
128,82,221480,1,0,1:0:0:0:
72,160,221615,1,10,0:0:0:0:
146,217,221750,1,0,0:0:0:0:
216,131,221885,6,0,B|337:106|324:207|467:177,1,255.000004863739,2|0,1:2|1:0,0:0:0:0:
364,285,222426,2,0,P|322:275|280:268,1,85.0000016212464,10|2,0:0|0:0,0:0:0:0:
101,163,222696,2,0,P|138:184|152:260,1,85.0000016212464,2|0,1:2|0:0,0:0:0:0:
252,353,222966,2,0,P|275:318|274:276,1,85.0000016212464,2|0,0:0|1:0,0:0:0:0:
109,155,223237,2,0,P|146:176|160:252,1,85.0000016212464,10|0,0:0|0:0,0:0:0:0:
36,357,223507,2,0,P|15:282|5:153,1,170.000003242493,2|8,1:2|0:0,0:0:0:0:
137,23,223912,5,0,1:0:0:0:
54,55,224047,1,10,0:2:0:0:
213,105,224183,6,0,L|261:87,1,42.5000008106232,2|0,0:2|0:0,0:0:0:0:
290,68,224318,2,0,L|466:95,1,170.000003242493,2|0,1:2|0:0,0:0:0:0:
246,196,224723,1,0,1:0:0:0:
233,183,224858,2,0,L|148:173,1,85.0000016212464,10|2,0:0|0:0,0:0:0:0:
336,199,225129,6,0,B|322:290|260:245|250:336,1,170.000003242493,2|10,1:2|0:2,0:0:0:0:
87,227,225534,1,0,0:0:0:0:
147,273,225669,2,0,P|161:312|166:368,1,85.0000016212464,2|0,1:2|0:0,0:0:0:0:
404,342,225939,2,0,P|414:257|442:177,1,170.000003242493,6|0,1:2|0:0,0:0:0:0:
430,3,226345,1,0,1:0:0:0:
358,76,226480,1,8,0:0:0:0:
472,99,226615,1,0,1:0:0:0:
348,70,226750,6,0,P|298:75|274:103,1,69.9999978637696,0|0,1:0|0:0,0:0:0:0:
116,29,227020,2,0,P|95:74|107:109,1,80,8|0,0:0|1:0,0:0:0:0:
13,242,227291,2,0,P|59:307|119:291,1,134.999995880127,10|0,0:0|0:0,0:0:0:0:
117,286,227561,22,0,P|108:241|94:204,1,85.0000016212464,4|0,1:0|0:0,0:0:0:0:
279,145,227831,2,0,P|246:172|220:205,1,85.0000016212464,2|0,0:0|1:0,0:0:0:0:
208,364,228101,1,10,0:0:0:0:
244,285,228237,1,0,0:0:0:0:
252,295,228372,6,0,B|318:276|362:320|362:320|437:308,1,170.000003242493,2|0,1:2|0:0,0:0:0:0:
471,182,228777,1,2,1:2:0:0:
392,152,228912,2,0,P|374:190|391:239,1,85.0000016212464,10|0,0:0|0:0,0:0:0:0:
461,92,229183,2,0,P|430:59|351:62,1,127.50000243187,2|0,1:2|0:0,0:0:0:0:
346,85,229453,2,0,P|299:95|263:103,1,85.0000016212464,2|0,0:0|1:0,0:0:0:0:
129,28,229723,2,0,P|82:18|46:10,1,85.0000016212464,10|0,0:0|0:0,0:0:0:0:
236,21,229993,6,0,B|231:76|231:76|175:117|175:117|159:207,1,170.000003242493,2|8,1:2|0:0,0:0:0:0:
54,245,230399,1,2,1:2:0:0:
12,150,230534,1,10,0:2:0:0:
36,236,230669,2,0,P|19:263|13:304,1,42.5000008106232,0|0,0:0|0:0,0:0:0:0:
54,341,230804,6,0,P|134:324|278:304,1,170.000003242493,2|0,1:2|0:0,0:0:0:0:
391,360,231210,1,2,1:2:0:0:
309,362,231345,2,0,L|324:271,1,85.0000016212464,10|2,0:2|0:0,0:0:0:0:
509,187,231615,2,0,L|475:372,1,170.000003242493,2|8,1:2|0:0,0:0:0:0:
324,177,232020,5,0,0:0:0:0:
263,222,232156,2,0,P|215:222|172:177,1,85.0000016212464,2|0,1:2|0:0,0:0:0:0:
123,95,232426,2,0,P|158:72|239:154,1,170.000003242493,6|8,1:2|0:0,0:0:0:0:
84,174,232831,1,0,0:0:0:0:
76,167,232966,2,0,P|45:135|43:83,1,85.0000016212464,0|0,1:0|1:0,0:0:0:0:
230,66,233237,2,0,P|242:23|286:-4,1,85.0000016212464,8|8,0:0|0:0,0:0:0:0:
444,109,233507,2,0,P|404:123|332:77,1,127.50000243187,0|0,1:0|0:0,0:0:0:0:
315,71,233777,2,0,P|319:99|335:198,1,85.0000016212464,8|0,0:0|1:0,0:0:0:0:
414,335,234047,5,4,1:0:0:0:
351,289,234183,2,0,B|259:300|294:355|202:367,1,170.000003242493,0|0,0:0|1:0,0:0:0:0:
94,288,234588,2,0,P|89:244|71:196,1,85.0000016212464,10|0,0:0|0:0,0:0:0:0:
263,108,234858,2,0,P|236:159|221:272,1,170.000003242493,2|0,1:2|0:0,0:0:0:0:
95,117,235264,5,2,1:2:0:0:
157,66,235399,1,10,0:0:0:0:
218,15,235534,1,0,0:0:0:0:
166,76,235669,6,0,B|201:82|225:124|225:124|279:142|311:110,1,170.000003242493,2|0,1:2|0:0,0:0:0:0:
81,39,236074,1,0,1:0:0:0:
19,88,236210,2,0,L|34:186,1,85.0000016212464,8|0,0:0|0:0,0:0:0:0:
73,344,236480,5,2,1:2:0:0:
162,377,236615,1,0,0:0:0:0:
193,289,236750,1,10,0:0:0:0:
105,257,236885,1,2,1:2:0:0:
94,250,237020,2,0,L|7:268,1,85.0000016212464,10|0,0:0|0:0,0:0:0:0:
246,357,237291,6,0,P|302:294|264:190,1,170.000003242493,2|0,1:2|0:0,0:0:0:0:
212,160,237696,1,2,1:2:0:0:
140,195,237831,2,0,P|176:233|243:227,1,85.0000016212464,10|0,0:2|0:0,0:0:0:0:
323,107,238101,2,0,L|224:80,1,85.0000016212464,2|0,1:2|0:0,0:0:0:0:
403,153,238372,2,0,L|475:80,1,85.0000016212464,10|0,0:0|0:0,0:0:0:0:
329,196,238642,2,0,L|355:295,1,85.0000016212464,2|0,1:2|0:0,0:0:0:0:
437,368,238912,6,0,B|439:282|526:325|501:180,1,170.000003242493,6|0,1:2|0:0,0:0:0:0:
326,364,239318,2,0,P|287:353|225:345,1,85.0000016212464,0|8,1:0|0:0,0:0:0:0:
117,182,239588,1,0,1:0:0:0:
108,186,239723,1,2,1:2:0:0:
27,213,239858,1,8,0:0:0:0:
27,298,239993,1,8,0:0:0:0:
108,324,240128,1,0,1:0:0:0:
157,255,240264,2,0,L|239:236,1,85.0000016212464,10|8,0:0|0:0,0:0:0:0:
445,339,240534,6,0,B|401:320|401:320|352:356|285:353,1,170.000003242493,4|0,1:0|0:0,0:0:0:0:
438,155,240939,1,2,1:2:0:0:
363,186,241075,2,0,P|337:221|353:291,1,80,10|0,0:2|0:0,0:0:0:0:
404,84,241345,1,2,1:2:0:0:
404,84,241615,2,0,P|364:89|325:97,1,80,2|0,0:0|1:0,0:0:0:0:
150,156,241885,1,8,0:0:0:0:
208,218,242021,1,0,0:0:0:0:
152,141,242156,6,0,B|158:58|215:100|220:3,1,160,4|0,1:0|0:0,0:0:0:0:
47,199,242561,1,0,1:0:0:0:
104,254,242696,2,0,L|181:236,1,80,8|0,0:0|0:0,0:0:0:0:
77,112,242966,2,0,L|0:130,1,80,0|8,1:0|0:0,0:0:0:0:
208,16,243237,5,8,0:0:0:0:
180,98,243372,1,0,1:0:0:0:
270,158,243507,1,10,0:2:0:0:
298,76,243642,1,2,1:2:0:0:
260,175,243777,6,0,P|281:261|287:367,1,170.000003242493,4|0,1:0|0:0,0:0:0:0:
437,239,244183,1,2,1:2:0:0:
370,302,244318,2,0,P|412:316|481:324,1,85.0000016212464,10|0,0:2|0:0,0:0:0:0:
443,97,244588,2,0,P|358:148|407:237,1,170.000003242493,2|8,1:2|0:0,0:0:0:0:
170,77,244994,1,0,0:0:0:0:
263,52,245129,1,2,1:2:0:0:
357,25,245264,1,0,0:0:0:0:
249,39,245399,6,0,P|211:32|67:13,1,170.000003242493,6|10,1:2|3:2,0:0:0:0:
158,154,245804,1,0,0:0:0:0:
45,102,245939,2,0,P|37:138|29:197,1,85.0000016212464,0|0,1:0|1:0,0:0:0:0:
175,143,246210,1,10,0:0:0:0:
107,235,246345,1,0,1:0:0:0:
193,131,246480,2,0,P|216:165|210:206,1,85.0000016212464,8|0,0:0|1:0,0:0:0:0:
93,250,246750,1,10,0:0:0:0:
152,323,246885,1,0,1:0:0:0:
238,283,247020,6,0,B|265:295|301:289|301:289|333:316|333:316|379:313|421:331,1,170.000003242493,4|0,1:0|0:0,0:0:0:0:
506,158,247426,1,0,1:0:0:0:
448,106,247561,2,0,P|383:136|402:246,1,170.000003242493,8|0,0:0|1:0,0:0:0:0:
110,159,248101,2,0,P|83:126|78:84,1,85.0000016212464,2|0,0:0|1:0,0:0:0:0:
279,39,248372,2,0,P|265:74|163:49,1,127.50000243187,8|0,0:0|0:0,0:0:0:0:
172,64,248642,6,0,B|277:70|226:113|329:117,1,170.000003242493,2|0,1:2|0:0,0:0:0:0:
237,230,249047,1,0,1:0:0:0:
295,286,249183,2,0,B|289:319|289:319|295:339|295:339|283:385,1,85.0000016212464,8|0,0:0|0:0,0:0:0:0:
486,220,249453,2,0,B|428:205|428:205|367:220|367:220|263:193,1,170.000003242493,0|8,1:0|0:0,0:0:0:0:
167,291,249858,2,0,P|125:279|105:236,1,85.0000016212464,0|10,1:0|0:0,0:0:0:0:
134,163,250129,1,0,0:0:0:0:
4,63,250264,6,0,P|7:78|27:241,1,170.000003242493,4|0,1:0|0:0,0:0:0:0:
194,325,250669,1,2,1:2:0:0:
116,286,250804,1,10,0:2:0:0:
125,368,250939,1,0,0:0:0:0:
207,309,251074,6,0,P|213:241|224:174,1,85.0000016212464,2|0,1:2|0:0,0:0:0:0:
289,45,251345,1,8,0:0:0:0:
216,97,251480,1,2,0:0:0:0:
281,156,251615,1,2,1:2:0:0:
202,94,251750,1,0,0:0:0:0:
300,43,251885,6,0,B|371:18|371:18|429:47|410:122,1,170.000003242493,4|0,1:2|0:0,0:0:0:0:
483,154,252291,1,0,1:0:0:0:
468,170,252426,2,0,P|422:191|367:169,1,85.0000016212464,8|0,0:0|1:0,0:0:0:0:
168,90,252696,6,0,P|185:42|218:112,1,170.000003242493,2|8,1:2|0:0,0:0:0:0:
290,176,253101,1,0,1:0:0:0:
192,226,253237,1,8,0:0:0:0:
318,272,253372,1,0,1:0:0:0:
225,321,253507,5,4,1:2:0:0:
45,286,255129,5,2,0:0:0:0:
34,141,256750,5,2,0:0:0:0:
120,205,257561,1,2,0:0:0:0:
252,158,258372,1,2,0:0:0:0:
404,238,259183,1,2,0:0:0:0:
404,238,259993,6,0,P|337:213|364:147,1,160,4|0,1:0|0:0,0:0:0:0:
472,190,260399,1,0,1:0:0:0:
368,132,260534,2,0,B|271:127|318:180|212:178,2,160,8|0|0,0:0|1:0|0:0,0:0:0:0:
289,294,261210,1,0,1:0:0:0:
217,260,261345,2,0,B|116:238|117:238,1,80,8|0,0:0|0:0,0:0:0:0:
26,354,261615,6,0,B|79:340|79:340|132:350|132:350|195:332,1,160,0|0,1:0|0:0,0:0:0:0:
76,137,262020,1,0,1:0:0:0:
11,191,262156,2,0,P|22:228|34:289,1,80,8|0,0:0|0:0,0:0:0:0:
152,97,262426,2,0,P|113:41|15:48,1,160,2|8,1:2|0:0,0:0:0:0:
129,178,262831,1,0,1:0:0:0:
210,155,262966,1,8,0:0:0:0:
288,126,263101,1,0,1:0:0:0:
308,118,263237,6,0,P|376:131|492:148,1,160,4|0,1:0|0:0,0:0:0:0:
242,55,263642,1,0,1:0:0:0:
213,134,263777,2,0,B|217:218|281:186|279:273,2,160,8|0|10,0:0|1:0|0:0,0:0:0:0:
33,163,264588,2,0,P|9:186|33:257,1,80,2|0,1:2|0:0,0:0:0:0:
106,132,264858,6,0,P|136:61|92:0,1,160,2|0,1:2|0:0,0:0:0:0:
33,163,265264,1,0,1:0:0:0:
97,209,265399,2,0,B|152:216|152:216|188:251|188:251|254:257,1,160,8|2,0:0|1:2,0:0:0:0:
429,356,265939,1,8,0:0:0:0:
345,328,266074,1,0,1:0:0:0:
345,240,266210,1,8,0:0:0:0:
429,213,266345,1,0,1:0:0:0:
480,284,266480,6,0,P|448:323|337:322,1,160,4|0,1:0|0:0,0:0:0:0:
245,169,266885,1,0,1:0:0:0:
258,243,267020,2,0,L|354:216,1,80,8|0,0:0|0:0,0:0:0:0:
500,101,267291,2,0,B|411:56|427:118|332:70,1,160,0|0,1:0|0:0,0:0:0:0:
188,149,267696,1,0,1:0:0:0:
247,97,267831,2,0,P|270:61|261:9,1,80,8|0,0:0|0:0,0:0:0:0:
312,150,268101,6,0,P|324:174|299:324,1,160,2|0,1:2|0:0,0:0:0:0:
374,213,268507,1,0,1:0:0:0:
308,312,268642,2,0,P|260:301|210:296,1,80,8|0,0:0|0:0,0:0:0:0:
33,240,268912,2,0,P|117:281|76:344,1,160,2|8,1:2|0:0,0:0:0:0:
20,248,269318,1,0,1:0:0:0:
75,148,269453,1,8,0:0:0:0:
4,66,269588,1,0,1:0:0:0:
91,146,269723,6,0,B|136:137|194:172|194:172|263:152,1,160,4|0,1:0|0:0,0:0:0:0:
422,43,270129,1,0,1:0:0:0:
344,36,270264,2,0,B|313:118|313:118|323:160|364:161,1,160,8|0,0:0|1:0,0:0:0:0:
177,308,270804,6,0,P|214:321|231:355,1,80,10|0,0:0|0:0,0:0:0:0:
440,265,271074,2,0,P|401:263|372:289,1,80,2|0,1:2|0:0,0:0:0:0:
208,136,271345,2,0,P|216:210|276:223,1,120,4|0,1:0|0:0,0:0:0:0:
275,229,271615,2,0,L|292:135,1,80,8|0,0:0|0:0,0:0:0:0:
415,33,271885,2,0,L|400:111,1,80,0|0,1:0|1:0,0:0:0:0:
218,50,272156,2,0,P|189:50|134:93,1,80,10|0,0:2|1:0,0:0:0:0:
34,147,272426,5,2,0:2:0:0:
65,73,272561,1,2,1:2:0:0:
125,151,272696,1,10,0:2:0:0:
84,223,272831,1,0,0:0:0:0:
41,153,272966,6,0,P|123:153|168:230,1,160,4|0,1:2|0:0,0:0:0:0:
216,293,273372,1,0,1:0:0:0:
153,341,273507,2,0,P|108:331|43:322,1,80,8|0,0:0|0:0,0:0:0:0:
232,282,273777,2,0,P|263:248|303:196,1,80,0|0,1:0|0:0,0:0:0:0:
383,84,274047,5,2,0:0:0:0:
451,53,274183,1,0,1:0:0:0:
389,3,274318,1,8,0:0:0:0:
320,36,274453,1,0,0:0:0:0:
380,99,274588,6,0,B|388:192|436:148|452:236,2,160,2|0|8,1:2|0:0|0:0,0:0:0:0:
380,99,275264,1,0,0:0:0:0:
470,154,275399,2,0,P|413:163|369:270,1,160,2|8,1:2|0:0,0:0:0:0:
505,329,275804,1,0,1:0:0:0:
439,281,275939,1,10,0:0:0:0:
433,365,276074,1,10,0:0:0:0:
362,324,276210,6,0,B|327:327|299:329|299:329|263:352|263:352|234:341|178:360,1,160,4|2,1:0|0:0,0:0:0:0:
77,247,276615,1,0,1:0:0:0:
148,213,276750,2,0,L|134:133,1,80,10|0,0:0|0:0,0:0:0:0:
14,291,277020,2,0,P|34:369|134:326,1,160,2|8,1:2|0:0,0:0:0:0:
246,269,277426,1,0,0:0:0:0:
169,288,277561,2,0,L|262:266,1,80,0|0,1:0|0:0,0:0:0:0:
444,278,277831,6,0,B|457:298|457:298|427:376|330:352,1,160,0|2,1:0|0:2,0:0:0:0:
456,198,278237,1,2,1:2:0:0:
348,256,278372,2,0,L|362:177,1,80,10|2,0:2|1:2,0:0:0:0:
452,33,278642,2,0,L|466:111,1,80,2|2,1:2|0:2,0:0:0:0:
349,49,278912,5,10,0:2:0:0:
269,74,279047,1,2,1:2:0:0:
190,191,279183,5,10,0:2:0:0:
270,166,279318,1,2,1:2:0:0:
166,95,279453,6,0,P|92:135|114:232,1,160,4|0,1:0|0:0,0:0:0:0:
253,281,279858,1,0,1:0:0:0:
178,235,279993,2,0,L|169:333,1,80,8|0,0:0|0:0,0:0:0:0:
77,195,280264,6,0,P|83:118|152:86,1,160,2|2,1:2|0:0,0:0:0:0:
301,35,280669,1,2,1:2:0:0:
313,48,280804,2,0,P|316:92|269:145,1,80,10|0,0:0|0:0,0:0:0:0:
372,220,281074,6,0,P|411:216|443:193,1,80,2|0,1:2|0:0,0:0:0:0:
348,352,281345,2,0,P|312:336|289:304,1,80,2|0,0:0|1:0,0:0:0:0:
182,230,281615,1,10,0:0:0:0:
262,199,281750,1,0,0:0:0:0:
170,235,281885,2,0,P|82:226|-20:214,1,160,2|10,1:2|0:0,0:0:0:0:
113,137,282291,1,0,1:0:0:0:
47,93,282426,2,0,P|40:52|30:7,1,80,10|0,0:0|1:0,0:0:0:0:
173,41,282696,5,4,1:0:0:0:
190,47,282831,1,2,0:2:0:0:
209,55,282966,1,2,0:2:0:0:
355,111,283101,5,2,1:2:0:0:
385,100,283236,1,10,0:2:0:0:
419,85,283371,1,2,0:2:0:0:
325,37,283507,2,0,P|284:73|288:157,1,120,2|0,1:2|0:0,0:0:0:0:
268,150,283777,2,0,L|285:244,1,80,10|2,0:2|0:2,0:0:0:0:
422,310,284047,2,0,L|436:231,1,80,2|2,1:2|0:2,0:0:0:0:
198,267,284318,6,0,P|271:252|308:316,1,160,6|8,1:2|0:0,0:0:0:0:
161,361,284723,1,2,0:2:0:0:
108,298,284858,2,0,P|114:260|121:219,1,80,2|2,1:2|1:2,0:0:0:0:
35,41,285129,5,10,0:2:0:0:
11,118,285264,1,10,0:2:0:0:
143,121,285399,5,2,1:2:0:0:
125,65,285534,1,2,1:2:0:0:
253,21,285669,5,8,3:0:0:0:
240,59,285804,1,2,3:0:0:0:
303,137,285939,5,2,1:2:0:0:
247,190,286074,2,0,L|243:259,1,64.9999970245363,2|2,1:2|0:2,0:0:0:0:
417,349,286345,2,0,P|405:287|349:258,1,129.999994049073,10|0,0:2|1:0,0:0:0:0:
182,319,286750,6,0,P|154:302|100:301,1,64.9999970245363,10|2,0:0|0:2,0:0:0:0:
240,186,287020,2,0,P|240:153|214:105,1,64.9999970245363,2|2,1:2|0:2,0:0:0:0:
361,220,287291,2,0,P|389:204|417:157,1,64.9999970245363,2|10,1:2|0:2,0:0:0:0:
338,90,287561,5,2,1:2:0:0:
271,57,287696,2,0,B|199:68|227:103|134:104,1,129.999994049073,2|2,1:2|1:2,0:0:0:0:
37,44,288101,2,0,P|64:31|121:19,1,64.9999970245363,8|0,0:0|1:0,0:0:0:0:
145,196,288372,2,0,P|110:191|80:170,1,64.9999970245363,8|2,0:0|0:0,0:0:0:0:
260,152,288642,5,2,1:2:0:0:
233,218,288777,1,8,0:0:0:0:
278,280,288912,1,0,1:0:0:0:
289,283,289183,5,2,1:2:0:0:
368,227,289318,2,0,P|358:255|345:368,1,129.999994049073,2|10,1:2|0:0,0:0:0:0:
476,143,289858,5,0,1:0:0:0:
499,216,289993,2,0,P|493:183|483:153,1,64.9999970245363,10|2,0:0|0:0,0:0:0:0:
354,62,290264,2,0,P|343:92|338:124,1,64.9999970245363,2|0,1:2|0:0,0:0:0:0:
217,208,290534,2,0,P|211:175|201:145,1,64.9999970245363,2|10,1:2|0:0,0:0:0:0:
76,79,290804,5,0,1:0:0:0:
152,37,290939,2,0,L|218:44,1,64.9999970245363,0|0,1:0|0:0,0:0:0:0:
65,91,291210,2,0,P|28:112|68:207,1,129.999994049073,0|0,1:0|1:0,0:0:0:0:
87,251,291615,1,8,0:0:0:0:
238,351,291885,5,2,0:0:0:0:
229,335,292020,1,2,3:1:0:0:
348,361,292156,5,2,0:0:0:0:
339,377,292291,1,2,1:0:0:0:
302,278,292426,5,2,1:2:0:0:
310,267,292561,2,0,L|314:192,1,64.9999970245363,2|0,1:2|0:0,0:0:0:0:
472,259,292831,2,0,P|415:280|426:339,1,129.999994049073,10|0,0:0|1:0,0:0:0:0:
491,256,293237,6,0,P|494:223|503:192,1,64.9999970245363,10|2,0:2|0:2,0:0:0:0:
330,149,293507,2,0,P|356:168|379:191,1,64.9999970245363,2|2,1:2|0:2,0:0:0:0:
478,15,293777,2,0,P|448:27|416:36,1,64.9999970245363,2|10,1:2|0:2,0:0:0:0:
289,221,294047,5,2,1:2:0:0:
218,177,294183,2,0,B|175:180|144:213|144:213|115:202|85:209,1,129.999994049073,2|2,1:2|1:2,0:0:0:0:
255,96,294588,6,0,P|282:112|302:138,1,64.9999970245363,8|0,0:2|1:0,0:0:0:0:
292,228,294858,1,10,0:0:0:0:
346,283,294993,2,0,L|421:289,1,64.9999970245363,8|0,0:0|1:0,0:0:0:0:
379,202,295264,1,8,0:0:0:0:
275,326,295399,2,0,L|200:320,1,64.9999970245363,8|4,3:0|3:0,0:0:0:0:
92,281,295669,5,6,1:2:0:0:
161,237,295804,2,0,P|180:208|184:172,1,64.9999970245363,2|0,1:2|0:0,0:0:0:0:
91,33,296074,2,0,P|52:98|67:170,1,129.999994049073,10|2,0:0|1:2,0:0:0:0:
202,63,296480,6,0,P|230:74|279:85,1,64.9999970245363,8|0,0:0|0:0,0:0:0:0:
369,127,296750,2,0,P|397:116|446:105,1,64.9999970245363,2|0,1:2|1:0,0:0:0:0:
297,166,297020,5,8,0:0:0:0:
367,262,297156,1,8,0:0:0:0:
249,341,297291,5,2,1:2:0:0:
249,341,297426,2,0,P|245:295|284:231,1,80,2|8,1:2|0:0,0:0:0:0:
447,292,297696,2,0,P|404:356|326:336,1,160,2|0,1:2|1:0,0:0:0:0:
337,249,298101,5,10,0:0:0:0:
414,214,298237,1,0,1:0:0:0:
274,147,298372,5,10,0:0:0:0:
197,112,298508,1,0,1:0:0:0:
403,69,298642,5,8,0:0:0:0:
480,34,298778,1,0,1:0:0:0:
495,29,298912,5,2,0:0:0:0:
256,192,299047,12,2,304588,1:2:0:0:
173,290,305264,5,2,0:0:0:0:
