osu file format v14

[General]
AudioFilename: audio.mp3
AudioLeadIn: 0
PreviewTime: 195033
Countdown: 0
SampleSet: Soft
StackLeniency: 0.7
Mode: 0
LetterboxInBreaks: 0
WidescreenStoryboard: 1

[Editor]
DistanceSpacing: 0.8
BeatDivisor: 3
GridSize: 32
TimelineZoom: 1

[Metadata]
Title:Virgin Mary feat. Sennzai
TitleUnicode:Virgin Mary feat. Sennzai
Artist:Tokyo.MeltiMelt
ArtistUnicode:Tokyo.MeltiMelt
Creator:-Aqua
Version:Easy
Source:
Tags:紅雨咲月 Saki Akau 胡桃坂庵 Iwori Kurumizaka Awakening the third Heaven Nameless Replica 3rd Single Japanese Metal Rock Tokyo Melti Melt TokyoMeltiMelt Mocaotic -Hitomi L1ght_u Light_u Erisu Lanzhu Laplus- La+
BeatmapID:3771309
BeatmapSetID:1830770

[Difficulty]
HPDrainRate:4
CircleSize:3.4
OverallDifficulty:4
ApproachRate:5
SliderMultiplier:0.8
SliderTickRate:0.5

[Events]
//Background and Video events
0,0,"97926118_p1.jpg",0,0
//Break Periods
//Storyboard Layer 0 (Background)
//Storyboard Layer 1 (Fail)
//Storyboard Layer 2 (Pass)
//Storyboard Layer 3 (Foreground)
//Storyboard Layer 4 (Overlay)
//Storyboard Sound Samples

[TimingPoints]
536,270.27027027027,6,2,69,40,1,0
536,-125,4,2,69,40,0,0
2157,-100,4,2,68,20,0,0
3779,-125,4,2,69,40,0,0
7022,-125,4,2,69,50,0,0
8644,-100,4,2,68,35,0,0
10265,-125,4,2,69,50,0,0
12698,-100,4,2,1,30,0,0
12748,-100,4,2,1,15,0,0
13373,-100,4,2,1,5,0,0
13508,-100,4,2,1,70,0,0
26481,-100,4,2,68,60,0,0
31346,-100,4,2,1,70,0,0
32968,-111.111111111111,4,2,1,50,0,0
45941,-111.111111111111,4,2,1,60,0,0
49184,-111.111111111111,4,2,1,70,0,0
62157,-100,4,2,3,85,0,1
62292,-100,4,2,1,85,0,1
94590,-100,4,2,1,70,0,0
110806,-100,4,2,2,60,0,0
112427,270.27027027027,6,2,1,60,1,0
112427,-125,4,2,1,50,0,0
125399,-111.111111111111,4,2,1,60,0,0
135129,-111.111111111111,4,2,1,50,0,0
138372,-111.111111111111,4,2,1,60,0,0
164318,-111.111111111111,4,2,1,50,0,0
174048,-111.111111111111,4,2,1,60,0,0
177291,-111.111111111111,4,2,1,65,0,0
195129,270.27027027027,6,2,1,60,1,0
195129,-166.666666666667,4,2,68,40,0,0
207291,-100,4,2,68,40,0,0
208101,-166.666666666667,4,2,69,40,0,0
213777,-100,4,2,68,40,0,0
214047,-166.666666666667,4,2,69,40,0,0
217020,-100,4,2,68,40,0,0
217561,-100,4,2,69,40,0,0
220264,-100,4,2,1,40,0,0
221074,-100,4,2,3,85,0,1
221210,-100,4,2,1,85,0,1
253507,-100,4,2,2,50,0,0
255129,-100,4,2,1,30,0,0
256750,-100,4,2,1,35,0,0
258372,-100,4,2,1,40,0,0
259183,-100,4,2,1,50,0,0
259993,-100,4,2,1,70,0,0
285939,-100,4,2,1,60,0,0
298912,-100,4,2,68,40,0,0
304588,-100,4,2,69,40,0,0
305264,-100,4,2,2,15,0,0

[Colours]
Combo1 : 255,255,62
Combo2 : 211,211,211
Combo3 : 255,255,168
Combo4 : 105,105,105

[HitObjects]
32,96,536,6,0,P|81:43|163:66,1,128,2|2,0:0|0:0,0:0:0:0:
173,75,1346,1,2,0:0:0:0:
173,75,3779,6,0,L|145:229,2,128,2|2|2,0:0|0:0|0:0,0:0:0:0:
272,52,5400,1,2,0:0:0:0:
460,242,7022,6,0,P|411:295|329:272,1,128,2|2,0:0|0:0,0:0:0:0:
322,258,7833,1,2,0:0:0:0:
322,258,10265,6,0,L|364:27,1,192,2|2,0:0|0:0,0:0:0:0:
499,12,11887,1,2,0:0:0:0:
499,12,12698,1,2,1:2:0:0:
499,12,13508,6,0,L|471:222,1,160,4|0,1:0|1:0,0:0:0:0:
506,228,14319,2,0,B|513:270|513:270|470:321,1,80,8|8,0:0|0:0,0:0:0:0:
429,310,14860,1,8,0:0:0:0:
429,310,15130,1,4,1:0:0:0:
319,374,15671,1,8,0:0:0:0:
319,374,15941,2,0,L|224:355,1,80,4|2,1:0|1:3,0:0:0:0:
213,306,16481,5,8,0:0:0:0:
213,306,16752,2,0,P|176:231|257:157,1,160,4|0,1:0|1:0,0:0:0:0:
275,175,17563,2,0,L|256:76,1,80,8|8,0:0|0:0,0:0:0:0:
312,58,18103,1,8,0:0:0:0:
312,58,18373,1,0,1:0:0:0:
195,4,18914,2,0,L|93:25,1,80,10|0,0:0|1:0,0:0:0:0:
117,84,19454,2,0,L|12:66,1,80,0|8,1:0|0:0,0:0:0:0:
3,124,19995,6,0,P|-27:190|83:260,1,160,4|0,1:0|1:0,0:0:0:0:
57,307,20806,2,0,L|158:326,1,80,8|8,0:0|0:0,0:0:0:0:
192,290,21346,1,8,0:0:0:0:
192,290,21617,1,4,1:0:0:0:
299,369,22157,1,8,0:0:0:0:
299,369,22427,2,0,L|318:274,1,80,8|8,0:0|3:0,0:0:0:0:
377,269,22968,5,8,0:0:0:0:
377,269,23238,2,0,B|417:198|417:198|332:122,1,160,4|0,1:0|1:0,0:0:0:0:
295,132,24049,2,0,L|317:33,1,80,8|8,0:0|0:0,0:0:0:0:
369,24,24590,1,8,0:0:0:0:
369,24,24860,1,0,1:0:0:0:
493,69,25400,1,8,0:0:0:0:
493,69,25671,2,0,L|513:160,1,80,8|8,0:0|3:0,0:0:0:0:
475,201,26211,1,8,0:0:0:0:
475,201,26481,1,2,1:2:0:0:
256,192,26752,12,2,29725,1:2:0:0:
512,96,31617,6,0,L|497:204,1,80,8|8,0:0|0:0,0:0:0:0:
390,236,32427,5,8,0:0:0:0:
390,236,32698,1,8,0:0:0:0:
390,236,32968,2,0,B|293:216|356:170|240:134,1,143.999995605469,4|2,1:0|1:2,0:0:0:0:
226,171,33779,1,10,0:0:0:0:
140,102,34319,1,2,0:0:0:0:
140,102,34590,2,0,P|67:151|91:228,1,143.999995605469,2|2,1:2|0:0,0:0:0:0:
114,234,35400,1,8,0:0:0:0:
91,350,35941,5,2,0:0:0:0:
91,350,36211,2,0,L|176:371,1,71.9999978027344,2|2,1:2|0:0,0:0:0:0:
210,335,36752,1,2,1:2:0:0:
210,335,37022,2,0,L|397:288,1,143.999995605469,10|2,0:0|0:0,0:0:0:0:
399,329,37833,1,2,1:2:0:0:
481,248,38373,1,2,0:0:0:0:
481,248,38644,1,8,0:0:0:0:
380,107,39454,6,0,B|268:83|268:83|241:27,1,143.999995605469,4|2,1:0|1:2,0:0:0:0:
206,25,40265,1,10,0:0:0:0:
116,96,40806,1,2,0:0:0:0:
116,96,41076,2,0,L|139:294,1,143.999995605469,2|2,1:2|0:0,0:0:0:0:
179,272,41887,1,10,0:0:0:0:
292,310,42427,5,2,0:0:0:0:
292,310,42698,2,0,L|304:409,2,71.9999978027344,2|2|2,1:2|0:0|1:2,0:0:0:0:
322,261,43508,2,0,B|412:249|347:196|486:175,1,143.999995605469,10|2,0:0|0:0,0:0:0:0:
499,181,44319,1,2,1:2:0:0:
499,181,45130,6,0,L|516:69,1,71.9999978027344,8|2,0:0|3:0,0:0:0:0:
475,70,45671,1,4,3:0:0:0:
475,70,45941,1,6,1:0:0:0:
302,84,46752,2,0,L|319:-28,2,71.9999978027344,2|2|2,0:0|0:0|0:0,0:0:0:0:
247,103,47563,2,0,P|180:174|217:241,1,143.999995605469,2|0,0:1|0:0,0:0:0:0:
241,231,48373,1,2,0:0:0:0:
218,347,48914,5,2,0:0:0:0:
218,347,49184,2,0,P|111:309|30:294,1,143.999995605469,6|8,1:0|0:0,0:0:0:0:
50,253,49995,2,0,P|73:178|102:65,1,143.999995605469,4|8,1:0|3:0,0:0:0:0:
133,77,50806,2,0,P|208:100|321:129,1,143.999995605469,4|8,1:0|0:0,0:0:0:0:
302,165,51617,1,4,1:0:0:0:
208,229,52157,5,2,3:2:0:0:
208,229,52427,2,0,P|231:304|260:417,1,143.999995605469,4|0,1:2|1:0,0:0:0:0:
305,374,53238,1,10,0:0:0:0:
402,310,53779,1,2,3:2:0:0:
402,310,54049,2,0,P|423:228|447:148,1,143.999995605469,2|0,1:2|1:2,0:0:0:0:
481,131,54860,2,0,P|388:115|355:37,1,143.999995605469,8|8,0:0|0:0,0:0:0:0:
319,39,55671,6,0,L|218:62,1,71.9999978027344,4|8,1:0|0:0,0:0:0:0:
215,103,56211,1,0,1:0:0:0:
215,103,56481,1,8,0:0:0:0:
308,179,57022,1,0,1:0:0:0:
308,179,57292,2,0,B|354:255|354:255|306:352,1,143.999995605469,2|10,1:2|0:2,0:0:0:0:
278,324,58103,1,10,0:2:0:0:
278,324,58373,1,8,0:0:0:0:
174,375,58914,6,0,P|133:363|93:351,1,71.9999978027344,4|8,1:0|0:0,0:0:0:0:
71,314,59454,1,0,1:0:0:0:
71,314,59725,1,8,0:0:0:0:
109,271,59995,2,0,P|120:230|132:190,1,71.9999978027344,2|2,1:2|1:2,0:0:0:0:
87,160,60535,2,0,P|94:66|170:71,1,143.999995605469,2|2,1:2|3:0,0:0:0:0:
171,95,61346,1,0,1:0:0:0:
171,95,62157,6,0,L|260:120,1,80,4|2,1:0|0:0,0:0:0:0:
294,71,62698,1,10,0:0:0:0:
342,113,62968,2,0,P|352:199|235:240,1,160,2|10,1:2|0:0,0:0:0:0:
244,217,63779,2,0,B|168:238|168:238|194:361,1,160,2|8,1:2|0:0,0:0:0:0:
232,360,64590,2,0,L|376:406,1,80,2|8,1:2|0:0,0:0:0:0:
368,357,65130,1,10,0:2:0:0:
368,357,65400,1,2,1:2:0:0:
461,269,65941,6,0,L|509:116,1,160,10|10,0:0|0:2,0:0:0:0:
463,71,66752,1,2,1:2:0:0:
403,94,67022,2,0,B|310:66|321:142|196:90,1,160,6|8,1:2|0:0,0:0:0:0:
188,80,67833,2,0,L|209:-10,2,80,0|8|10,1:0|0:0|0:0,0:0:0:0:
128,103,68644,6,0,L|107:193,1,80,4|2,1:0|0:0,0:0:0:0:
163,224,69184,1,10,0:0:0:0:
163,224,69454,1,2,1:2:0:0:
260,315,69995,1,10,0:0:0:0:
260,315,70265,2,0,L|93:363,1,160,2|8,1:2|0:0,0:0:0:0:
45,337,71076,2,0,L|6:203,1,80,2|8,1:2|0:0,0:0:0:0:
61,208,71617,5,10,0:2:0:0:
61,208,71887,2,0,L|13:40,1,160,2|10,1:2|0:2,0:0:0:0:
69,17,72698,2,0,L|186:-9,1,80,2|8,1:2|0:0,0:0:0:0:
204,38,73238,1,2,1:2:0:0:
204,38,73508,1,6,1:2:0:0:
351,161,74319,2,0,L|307:311,1,80,8|0,0:0|1:0,0:0:0:0:
358,295,74860,1,8,0:0:0:0:
298,317,75130,6,0,L|147:273,2,80,4|2|10,1:0|0:0|0:0,0:0:0:0:
325,374,75941,2,0,B|429:389|399:319|538:339,1,160,0|10,1:0|0:0,0:0:0:0:
510,281,76752,2,0,L|473:84,1,160,2|8,1:2|0:0,0:0:0:0:
431,82,77563,2,0,L|281:107,1,80,2|8,1:2|0:0,0:0:0:0:
315,148,78103,1,10,0:0:0:0:
315,148,78373,1,2,1:2:0:0:
260,264,78914,6,0,L|82:207,1,160,10|10,0:2|0:0,0:0:0:0:
46,233,79725,1,2,1:2:0:0:
6,182,79995,2,0,P|11:87|103:36,1,160,6|8,1:2|0:0,0:0:0:0:
106,8,80806,1,0,1:0:0:0:
166,28,81076,2,0,L|255:57,1,80,8|8,0:0|0:0,0:0:0:0:
258,114,81617,1,4,1:0:0:0:
146,177,82157,6,0,L|177:366,1,160,10|2,0:2|0:0,0:0:0:0:
227,366,82968,1,8,0:0:0:0:
283,335,83238,2,0,B|386:309|315:260|469:230,1,160,4|8,1:0|0:0,0:0:0:0:
467,275,84049,2,0,L|478:161,1,80,0|8,1:0|0:0,0:0:0:0:
447,143,84590,1,10,0:2:0:0:
447,143,84860,1,4,1:0:0:0:
499,28,85400,5,10,0:2:0:0:
499,28,85671,2,0,L|318:73,1,160,2|2,1:2|1:2,0:0:0:0:
285,39,86481,2,0,P|251:78|265:140,1,80,6|10,1:2|3:2,0:0:0:0:
285,156,87022,1,0,1:0:0:0:
329,201,87292,2,0,P|327:246|295:279,1,80,10|8,0:0|0:0,0:0:0:0:
245,271,87833,1,10,0:0:0:0:
245,271,88103,1,4,1:0:0:0:
180,381,88644,6,0,L|-33:339,1,160,8|2,0:0|0:0,0:0:0:0:
3,289,89454,1,8,0:0:0:0:
58,255,89725,2,0,L|100:42,1,160,2|8,1:2|0:0,0:0:0:0:
137,56,90535,1,0,1:0:0:0:
181,101,90806,2,0,L|279:125,1,80,8|10,0:0|0:0,0:0:0:0:
314,89,91346,1,4,1:0:0:0:
419,14,91887,5,10,0:2:0:0:
419,14,92157,2,0,P|490:95|444:171,1,160,2|2,1:2|1:2,0:0:0:0:
471,199,92968,2,0,P|369:218|287:241,1,160,4|8,1:2|0:0,0:0:0:0:
282,287,93779,2,0,P|235:272|173:257,1,80,2|8,1:2|0:0,0:0:0:0:
166,220,94319,1,8,0:0:0:0:
166,220,94590,6,0,P|118:180|182:89,1,160,4|0,1:0|1:0,0:0:0:0:
153,34,95400,2,0,B|250:10,1,80,8|8,0:0|0:0,0:0:0:0:
285,57,95941,1,8,0:0:0:0:
285,57,96211,1,4,1:0:0:0:
372,157,96752,1,8,0:0:0:0:
372,157,97022,2,0,L|353:252,1,80,8|8,0:0|0:0,0:0:0:0:
306,274,97563,5,10,1:2:0:0:
306,274,97833,2,0,B|383:338|383:338|469:308,1,160,4|0,1:0|1:0,0:0:0:0:
474,264,98644,2,0,L|491:172,1,80,8|8,0:0|0:0,0:0:0:0:
471,128,99184,1,8,0:0:0:0:
471,128,99454,1,4,1:0:0:0:
397,23,99995,2,0,L|295:2,1,80,8|0,0:0|1:0,0:0:0:0:
262,37,100535,2,0,L|244:142,1,80,0|8,1:0|0:0,0:0:0:0:
298,156,101076,6,0,P|327:239|262:298,1,160,4|0,1:0|1:0,0:0:0:0:
251,342,101887,2,0,L|159:324,1,80,8|8,0:0|0:0,0:0:0:0:
129,287,102427,1,8,0:0:0:0:
129,287,102698,1,4,1:0:0:0:
29,215,103238,1,8,0:0:0:0:
29,215,103508,2,0,L|48:120,1,80,8|8,0:0|3:0,0:0:0:0:
16,84,104049,5,8,0:0:0:0:
16,84,104319,2,0,P|82:25|160:65,1,160,4|0,1:0|1:0,0:0:0:0:
194,82,105130,2,0,L|172:181,1,80,8|8,0:0|0:0,0:0:0:0:
163,225,105671,1,8,0:0:0:0:
163,225,105941,1,4,1:0:0:0:
221,344,106481,1,8,0:0:0:0:
221,344,106752,2,0,L|312:364,1,80,10|8,0:0|3:0,0:0:0:0:
355,328,107292,1,12,0:0:0:0:
355,328,107563,6,0,L|385:186,1,120,4|0,1:0|1:0,0:0:0:0:
465,167,108373,1,4,3:0:0:0:
443,106,108644,1,0,1:0:0:0:
326,52,109184,6,0,L|184:82,2,120,4|2|8,3:0|1:2|0:0,0:0:0:0:
369,5,110265,1,8,0:0:0:0:
405,2,112427,6,0,B|282:31|377:72|202:94,1,213.333333333333,14|0,1:3|0:0,0:0:0:0:
103,28,114048,2,0,L|74:242,1,192
140,305,115399,1,0,0:0:0:0:
140,305,115670,1,14,1:3:0:0:
283,250,116481,6,0,B|415:274|317:314|468:327,1,192
357,144,118372,2,0,L|454:115,1,64
454,161,118913,6,0,P|368:173|99:49,1,384,14|0,1:3|0:0,0:0:0:0:
52,309,121886,5,0,0:0:0:0:
52,309,122156,2,0,P|168:265|260:265,1,192,14|0,1:3|0:0,0:0:0:0:
367,340,123778,2,0,P|439:298|415:183,1,213.333333333333
397,31,125399,6,0,P|367:156|311:300,1,215.999993408203,2|0,1:0|0:0,0:0:0:0:
401,384,127021,2,0,P|276:326|168:337,1,215.999993408203,14|0,1:3|0:0,0:0:0:0:
99,380,128282,1,0,0:0:0:0:
32,341,128643,2,0,P|19:239|105:183,1,215.999993408203,14|0,1:3|0:0,0:0:0:0:
174,24,130264,6,0,B|293:54|210:99|376:129,1,215.999993408203,14|0,1:3|0:0,0:0:0:0:
368,182,131345,2,0,L|478:154,1,71.9999978027344,4|8,3:0|3:0,0:0:0:0:
484,197,131886,2,0,P|496:89|435:61,1,143.999995605469,14|0,1:3|3:0,0:0:0:0:
272,130,133508,6,0,B|136:191|134:193|113:285|112:288|-23:323,1,359.999989013672,14|0,1:3|3:0,0:0:0:0:
25,357,135129,1,4,1:0:0:0:
446,350,136751,5,2,3:2:0:0:
446,350,137562,2,0,L|468:242,1,71.9999978027344,10|10,3:0|3:0,0:0:0:0:
433,234,138102,5,10,3:0:0:0:
433,234,138372,2,0,P|348:217|265:197,1,143.999995605469,4|2,1:0|0:0,0:0:0:0:
239,218,139183,1,2,1:2:0:0:
239,218,139454,2,0,P|231:259|223:300,1,71.9999978027344,2|2,1:2|1:2,0:0:0:0:
180,324,139994,1,2,1:2:0:0:
77,371,140535,1,2,0:0:0:0:
77,371,140805,2,0,P|69:330|61:289,1,71.9999978027344,2|10,1:2|0:2,0:0:0:0:
19,271,141345,5,10,0:2:0:0:
19,271,141616,2,0,P|-11:193|19:99,1,143.999995605469,2|2,1:2|0:0,0:0:0:0:
23,85,142426,1,2,1:2:0:0:
23,85,142697,2,0,L|119:58,1,71.9999978027344,2|2,1:2|1:2,0:0:0:0:
137,100,143237,1,2,1:2:0:0:
284,10,144048,2,0,L|311:106,1,71.9999978027344,2|10,1:2|0:2,0:0:0:0:
264,121,144589,5,10,0:2:0:0:
264,121,144859,2,0,L|218:284,1,143.999995605469,4|2,1:0|0:0,0:0:0:0:
241,319,145670,1,0,1:0:0:0:
241,319,145940,2,0,L|337:346,1,71.9999978027344,2|2,1:2|1:2,0:0:0:0:
359,307,146481,1,6,1:2:0:0:
458,374,147021,1,2,0:0:0:0:
458,374,147291,2,0,P|483:281|401:242,1,143.999995605469,2|8,1:2|0:0,0:0:0:0:
400,244,148102,6,0,P|416:160|431:79,1,143.999995605469,4|0,1:0|0:0,0:0:0:0:
460,55,148913,2,0,P|395:71|296:-8,1,143.999995605469,2|0,1:2|1:0,0:0:0:0:
283,3,149724,2,0,B|134:3|200:234|13:213,1,359.999989013672,4|8,1:0|0:0,0:0:0:0:
2,266,151345,6,0,P|84:243|157:232,1,143.999995605469,4|10,0:2|0:2,0:0:0:0:
184,272,152156,1,2,1:2:0:0:
279,337,152697,1,2,0:0:0:0:
279,337,152967,2,0,P|325:285|316:215,1,143.999995605469,4|10,1:0|0:0,0:0:0:0:
295,162,153778,6,0,P|259:155|224:146,1,71.9999978027344,2|10,1:2|0:0,0:0:0:0:
185,188,154318,1,10,0:0:0:0:
185,188,154589,6,0,P|87:179|69:38,1,215.999993408203,2|2,1:2|1:2,0:0:0:0:
208,13,156210,2,0,B|287:34|287:34|333:92|333:92|428:108,1,215.999993408203,2|2,1:2|1:2,0:0:0:0:
447,79,157291,1,10,0:0:0:0:
447,79,157562,1,12,0:0:0:0:
491,115,157832,6,0,P|528:174|462:242,1,143.999995605469,4|10,1:0|0:0,0:0:0:0:
448,267,158643,1,2,1:2:0:0:
368,350,159183,1,2,0:0:0:0:
368,350,159454,2,0,P|304:335|218:324,1,143.999995605469,2|10,1:2|0:0,0:0:0:0:
196,275,160264,6,0,P|154:282|114:293,1,71.9999978027344,2|10,1:2|0:0,0:0:0:0:
84,257,160805,1,10,0:0:0:0:
84,257,161075,6,0,P|40:202|79:86,1,143.999995605469,4|10,1:0|0:0,0:0:0:0:
65,78,161886,1,2,1:2:0:0:
165,18,162426,1,10,0:0:0:0:
165,18,162697,2,0,P|248:39|339:51,1,143.999995605469,10|2,0:0|1:2,0:0:0:0:
325,102,163508,2,0,P|314:147|310:207,1,71.9999978027344,2|2,1:2|1:2,0:0:0:0:
269,216,164048,5,10,0:0:0:0:
269,216,164318,2,0,P|264:257|254:298,1,71.9999978027344,4|2,1:0|1:2,0:0:0:0:
299,334,164859,1,2,1:2:0:0:
299,334,165129,1,2,1:2:0:0:
409,381,165670,1,2,1:2:0:0:
409,381,165940,2,0,P|478:310|427:244,1,143.999995605469,2|2,1:2|1:2,0:0:0:0:
419,248,166751,1,2,1:2:0:0:
458,142,167291,5,2,1:2:0:0:
458,142,167562,2,0,P|414:136|361:123,1,71.9999978027344,2|2,1:2|1:2,0:0:0:0:
352,84,168102,2,0,B|202:97|263:136|94:139,1,215.999993408203,2|2,1:2|1:2,0:0:0:0:
95,167,169183,1,2,1:2:0:0:
16,251,169724,2,0,P|60:258|112:270,1,71.9999978027344,8|2,0:0|1:2,0:0:0:0:
108,316,170264,2,0,P|149:307|190:300,1,71.9999978027344,8|8,0:0|0:0,0:0:0:0:
230,275,170805,6,0,P|219:234|214:192,1,71.9999978027344,4|2,1:0|1:2,0:0:0:0:
169,179,171345,1,2,1:2:0:0:
169,179,171616,1,2,1:2:0:0:
225,80,172156,1,2,1:2:0:0:
225,80,172426,2,0,B|315:69|252:23|399:0,1,143.999995605469,2|2,1:2|1:2,0:0:0:0:
393,46,173237,1,2,1:2:0:0:
470,139,173778,5,2,1:2:0:0:
470,139,174048,2,0,P|457:189|446:241,1,71.9999978027344,4|2,1:0|1:2,0:0:0:0:
403,235,174589,1,2,1:2:0:0:
403,235,174859,2,0,P|353:222|202:187,1,143.999995605469,2|2,1:2|1:2,0:0:0:0:
231,152,175670,1,4,1:2:0:0:
88,250,176481,1,10,0:0:0:0:
204,377,177291,6,0,P|218:335|231:283,1,71.9999978027344,4|2,1:0|0:0,0:0:0:0:
278,284,177832,1,2,1:2:0:0:
278,284,178102,2,0,P|339:222|292:150,1,143.999995605469,8|2,0:0|0:0,0:0:0:0:
285,134,178913,1,2,1:2:0:0:
342,35,179454,1,2,1:2:0:0:
342,35,179724,2,0,P|441:20|517:-1,1,143.999995605469,10|10,0:0|0:0,0:0:0:0:
462,63,180535,6,0,P|474:108|494:172,1,71.9999978027344,4|8,1:0|0:0,0:0:0:0:
453,184,181075,1,0,1:0:0:0:
453,184,181345,1,10,0:0:0:0:
448,302,181886,1,0,1:0:0:0:
448,302,182156,2,0,P|378:247|301:280,1,143.999995605469,4|8,1:0|0:0,0:0:0:0:
279,285,182967,1,8,0:0:0:0:
170,262,183508,1,8,0:0:0:0:
170,262,183778,1,4,1:0:0:0:
103,356,184318,5,8,0:0:0:0:
103,356,184589,2,0,B|63:380|63:380|7:365,1,71.9999978027344,8|8,0:0|0:0,0:0:0:0:
6,325,185129,1,8,0:0:0:0:
6,325,185399,1,2,1:2:0:0:
46,157,186210,2,0,L|19:44,1,71.9999978027344,8|8,0:0|0:0,0:0:0:0:
68,45,186751,5,10,0:0:0:0:
68,45,187021,2,0,B|161:55|134:86|261:85,1,143.999995605469,4|8,1:0|0:0,0:0:0:0:
234,133,187832,2,0,L|255:216,1,71.9999978027344,8|8,0:0|0:0,0:0:0:0:
221,253,188372,1,8,0:0:0:0:
221,253,188643,1,2,1:2:0:0:
343,375,189454,2,0,L|435:353,1,71.9999978027344,8|8,0:0|0:0,0:0:0:0:
448,313,189994,5,10,0:0:0:0:
448,313,190264,2,0,P|479:233|392:188,1,143.999995605469,4|0,1:0|1:0,0:0:0:0:
395,213,191075,1,8,0:0:0:0:
395,213,191345,2,0,L|369:119,1,71.9999978027344,2|0,1:2|1:0,0:0:0:0:
396,89,191886,2,0,L|490:63,2,71.9999978027344,10|8|2,1:2|3:0|3:0,0:0:0:0:
352,50,192697,1,0,1:0:0:0:
352,50,195129,6,0,B|144:101|310:171|77:206,1,287.999991210938,2|2,0:0|0:0,0:0:0:0:
120,198,198372,1,2,0:0:0:0:
120,198,199993,1,2,0:0:0:0:
120,198,201615,6,0,B|154:194|163:158|163:158|152:110|152:110|165:82|193:82|193:82|299:104|299:104|274:115|267:144,1,287.999991210938,2|2,0:0|0:0,0:0:0:0:
286,112,204858,1,2,0:0:0:0:
286,112,206480,1,2,0:0:0:0:
286,112,208101,6,0,B|396:166|396:166|418:243|418:243|531:286,1,287.999991210938,2|2,0:0|0:0,0:0:0:0:
497,273,211345,1,2,0:0:0:0:
497,273,212966,1,2,0:0:0:0:
497,273,214588,6,0,P|421:246|212:344,1,287.999991210938,2|2,0:0|0:0,0:0:0:0:
234,315,217831,1,2,0:0:0:0:
234,315,219453,1,2,0:0:0:0:
234,315,221074,6,0,L|209:226,1,80,4|2,1:0|0:0,0:0:0:0:
164,194,221615,1,10,0:0:0:0:
199,141,221885,2,0,P|287:132|335:206,1,160,2|10,1:2|0:0,0:0:0:0:
360,237,222696,2,0,L|335:326,2,80,2|2|10,1:2|0:0|0:0,0:0:0:0:
422,249,223507,2,0,L|468:105,1,80,2|8,1:2|0:0,0:0:0:0:
411,126,224047,1,10,0:2:0:0:
411,126,224318,1,2,1:2:0:0:
499,33,224858,5,10,0:0:0:0:
443,1,225128,2,0,B|333:10|387:48|265:57,1,160,2|2,1:2|1:2,0:0:0:0:
237,45,225939,2,0,P|166:102|240:187,1,160,6|8,1:2|0:0,0:0:0:0:
222,207,226750,2,0,L|312:228,2,80,0|8|10,1:0|0:0|0:0,0:0:0:0:
198,266,227561,6,0,L|108:287,1,80,4|2,1:0|0:0,0:0:0:0:
69,254,228101,1,10,0:0:0:0:
69,254,228372,1,2,1:2:0:0:
112,136,228912,1,10,0:0:0:0:
112,136,229183,2,0,P|81:106|33:111,2,80,2|2|10,1:2|0:0|0:0,0:0:0:0:
164,171,229993,2,0,L|189:81,1,80,2|8,1:2|0:0,0:0:0:0:
156,42,230534,5,10,0:2:0:0:
156,42,230804,2,0,P|244:56|302:-12,1,160,2|10,1:2|0:2,0:0:0:0:
308,75,231615,2,0,L|425:49,1,80,2|8,1:2|0:0,0:0:0:0:
442,98,232156,1,2,1:2:0:0:
442,98,232426,1,6,1:2:0:0:
479,286,233237,2,0,L|388:264,1,80,8|0,0:0|1:0,0:0:0:0:
367,212,233777,1,8,0:0:0:0:
309,239,234047,6,0,L|267:384,2,80,4|2|10,1:0|0:0|0:0,0:0:0:0:
268,189,234858,2,0,B|164:174|190:228|53:190,1,160,2|10,1:2|0:0,0:0:0:0:
55,235,235669,2,0,P|32:331|98:377,1,160,2|8,1:2|0:0,0:0:0:0:
131,382,236480,2,0,L|281:357,1,80,2|10,1:2|0:0,0:0:0:0:
275,356,237020,1,10,0:0:0:0:
275,356,237291,1,2,1:2:0:0:
333,244,237831,5,10,0:2:0:0:
333,244,238101,2,0,L|310:136,2,80,2|10|2,1:2|0:0|1:2,0:0:0:0:
372,294,238912,2,0,P|447:308|504:256,1,160,6|8,1:2|0:0,0:0:0:0:
512,193,239723,1,2,1:2:0:0:
402,137,240264,1,10,0:0:0:0:
402,137,240534,1,4,1:0:0:0:
507,64,241074,6,0,B|389:54|474:13|332:-7,1,160,10|2,0:2|0:0,0:0:0:0:
320,44,241885,1,8,0:0:0:0:
280,94,242156,2,0,B|179:141|238:165|110:208,1,160,4|8,1:0|0:0,0:0:0:0:
90,192,242966,2,0,P|51:157|81:88,1,80,0|8,1:0|0:0,0:0:0:0:
86,80,243507,1,10,0:2:0:0:
86,80,243777,1,4,1:0:0:0:
193,8,244318,5,10,0:2:0:0:
193,8,244588,2,0,L|238:189,1,160,2|2,1:2|1:2,0:0:0:0:
182,204,245399,2,0,L|150:313,1,80,6|10,1:2|3:2,0:0:0:0:
175,342,245939,1,0,1:0:0:0:
238,336,246210,2,0,L|347:368,1,80,10|8,0:0|0:0,0:0:0:0:
381,376,246750,1,10,0:0:0:0:
381,376,247020,1,4,1:0:0:0:
488,305,247561,6,0,P|517:223|422:150,1,160,8|2,0:0|0:0,0:0:0:0:
417,155,248372,1,8,0:0:0:0:
369,197,248642,2,0,L|156:155,1,160,2|8,1:2|0:0,0:0:0:0:
156,198,249453,1,0,1:0:0:0:
93,184,249723,2,0,P|75:141|135:104,1,80,8|10,0:0|0:0,0:0:0:0:
131,65,250264,1,4,1:0:0:0:
251,17,250804,5,10,0:2:0:0:
251,17,251074,2,0,P|296:27|342:34,1,80,2|8,1:2|0:0,0:0:0:0:
366,84,251615,1,2,1:2:0:0:
429,74,251885,2,0,P|490:163|435:238,1,160,4|8,1:2|0:0,0:0:0:0:
440,256,252696,2,0,P|394:267|350:281,1,80,2|8,1:2|0:0,0:0:0:0:
309,250,253237,1,8,0:0:0:0:
309,250,253507,1,4,1:2:0:0:
309,250,255128,5,2,0:0:0:0:
309,250,256750,5,2,0:0:0:0:
309,250,257561,1,2,0:0:0:0:
309,250,258372,1,2,0:0:0:0:
309,250,259183,1,2,0:0:0:0:
309,250,259993,6,0,P|233:230|96:210,1,160,4|8,1:0|0:0,0:0:0:0:
107,170,260804,2,0,P|112:65|211:56,1,160,0|8,1:0|0:0,0:0:0:0:
215,39,261615,1,0,1:0:0:0:
343,14,262156,1,8,0:0:0:0:
343,14,262426,2,0,P|392:32|481:49,1,80,2|8,1:2|0:0,0:0:0:0:
458,95,262966,5,8,0:0:0:0:
458,95,263237,2,0,B|514:174|514:174|456:270,1,160,4|8,1:0|0:0,0:0:0:0:
467,293,264047,1,0,1:0:0:0:
467,293,264318,2,0,P|421:302|376:314,1,80,10|2,0:0|1:2,0:0:0:0:
334,276,264858,1,2,1:2:0:0:
235,356,265399,1,8,0:0:0:0:
235,356,265669,2,0,P|200:314|227:248,1,80,2|8,1:2|0:0,0:0:0:0:
230,236,266210,5,8,0:0:0:0:
230,236,266480,2,0,L|172:46,1,160,4|8,1:0|0:0,0:0:0:0:
167,20,267291,2,0,B|281:27|203:79|371:81,1,160,0|8,1:0|0:0,0:0:0:0:
360,35,268101,1,2,1:2:0:0:
398,162,268642,1,8,0:0:0:0:
398,162,268912,2,0,B|385:231|385:231|323:271,1,80,2|8,1:2|0:0,0:0:0:0:
332,281,269453,1,8,0:0:0:0:
332,281,269723,6,0,P|411:340|513:298,1,160,4|8,1:0|0:0,0:0:0:0:
480,273,270534,1,0,1:0:0:0:
480,273,270804,2,0,L|497:182,1,80,10|2,0:0|1:2,0:0:0:0:
484,131,271345,1,4,1:0:0:0:
397,44,271885,1,0,1:0:0:0:
397,44,272156,2,0,L|306:27,1,80,10|2,0:2|0:2,0:0:0:0:
263,59,272696,5,10,0:2:0:0:
263,59,272966,2,0,B|183:125|183:125|226:220,1,160,4|8,1:2|0:0,0:0:0:0:
255,217,273777,2,0,L|356:241,2,80,0|2|8,1:0|0:0|0:0,0:0:0:0:
216,268,274588,1,2,1:2:0:0:
127,359,275128,1,8,0:0:0:0:
127,359,275399,2,0,L|0:398,1,80,2|8,1:2|0:0,0:0:0:0:
22,331,275939,5,10,0:0:0:0:
22,331,276210,2,0,L|-5:241,1,80,4|2,1:0|0:0,0:0:0:0:
59,229,276750,1,10,0:0:0:0:
59,229,277020,2,0,P|106:173|10:99,1,160,2|0,1:2|1:0,0:0:0:0:
26,59,277831,1,0,1:0:0:0:
144,4,278372,1,10,0:2:0:0:
144,4,278642,2,0,P|196:18|278:30,1,80,2|10,1:2|0:2,0:0:0:0:
253,84,279183,5,10,0:2:0:0:
253,84,279453,2,0,B|357:105|313:139|457:163,1,160,4|8,1:0|0:0,0:0:0:0:
483,245,280534,2,0,P|439:251|391:261,1,80,2|10,0:0|0:0,0:0:0:0:
356,300,281074,2,0,P|365:345|371:391,2,80,2|2|10,1:2|0:0|0:0,0:0:0:0:
296,276,281885,2,0,P|286:230|280:184,1,80,2|10,1:2|0:0,0:0:0:0:
329,154,282426,5,10,0:0:0:0:
329,154,282696,2,0,P|365:96|255:29,1,160,4|10,1:0|0:2,0:0:0:0:
262,18,283507,1,2,1:2:0:0:
262,18,283777,1,10,0:2:0:0:
191,124,284318,2,0,B|122:148|122:148|103:183|103:183|28:213,1,160,6|2,1:2|1:2,0:0:0:0:
14,246,285128,2,0,P|17:302|60:320,1,80,10|2,0:2|1:2,0:0:0:0:
85,351,285669,1,8,3:0:0:0:
140,319,285939,6,0,P|208:294|279:271,1,120,2|10,1:2|0:2,0:0:0:0:
307,357,286750,2,0,P|359:366|419:383,1,80,10|2,0:0|1:2,0:0:0:0:
448,350,287291,1,2,1:2:0:0:
448,350,287561,2,0,P|507:301|490:235,1,120,2|2,1:2|1:2,0:0:0:0:
425,211,288372,2,0,P|436:165|444:119,1,80,8|2,0:0|1:2,0:0:0:0:
493,93,288912,5,0,1:0:0:0:
493,93,289183,2,0,P|413:70|355:46,1,120,2|10,1:2|0:0,0:0:0:0:
286,81,289993,2,0,P|241:26|257:-11,2,80,10|2|2,0:0|1:2|1:2,0:0:0:0:
302,143,290804,2,0,P|277:208|259:276,1,120,0|0,1:0|1:0,0:0:0:0:
178,301,291615,1,8,0:0:0:0:
39,167,292426,6,0,P|14:99|-9:28,1,120,2|10,1:2|0:0,0:0:0:0:
89,21,293237,2,0,P|134:9|178:-6,1,80,10|2,0:2|1:2,0:0:0:0:
223,36,293777,1,2,1:2:0:0:
223,36,294047,2,0,P|282:85|265:151,1,120,2|2,1:2|1:2,0:0:0:0:
199,173,294858,2,0,P|210:219|218:265,1,80,10|0,0:0|1:0,0:0:0:0:
168,293,295399,5,8,3:0:0:0:
168,293,295669,2,0,P|247:315|305:339,1,120,6|10,1:2|0:0,0:0:0:0:
377,313,296480,2,0,P|432:358|469:342,2,80,8|2|8,0:0|1:2|0:0,0:0:0:0:
343,258,297291,2,0,P|368:193|386:125,1,120,2|2,1:2|1:2,0:0:0:0:
479,118,298101,5,10,0:0:0:0:
479,118,298372,5,10,0:0:0:0:
479,118,298642,5,8,0:0:0:0:
479,118,298912,5,2,0:0:0:0:
256,192,299047,12,2,304588,1:2:0:0:
