osu file format v14

[General]
AudioFilename: audio.mp3
AudioLeadIn: 0
PreviewTime: 195033
Countdown: 0
SampleSet: Soft
StackLeniency: 0.7
Mode: 0
LetterboxInBreaks: 0
WidescreenStoryboard: 1

[Editor]
DistanceSpacing: 0.8
BeatDivisor: 2
GridSize: 32
TimelineZoom: 1

[Metadata]
Title:Virgin Mary feat. Sennzai
TitleUnicode:Virgin Mary feat. Sennzai
Artist:Tokyo.MeltiMelt
ArtistUnicode:Tokyo.MeltiMelt
Creator:-Aqua
Version:Beginner
Source:
Tags:紅雨咲月 Saki Akau 胡桃坂庵 Iwori Kurumizaka Awakening the third Heaven Nameless Replica 3rd Single Japanese Metal Rock Tokyo Melti Melt TokyoMeltiMelt Mocaotic -Hitomi L1ght_u Light_u Erisu Lanzhu Laplus- La+
BeatmapID:3771308
BeatmapSetID:1830770

[Difficulty]
HPDrainRate:2
CircleSize:3
OverallDifficulty:2
ApproachRate:2
SliderMultiplier:0.7
SliderTickRate:0.5

[Events]
//Background and Video events
0,0,"97926118_p1.jpg",0,0
//Break Periods
//Storyboard Layer 0 (Background)
//Storyboard Layer 1 (Fail)
//Storyboard Layer 2 (Pass)
//Storyboard Layer 3 (Foreground)
//Storyboard Layer 4 (Overlay)
//Storyboard Sound Samples

[TimingPoints]
536,270.27027027027,6,2,69,40,1,0
536,-133.333333333333,4,2,69,40,0,0
2157,-100,4,2,68,20,0,0
3779,-133.333333333333,4,2,69,40,0,0
7022,-133.333333333333,4,2,69,50,0,0
8644,-100,4,2,68,35,0,0
10265,-100,4,2,69,50,0,0
12698,-100,4,2,1,30,0,0
12748,-100,4,2,1,15,0,0
13373,-100,4,2,1,5,0,0
13508,-111.111111111111,4,2,1,70,0,0
26481,-111.111111111111,4,2,68,60,0,0
31346,-111.111111111111,4,2,1,70,0,0
32968,-111.111111111111,4,2,1,50,0,0
45941,-111.111111111111,4,2,1,60,0,0
49184,-111.111111111111,4,2,1,70,0,0
62157,-100,4,2,3,85,0,1
62292,-100,4,2,1,85,0,1
94590,-111.111111111111,4,2,1,70,0,0
110806,-111.111111111111,4,2,2,60,0,0
112427,270.27027027027,6,2,1,60,1,0
112427,-200,4,2,1,50,0,0
125399,-133.333333333333,4,2,1,60,0,0
135129,-133.333333333333,4,2,1,50,0,0
138372,-111.111111111111,4,2,1,60,0,0
164318,-111.111111111111,4,2,1,50,0,0
174048,-111.111111111111,4,2,1,60,0,0
177291,-111.111111111111,4,2,1,65,0,0
195129,270.27027027027,6,2,1,60,1,0
195129,-133.333333333333,4,2,68,40,0,0
207291,-100,4,2,68,40,0,0
208101,-133.333333333333,4,2,69,40,0,0
213777,-100,4,2,68,40,0,0
214047,-133.333333333333,4,2,69,40,0,0
217020,-100,4,2,68,40,0,0
217561,-100,4,2,69,40,0,0
220264,-100,4,2,1,40,0,0
221074,-100,4,2,3,85,0,1
221210,-100,4,2,1,85,0,1
253507,-133.333333333333,4,2,2,50,0,0
255129,-133.333333333333,4,2,1,30,0,0
256750,-133.333333333333,4,2,1,35,0,0
258372,-133.333333333333,4,2,1,40,0,0
259183,-133.333333333333,4,2,1,50,0,0
259993,-111.111111111111,4,2,1,70,0,0
285939,-111.111111111111,4,2,1,60,0,0
298912,-111.111111111111,4,2,68,40,0,0
304588,-111.111111111111,4,2,69,40,0,0
305264,-111.111111111111,4,2,2,15,0,0

[Colours]
Combo1 : 255,255,62
Combo2 : 211,211,211
Combo3 : 255,255,168
Combo4 : 105,105,105

[HitObjects]
62,50,536,6,0,B|151:67|88:107|199:121,1,157.500006008148,2|2,0:0|0:0,0:0:0:0:
484,254,3779,2,0,L|464:382,2,105.000004005432,2|2|2,0:0|0:0|0:0,0:0:0:0:
437,181,5400,1,2,0:0:0:0:
437,181,7022,6,0,P|384:136|291:141,1,157.500006008148,2|2,0:0|0:0,0:0:0:0:
69,345,10265,1,2,0:0:0:0:
117,260,11076,1,2,0:0:0:0:
184,330,11887,1,2,0:0:0:0:
184,330,13508,6,0,P|280:314|384:310,1,188.999994232178,4|8,1:0|0:0,0:0:0:0:
449,246,14860,1,8,0:0:0:0:
489,275,15130,2,0,P|494:182|426:157,1,125.999996154785,4|8,1:0|0:0,0:0:0:0:
428,148,15941,1,4,1:0:0:0:
315,47,16752,6,0,B|240:73|240:73|225:112|225:112|121:153,1,188.999994232178,4|8,1:0|0:0,0:0:0:0:
107,221,18103,1,8,0:0:0:0:
74,259,18373,2,0,L|90:368,1,62.9999980773926,0|0,1:0|1:0,0:0:0:0:
114,361,18914,1,10,0:0:0:0:
201,310,19454,1,0,1:0:0:0:
291,355,19995,6,0,B|346:300|346:300|291:149,1,188.999994232178,4|8,1:0|0:0,0:0:0:0:
222,141,21346,1,8,0:0:0:0:
233,91,21617,2,0,P|295:44|358:74,1,125.999996154785,4|8,1:0|0:0,0:0:0:0:
374,87,22427,1,8,0:0:0:0:
504,163,23238,6,0,L|470:407,1,188.999994232178,4|8,1:0|0:0,0:0:0:0:
376,351,24590,1,8,0:0:0:0:
330,373,24860,2,0,L|171:342,1,125.999996154785,0|8,1:0|0:0,0:0:0:0:
187,301,25671,1,8,0:0:0:0:
267,173,26481,5,2,1:2:0:0:
256,192,26752,12,2,29725,1:2:0:0:
256,192,31617,5,8,0:0:0:0:
376,100,32427,1,8,0:0:0:0:
297,36,32968,6,0,P|196:54|62:73,1,188.999994232178,4|10,1:0|0:0,0:0:0:0:
34,132,34319,1,2,0:0:0:0:
44,181,34590,1,2,1:2:0:0:
188,223,35400,1,8,0:0:0:0:
56,297,36211,2,0,B|70:373|70:373|154:363,1,125.999996154785,2|2,1:2|1:2,0:0:0:0:
160,339,37022,1,10,0:0:0:0:
277,244,37833,2,0,B|390:271|325:335|486:350,1,188.999994232178,2|8,1:2|0:0,0:0:0:0:
502,207,39454,6,0,B|532:104|532:104|428:25,1,188.999994232178,4|10,1:0|0:0,0:0:0:0:
386,116,40806,1,2,0:0:0:0:
337,128,41076,1,2,1:2:0:0:
234,16,41887,1,10,0:0:0:0:
133,128,42698,2,0,L|174:284,1,125.999996154785,2|2,1:2|1:2,0:0:0:0:
213,261,43508,1,10,0:0:0:0:
188,358,44049,1,2,0:0:0:0:
138,350,44319,1,2,1:2:0:0:
11,267,45130,1,8,0:0:0:0:
146,199,45941,6,0,L|82:-42,1,188.999994232178,6|2,1:0|0:0,0:0:0:0:
245,47,47563,2,0,L|486:-16,1,188.999994232178,2|2,0:1|0:0,0:0:0:0:
507,127,49184,1,6,1:0:0:0:
427,189,49725,1,8,0:0:0:0:
440,237,49995,1,4,1:0:0:0:
384,377,50806,2,0,P|337:338|262:351,1,125.999996154785,4|8,1:0|0:0,0:0:0:0:
233,370,51617,1,4,1:0:0:0:
163,235,52427,6,0,L|190:9,1,188.999994232178,4|10,1:2|0:0,0:0:0:0:
89,14,53779,1,2,3:2:0:0:
47,27,54049,1,2,1:2:0:0:
42,178,54860,2,0,P|-12:245|53:279,1,125.999996154785,8|8,0:0|0:0,0:0:0:0:
48,280,55671,1,4,1:0:0:0:
162,378,56481,2,0,B|303:352|180:324|378:277,1,188.999994232178,8|2,0:0|1:2,0:0:0:0:
391,366,57833,1,10,0:2:0:0:
437,347,58103,2,0,P|468:334|536:322,1,62.9999980773926,10|8,0:2|0:0,0:0:0:0:
450,236,58914,6,0,P|480:158|362:94,1,188.999994232178,4|8,1:0|0:0,0:0:0:0:
290,178,60536,2,0,P|212:168|134:163,1,125.999996154785,2|2,1:2|3:0,0:0:0:0:
122,137,61346,1,0,1:0:0:0:
225,4,62157,6,0,P|317:15|411:21,1,140,4|10,1:0|0:0,0:0:0:0:
389,69,62968,1,2,1:2:0:0:
445,165,63508,1,10,0:0:0:0:
484,204,63779,2,0,P|518:287|387:326,1,210,2|2,1:2|1:2,0:0:0:0:
321,363,65130,5,10,0:2:0:0:
268,381,65400,2,0,P|177:353|88:331,1,140,2|10,1:2|0:0,0:0:0:0:
27,377,66481,2,0,L|-2:261,1,70,10|2,0:2|1:2,0:0:0:0:
33,257,67022,2,0,P|2:224|38:112,1,140,6|8,1:2|0:0,0:0:0:0:
43,89,67833,1,0,1:0:0:0:
124,12,68373,5,10,0:0:0:0:
156,57,68644,2,0,P|259:30|346:13,1,140,4|10,1:0|0:0,0:0:0:0:
328,64,69454,1,2,1:2:0:0:
423,122,69995,1,10,0:0:0:0:
477,135,70265,1,2,1:2:0:0:
322,201,71076,2,0,P|224:224|140:247,1,140,2|10,1:2|0:2,0:0:0:0:
133,253,71887,5,2,1:2:0:0:
107,362,72427,1,10,0:2:0:0:
161,373,72698,2,0,P|244:350|329:332,1,140,2|2,1:2|1:2,0:0:0:0:
347,361,73508,1,6,1:2:0:0:
500,292,74319,2,0,P|500:203|408:189,1,140,8|8,0:0|0:0,0:0:0:0:
429,135,75130,6,0,P|346:158|261:176,1,140,4|10,1:0|0:0,0:0:0:0:
270,221,75941,1,0,1:0:0:0:
174,162,76481,1,10,0:0:0:0:
130,126,76752,2,0,B|40:179|40:179|101:322,1,210,2|2,1:2|1:2,0:0:0:0:
169,346,78103,5,10,0:0:0:0:
222,363,78373,2,0,P|329:334|405:323,1,140,2|10,1:2|0:2,0:0:0:0:
458,378,79454,2,0,P|501:312|468:286,1,70,10|2,0:0|1:2,0:0:0:0:
497,279,79995,2,0,P|473:195|458:110,1,140,6|8,1:2|0:0,0:0:0:0:
386,61,81076,2,0,P|335:51|285:37,1,70,8|8,0:0|0:0,0:0:0:0:
291,96,81617,6,0,P|216:77|93:54,2,140,4|10|2,1:0|0:2|0:0,0:0:0:0:
365,179,83238,1,4,1:0:0:0:
502,275,84049,2,0,P|522:337|450:385,1,140,0|10,1:0|0:2,0:0:0:0:
420,365,84860,5,4,1:0:0:0:
310,341,85400,1,10,0:2:0:0:
254,331,85671,1,2,1:2:0:0:
149,369,86211,1,2,1:2:0:0:
97,348,86481,2,0,B|51:299|51:299|65:176,1,140,6|0,1:2|1:0,0:0:0:0:
89,179,87292,1,10,0:0:0:0:
186,233,87833,5,10,0:0:0:0:
229,268,88103,2,0,B|314:248|258:200|381:161,1,140,4|8,1:0|0:0,0:0:0:0:
309,71,89184,1,2,0:0:0:0:
421,67,89725,2,0,P|506:152|424:243,1,210,2|0,1:2|1:0,0:0:0:0:
415,315,91076,5,10,0:0:0:0:
359,319,91346,2,0,P|280:291|168:263,1,140,4|10,1:0|0:2,0:0:0:0:
184,313,92157,1,2,1:2:0:0:
93,378,92698,1,2,1:2:0:0:
42,354,92968,1,4,1:2:0:0:
10,188,93779,2,0,P|15:103|78:69,1,140,2|8,1:2|0:0,0:0:0:0:
104,79,94590,6,0,P|217:102|344:123,1,188.999994232178,4|8,1:0|0:0,0:0:0:0:
384,80,95942,1,8,0:0:0:0:
410,37,96212,2,0,P|485:43|516:105,1,125.999996154785,4|8,1:0|0:0,0:0:0:0:
503,129,97023,1,8,0:0:0:0:
409,247,97834,6,0,B|297:269|357:317|229:326,1,188.999994232178,4|8,1:0|0:0,0:0:0:0:
156,378,99185,1,8,0:0:0:0:
110,355,99455,2,0,L|1:339,1,62.9999980773926,4|0,1:0|1:0,0:0:0:0:
17,305,99996,1,8,0:0:0:0:
82,228,100536,1,0,1:0:0:0:
172,271,101076,6,0,B|294:265|229:191|373:181,1,188.999994232178,4|8,1:0|0:0,0:0:0:0:
406,256,102428,1,8,0:0:0:0:
445,224,102699,2,0,L|466:61,1,125.999996154785,4|8,1:0|0:0,0:0:0:0:
470,49,103509,1,8,0:0:0:0:
319,59,104320,6,0,L|75:93,1,188.999994232178,4|8,1:0|0:0,0:0:0:0:
46,138,105672,1,8,0:0:0:0:
22,182,105941,2,0,L|53:341,1,125.999996154785,4|8,1:0|0:0,0:0:0:0:
81,341,106753,1,10,0:0:0:0:
229,371,107563,6,0,L|340:349,1,94.499997116089,4|0,1:0|1:0,0:0:0:0:
354,284,108373,1,4,3:0:0:0:
211,232,109184,2,0,P|176:202|195:139,1,94.499997116089,4|2,3:0|1:2,0:0:0:0:
237,109,109995,1,8,0:0:0:0:
236,109,112427,6,0,B|364:134|267:230|419:228,1,210,14|0,1:3|0:0,0:0:0:0:
329,382,115670,2,0,P|283:330|140:349,1,210,14|0,1:3|0:0,0:0:0:0:
39,213,118913,1,14,1:3:0:0:
184,129,120535,1,0,0:0:0:0:
184,129,122156,6,0,L|209:2,2,105,14|0|0,1:3|0:0|0:0,0:0:0:0:
242,201,124679,1,0,0:0:0:0:
317,146,125399,6,0,P|401:134|448:228,1,157.500006008148,2|0,1:0|0:0,0:0:0:0:
485,302,127021,2,0,P|400:290|353:384,1,157.500006008148,14|0,1:3|0:0,0:0:0:0:
241,283,128643,1,14,1:3:0:0:
161,380,129454,1,0,0:0:0:0:
64,299,130264,2,0,L|96:161,1,105.000004005432,14|0,1:3|0:0,0:0:0:0:
224,98,131886,6,0,P|312:126|295:355,1,315.000012016297,14|14,1:3|1:3,0:0:0:0:
495,362,135129,5,4,1:0:0:0:
495,362,136751,1,2,3:2:0:0:
388,295,137562,2,0,L|414:156,1,105.000004005432,10|10,3:0|3:0,0:0:0:0:
443,156,138372,6,0,P|367:102|245:128,1,188.999994232178,4|2,1:0|1:2,0:0:0:0:
154,17,139994,2,0,L|-5:54,1,125.999996154785,2|2,1:2|0:0,0:0:0:0:
19,94,140805,1,2,1:2:0:0:
75,177,141345,1,10,0:2:0:0:
124,165,141616,2,0,B|239:220|239:220|198:315,1,188.999994232178,2|2,1:2|1:2,0:0:0:0:
244,372,142967,1,2,1:2:0:0:
294,373,143237,2,0,L|368:349,1,62.9999980773926,2|2,1:2|1:2,0:0:0:0:
383,257,144048,1,2,1:2:0:0:
470,307,144589,5,10,0:2:0:0:
509,337,144859,2,0,P|532:249|412:198,1,188.999994232178,4|0,1:0|1:0,0:0:0:0:
319,229,146481,2,0,L|143:192,1,125.999996154785,6|2,1:2|0:0,0:0:0:0:
178,155,147291,1,2,1:2:0:0:
303,70,148102,2,0,B|399:93|373:-32|504:20,1,188.999994232178,4|2,1:0|1:2,0:0:0:0:
492,108,149454,1,0,1:0:0:0:
499,157,149724,2,0,L|101:213,1,377.999988464356,4|4,1:0|0:2,0:0:0:0:
226,321,152156,5,2,1:2:0:0:
298,188,152967,2,0,P|329:129|176:88,1,251.999992309571,4|10,1:0|0:0,0:0:0:0:
153,79,154318,1,10,0:0:0:0:
134,125,154589,1,2,1:2:0:0:
29,234,155399,6,0,B|46:311|46:311|203:282,1,188.999994232178,2|2,1:2|1:2,0:0:0:0:
303,263,157021,2,0,L|416:301,1,62.9999980773926,2|10,1:2|0:0,0:0:0:0:
380,330,157562,1,12,0:0:0:0:
411,368,157832,1,4,1:0:0:0:
489,238,158643,5,2,1:2:0:0:
387,125,159454,2,0,B|204:136|329:196|118:198,1,251.999992309571,2|10,1:2|0:0,0:0:0:0:
120,236,160805,5,10,0:0:0:0:
79,265,161075,2,0,B|207:274|143:311|313:323,1,188.999994232178,4|2,1:0|1:2,0:0:0:0:
400,370,162697,2,0,P|469:325|398:228,1,188.999994232178,10|2,0:0|1:2,0:0:0:0:
483,147,164048,5,10,0:0:0:0:
460,101,164318,2,0,P|368:77|264:55,1,188.999994232178,4|2,1:0|1:2,0:0:0:0:
214,137,165670,1,2,1:2:0:0:
169,161,165940,1,2,1:2:0:0:
278,265,166751,1,2,1:2:0:0:
158,357,167562,2,0,P|74:373|-6:395,1,125.999996154785,2|2,1:2|1:2,0:0:0:0:
48,232,168913,1,2,1:2:0:0:
22,188,169183,2,0,B|-14:78|-14:78|99:29,1,188.999994232178,2|2,1:2|1:2,0:0:0:0:
199,8,170805,6,0,B|227:152|249:67|282:233,1,188.999994232178,4|2,1:0|1:2,0:0:0:0:
194,248,172157,1,2,1:2:0:0:
214,293,172427,1,2,1:2:0:0:
346,365,173237,1,2,1:2:0:0:
487,310,174049,2,0,L|515:150,1,125.999996154785,4|2,1:0|1:2,0:0:0:0:
469,154,174859,1,2,1:2:0:0:
369,169,175400,1,2,1:2:0:0:
320,181,175670,1,4,1:2:0:0:
226,62,176481,1,10,0:0:0:0:
124,174,177291,6,0,B|-13:213|-13:213|7:293,1,188.999994232178,4|8,1:0|0:0,0:0:0:0:
86,307,178643,1,2,0:0:0:0:
121,342,178913,2,0,B|256:342|198:390|351:384,1,188.999994232178,2|10,1:2|0:0,0:0:0:0:
424,293,180535,2,0,P|463:212|353:148,1,188.999994232178,4|10,1:0|0:0,0:0:0:0:
270,215,182156,1,4,1:0:0:0:
129,157,182967,1,8,0:0:0:0:
56,226,183508,5,8,0:0:0:0:
16,195,183778,2,0,B|-45:85|49:3,1,188.999994232178,4|8,1:0|0:0,0:0:0:0:
114,77,185129,1,8,0:0:0:0:
162,64,185399,1,2,1:2:0:0:
299,0,186210,2,0,B|426:19|349:66|523:98,1,188.999994232178,8|4,0:0|1:0,0:0:0:0:
473,235,187832,2,0,P|383:205|306:183,1,125.999996154785,8|8,0:0|0:0,0:0:0:0:
304,209,188643,1,2,1:2:0:0:
229,77,189454,2,0,P|192:89|155:101,1,62.9999980773926,8|8,0:0|0:0,0:0:0:0:
118,93,189994,1,10,0:0:0:0:
69,80,190264,1,4,1:0:0:0:
22,276,191345,6,0,P|27:343|116:362,1,125.999996154785,2|10,1:2|1:2,0:0:0:0:
179,263,192697,1,0,1:0:0:0:
97,109,195129,6,0,B|273:172|196:178|395:243,1,315.000012016297,2|2,0:0|0:0,0:0:0:0:
97,109,201615,6,0,B|272:138|208:230|395:243,1,315.000012016297,2|2,0:0|0:0,0:0:0:0:
97,109,208101,6,0,B|189:100|233:175|233:175|292:262|380:229,1,315.000012016297,2|2,0:0|0:0,0:0:0:0:
97,109,214588,6,0,B|197:66|257:169|196:198|262:292|374:226,1,315.000012016297,2|2,0:0|0:0,0:0:0:0:
217,383,221074,6,0,P|125:372|31:366,1,140,4|10,1:0|0:0,0:0:0:0:
35,331,221885,1,2,1:2:0:0:
122,261,222425,1,10,0:0:0:0:
153,214,222696,2,0,B|108:103|170:111|111:-52,1,210,2|2,1:2|1:2,0:0:0:0:
225,64,224047,5,10,0:2:0:0:
254,111,224317,2,0,P|359:94|461:84,1,140,2|10,1:2|0:0,0:0:0:0:
407,35,225129,1,2,1:2:0:0:
495,103,225669,1,2,1:2:0:0:
503,158,225939,2,0,P|528:227|386:282,1,210,6|0,1:2|1:0,0:0:0:0:
368,212,227290,5,10,0:0:0:0:
329,171,227561,2,0,P|226:198|139:215,1,140,4|10,1:0|0:0,0:0:0:0:
153,243,228371,1,2,1:2:0:0:
101,342,228912,1,10,0:0:0:0:
147,373,229182,1,2,1:2:0:0:
301,307,229993,2,0,P|386:324|470:347,1,140,2|10,1:2|0:2,0:0:0:0:
480,301,230804,5,2,1:2:0:0:
416,208,231344,1,10,0:2:0:0:
466,184,231615,2,0,B|493:125|493:125|403:46,1,140,2|2,1:2|1:2,0:0:0:0:
385,98,232425,1,6,1:2:0:0:
239,13,233236,2,0,P|156:7|117:79,1,140,8|8,0:0|0:0,0:0:0:0:
74,74,234047,6,0,P|56:158|32:242,1,140,4|10,1:0|0:0,0:0:0:0:
84,246,234858,1,2,1:2:0:0:
123,350,235399,1,10,0:0:0:0:
174,371,235669,1,2,1:2:0:0:
318,285,236480,6,0,P|402:302|486:326,1,140,2|10,1:2|0:0,0:0:0:0:
499,349,237291,1,2,1:2:0:0:
465,184,238101,2,0,P|422:194|380:202,2,70,2|10|2,1:2|0:0|1:2,0:0:0:0:
496,137,238912,2,0,P|504:61|445:33,1,140,6|8,1:2|0:0,0:0:0:0:
400,33,239723,1,2,1:2:0:0:
304,171,240534,6,0,L|346:369,2,140,4|10|2,1:0|0:2|0:0,0:0:0:0:
213,104,242155,1,4,1:0:0:0:
72,11,242966,2,0,L|30:209,1,140,0|10,1:0|0:2,0:0:0:0:
6,190,243777,5,4,1:0:0:0:
47,293,244317,1,10,0:2:0:0:
95,320,244588,1,2,1:2:0:0:
188,381,245128,1,2,1:2:0:0:
218,333,245399,2,0,L|416:291,1,140,6|0,1:2|1:0,0:0:0:0:
378,253,246209,1,10,0:0:0:0:
274,210,246750,5,10,0:0:0:0:
225,182,247020,2,0,B|220:85|261:144|248:11,1,140,4|8,1:0|0:0,0:0:0:0:
357,12,248101,1,2,0:0:0:0:
457,61,248642,2,0,L|499:319,1,210,2|0,1:2|1:0,0:0:0:0:
404,339,249993,5,10,0:0:0:0:
359,373,250263,2,0,P|279:345|316:256,1,140,4|10,1:0|0:2,0:0:0:0:
253,247,251074,1,2,1:2:0:0:
333,168,251615,1,2,1:2:0:0:
325,112,251885,1,4,1:2:0:0:
170,46,252696,2,0,B|104:26|104:26|70:89,1,140,2|8,1:2|0:0,0:0:0:0:
83,128,253507,5,4,1:2:0:0:
37,375,255129,1,2,0:0:0:0:
288,375,256750,6,0,P|359:354|487:327,1,157.500006008148,2|2,0:0|0:0,0:0:0:0:
503,226,258372,1,2,0:0:0:0:
394,162,259183,1,2,0:0:0:0:
480,37,259993,6,0,P|372:50|306:-17,1,188.999994232178,4|0,1:0|1:0,0:0:0:0:
176,63,261615,1,0,1:0:0:0:
234,145,262156,1,8,0:0:0:0:
200,182,262426,2,0,L|225:352,1,125.999996154785,2|8,1:2|0:0,0:0:0:0:
228,356,263237,1,4,1:0:0:0:
58,246,264318,2,0,L|44:153,1,62.9999980773926,10|2,0:0|1:2,0:0:0:0:
8,153,264858,2,0,P|4:81|128:77,1,188.999994232178,2|2,1:2|1:2,0:0:0:0:
200,32,266210,5,8,0:0:0:0:
243,57,266480,2,0,B|256:211|215:120|241:299,1,188.999994232178,4|0,1:0|1:0,0:0:0:0:
325,365,268101,1,2,1:2:0:0:
465,308,268912,2,0,B|477:217|445:263|463:135,1,125.999996154785,2|8,1:2|0:0,0:0:0:0:
461,132,269723,1,4,1:0:0:0:
296,15,270804,2,0,P|257:6|220:-4,1,62.9999980773926,10|2,0:0|1:2,0:0:0:0:
198,35,271345,2,0,P|120:92|182:203,1,188.999994232178,4|10,1:0|0:2,0:0:0:0:
234,162,272696,5,10,0:2:0:0:
278,138,272966,2,0,B|390:134|352:179|501:170,1,188.999994232178,4|0,1:2|1:0,0:0:0:0:
504,262,274318,1,8,0:0:0:0:
492,311,274588,1,2,1:2:0:0:
356,378,275399,2,0,P|278:366|200:362,1,125.999996154785,2|10,1:2|0:0,0:0:0:0:
206,318,276210,1,4,1:0:0:0:
121,372,276750,5,10,0:0:0:0:
76,348,277020,1,2,1:2:0:0:
8,212,277831,2,0,P|-16:121|82:85,1,188.999994232178,0|2,1:0|1:2,0:0:0:0:
110,162,279183,1,10,0:2:0:0:
142,200,279453,2,0,P|260:205|378:224,1,188.999994232178,4|2,1:0|1:2,0:0:0:0:
425,182,280804,1,10,0:0:0:0:
463,149,281074,2,0,P|447:52|382:44,1,125.999996154785,2|10,1:2|0:0,0:0:0:0:
381,41,281885,1,2,1:2:0:0:
280,30,282426,5,10,0:0:0:0:
230,21,282696,2,0,P|164:42|7:90,1,188.999994232178,4|2,1:0|1:2,0:0:0:0:
121,147,284047,1,2,1:2:0:0:
100,193,284318,2,0,P|114:236|146:341,1,125.999996154785,6|2,1:2|1:2,0:0:0:0:
184,332,285129,1,10,0:2:0:0:
324,277,285939,6,0,P|356:240|341:172,1,94.499997116089,2|10,1:2|0:2,0:0:0:0:
296,149,286750,1,10,0:0:0:0:
151,192,287561,2,0,P|83:153|104:52,1,188.999994232178,2|8,1:2|0:0,0:0:0:0:
244,10,289183,6,0,P|294:20|364:30,1,94.499997116089,2|10,1:2|0:0,0:0:0:0:
355,99,289993,1,10,0:0:0:0:
502,66,290804,2,0,L|466:272,1,188.999994232178,0|8,1:0|0:0,0:0:0:0:
357,353,292426,6,0,P|306:342|236:333,1,94.499997116089,2|10,1:2|0:0,0:0:0:0:
229,268,293236,1,10,0:2:0:0:
354,184,294047,2,0,B|363:79|391:139|407:-11,1,188.999994232178,2|10,1:2|0:0,0:0:0:0:
258,40,295669,6,0,P|207:50|137:60,1,94.499997116089,6|10,1:2|0:0,0:0:0:0:
109,107,296479,1,8,0:0:0:0:
231,195,297291,2,0,P|238:233|248:303,2,94.499997116089,2|2|10,1:2|1:2|0:0,0:0:0:0:
274,169,298372,1,10,0:0:0:0:
321,152,298642,1,8,0:0:0:0:
256,192,298912,12,2,304588,1:2:0:0:
