osu file format v14

[General]
AudioFilename: audio.mp3
AudioLeadIn: 0
PreviewTime: 122818
Countdown: 0
SampleSet: Normal
StackLeniency: 0.7
Mode: 1
LetterboxInBreaks: 0
WidescreenStoryboard: 0

[Editor]
DistanceSpacing: 1.3
BeatDivisor: 2
GridSize: 8
TimelineZoom: 0.8

[Metadata]
Title:OKAY
TitleUnicode:OKAY
Artist:Tokyo Machine
ArtistUnicode:Tokyo Machine
Creator:trollocat
Version:KANTAN
Source:
Tags:electronic instrumental monstercat 8-bit uproar supremacy
BeatmapID:2497913
BeatmapSetID:1198443

[Difficulty]
HPDrainRate:8
CircleSize:4
OverallDifficulty:3
ApproachRate:4
SliderMultiplier:1.4
SliderTickRate:1

[Events]
//Background and Video events
0,0,"pastel-kawaii-wallpaper-download-16.png",0,0
//Break Periods
//Storyboard Layer 0 (Background)
//Storyboard Layer 1 (Fail)
//Storyboard Layer 2 (Pass)
//Storyboard Layer 3 (Foreground)
//Storyboard Layer 4 (Overlay)
//Storyboard Sound Samples

[TimingPoints]
-932,468.75,4,1,0,85,1,0
45943,-90.9090909090909,4,1,0,100,0,1
75943,-100,4,1,0,100,0,0
91175,-90.9090909090909,4,1,0,100,0,0
91644,-90.9090909090909,4,1,0,90,0,0
92112,-90.9090909090909,4,1,0,80,0,0
92581,-90.9090909090909,4,1,0,70,0,0
93050,-90.9090909090909,4,1,0,60,0,0
94691,-100,4,1,0,85,0,0
124693,-90.9090909090909,4,1,0,100,0,1
154693,-100,4,1,0,100,0,0
184927,-100,4,1,0,50,0,0
185161,-100,4,1,0,38,0,0
185396,-100,4,1,0,25,0,0

[HitObjects]
254,224,474,5,0,0:0:0:0:
214,136,943,1,8,0:0:0:0:
214,136,1646,1,0,0:0:0:0:
254,224,2349,1,8,0:0:0:0:
254,224,2818,1,8,0:0:0:0:
254,224,3521,1,0,0:0:0:0:
254,224,4224,1,8,0:0:0:0:
254,224,4693,1,0,0:0:0:0:
254,224,5396,1,0,0:0:0:0:
254,224,6333,1,8,0:0:0:0:
254,224,6802,1,0,0:0:0:0:
254,224,7271,1,0,0:0:0:0:
254,224,7974,1,0,0:0:0:0:
254,224,8443,1,8,0:0:0:0:
254,224,9146,1,0,0:0:0:0:
254,224,9849,1,0,0:0:0:0:
254,224,10318,1,8,0:0:0:0:
196,18,11021,1,0,0:0:0:0:
196,18,11724,1,8,0:0:0:0:
196,18,12193,1,8,0:0:0:0:
215,17,12896,1,8,0:0:0:0:
215,17,13833,1,0,0:0:0:0:
215,17,14302,1,8,0:0:0:0:
215,17,14771,1,0,0:0:0:0:
215,17,15943,1,12,0:0:0:0:
215,17,16646,1,0,0:0:0:0:
215,17,17818,1,0,0:0:0:0:
215,17,18521,1,8,0:0:0:0:
215,17,19693,1,8,0:0:0:0:
215,17,20396,1,8,0:0:0:0:
215,17,20864,1,8,0:0:0:0:
215,17,21333,1,0,0:0:0:0:
215,17,21802,1,0,0:0:0:0:
215,17,22271,1,0,0:0:0:0:
215,17,23443,1,12,0:0:0:0:
215,17,24146,1,0,0:0:0:0:
215,17,25318,1,0,0:0:0:0:
215,17,26021,1,8,0:0:0:0:
215,17,27193,1,8,0:0:0:0:
215,17,27896,1,8,0:0:0:0:
215,17,28364,1,0,0:0:0:0:
215,17,29068,1,8,0:0:0:0:
215,17,29536,1,8,0:0:0:0:
215,17,30005,1,8,0:0:0:0:
215,17,30943,1,12,0:0:0:0:
215,17,31880,1,0,0:0:0:0:
215,17,32818,1,0,0:0:0:0:
215,17,33286,1,0,0:0:0:0:
215,17,33755,1,0,0:0:0:0:
215,17,34693,1,0,0:0:0:0:
215,17,35630,1,8,0:0:0:0:
215,17,36568,1,0,0:0:0:0:
215,17,37036,1,0,0:0:0:0:
215,17,37505,1,0,0:0:0:0:
215,17,38443,1,8,0:0:0:0:
215,17,39380,1,8,0:0:0:0:
215,17,40318,1,8,0:0:0:0:
215,17,41255,1,8,0:0:0:0:
215,17,42193,1,8,0:0:0:0:
215,17,42661,1,0,0:0:0:0:
215,17,43130,1,8,0:0:0:0:
215,17,43599,1,0,0:0:0:0:
215,17,44068,1,8,0:0:0:0:
215,17,44536,1,8,0:0:0:0:
215,17,44771,1,8,0:0:0:0:
215,17,45943,1,0,0:0:0:0:
215,17,46411,1,0,0:0:0:0:
215,17,46880,1,8,0:0:0:0:
215,17,47818,1,0,0:0:0:0:
215,17,48286,1,0,0:0:0:0:
215,17,48755,1,0,0:0:0:0:
215,17,49693,1,0,0:0:0:0:
215,17,50630,1,8,0:0:0:0:
215,17,51099,1,0,0:0:0:0:
215,17,51333,1,0,0:0:0:0:
215,17,51568,1,0,0:0:0:0:
215,17,52974,1,8,0:0:0:0:
215,17,53443,1,0,0:0:0:0:
215,17,53911,1,0,0:0:0:0:
215,17,54380,1,8,0:0:0:0:
215,17,55318,1,0,0:0:0:0:
215,17,55786,1,0,0:0:0:0:
215,17,56255,1,0,0:0:0:0:
215,17,57193,1,0,0:0:0:0:
215,17,58130,1,8,0:0:0:0:
215,17,58599,1,8,0:0:0:0:
215,17,58833,1,8,0:0:0:0:
215,17,59068,1,8,0:0:0:0:
215,17,60474,1,8,0:0:0:0:
215,17,60943,1,0,0:0:0:0:
215,17,61411,1,0,0:0:0:0:
215,17,61880,1,8,0:0:0:0:
215,17,62818,1,0,0:0:0:0:
215,17,63286,1,8,0:0:0:0:
215,17,63755,1,8,0:0:0:0:
215,17,64224,1,0,0:0:0:0:
215,17,64693,1,0,0:0:0:0:
215,17,65630,1,8,0:0:0:0:
215,17,66099,1,0,0:0:0:0:
215,17,66333,1,0,0:0:0:0:
215,17,66568,1,0,0:0:0:0:
215,17,67974,1,8,0:0:0:0:
215,17,68443,1,0,0:0:0:0:
215,17,68911,1,0,0:0:0:0:
215,17,69380,1,8,0:0:0:0:
215,17,70318,1,0,0:0:0:0:
215,17,70786,1,0,0:0:0:0:
215,17,71255,1,0,0:0:0:0:
215,17,72193,1,0,0:0:0:0:
215,17,73130,1,8,0:0:0:0:
215,17,74068,1,0,0:0:0:0:
215,17,74536,1,8,0:0:0:0:
215,17,75005,1,0,0:0:0:0:
215,17,75943,1,12,0:0:0:0:
215,17,76646,1,0,0:0:0:0:
215,17,77818,1,8,0:0:0:0:
215,17,78521,1,8,0:0:0:0:
215,17,79693,1,0,0:0:0:0:
215,17,80396,1,8,0:0:0:0:
215,17,81568,1,0,0:0:0:0:
215,17,82271,1,0,0:0:0:0:
215,17,83443,1,8,0:0:0:0:
215,17,84146,1,0,0:0:0:0:
215,17,85318,1,8,0:0:0:0:
215,17,86021,1,0,0:0:0:0:
215,17,87193,1,0,0:0:0:0:
197,13,87896,1,8,0:0:0:0:
215,17,89068,1,0,0:0:0:0:
215,17,89536,1,8,0:0:0:0:
215,17,90005,1,0,0:0:0:0:
215,17,90474,1,8,0:0:0:0:
215,17,90943,1,0,0:0:0:0:
256,192,91177,8,0,93755,0:0:0:0:
215,17,94693,5,8,0:0:0:0:
215,17,95396,1,0,0:0:0:0:
215,17,96568,1,8,0:0:0:0:
406,211,97271,1,0,0:0:0:0:
406,211,98443,1,8,0:0:0:0:
406,211,99146,1,0,0:0:0:0:
406,211,100083,1,8,0:0:0:0:
406,211,101021,1,0,0:0:0:0:
406,211,102193,1,8,0:0:0:0:
406,211,102896,1,0,0:0:0:0:
215,17,104068,1,8,0:0:0:0:
215,17,104771,1,0,0:0:0:0:
215,17,105943,1,8,0:0:0:0:
215,17,106646,1,8,0:0:0:0:
215,17,107583,1,8,0:0:0:0:
215,17,108521,1,0,0:0:0:0:
215,17,109693,1,12,0:0:0:0:
215,17,110630,1,0,0:0:0:0:
215,17,111568,1,0,0:0:0:0:
215,17,112036,1,0,0:0:0:0:
215,17,112505,1,0,0:0:0:0:
215,17,113443,1,0,0:0:0:0:
215,17,114380,1,8,0:0:0:0:
215,17,115318,1,0,0:0:0:0:
215,17,115786,1,0,0:0:0:0:
215,17,116255,1,0,0:0:0:0:
215,17,117193,1,8,0:0:0:0:
215,17,118130,1,0,0:0:0:0:
215,17,119068,1,8,0:0:0:0:
215,17,120005,1,0,0:0:0:0:
215,17,120943,1,8,0:0:0:0:
215,17,121411,1,0,0:0:0:0:
215,17,121880,1,8,0:0:0:0:
215,17,122349,1,8,0:0:0:0:
215,17,122818,1,0,0:0:0:0:
215,17,124693,1,0,0:0:0:0:
215,17,125161,1,8,0:0:0:0:
215,17,125630,1,0,0:0:0:0:
215,17,126099,1,8,0:0:0:0:
215,17,126568,1,0,0:0:0:0:
215,17,127505,1,0,0:0:0:0:
215,17,128443,1,0,0:0:0:0:
215,17,128911,1,8,0:0:0:0:
215,17,129380,1,0,0:0:0:0:
215,17,129849,1,0,0:0:0:0:
215,17,130318,1,8,0:0:0:0:
215,17,131255,1,0,0:0:0:0:
215,17,132193,1,0,0:0:0:0:
215,17,132661,1,8,0:0:0:0:
215,17,133130,1,0,0:0:0:0:
215,17,133599,1,8,0:0:0:0:
215,17,134068,1,0,0:0:0:0:
215,17,135005,1,0,0:0:0:0:
215,17,135943,1,0,0:0:0:0:
215,17,136411,1,8,0:0:0:0:
215,17,136880,1,0,0:0:0:0:
215,17,137349,1,0,0:0:0:0:
215,17,137818,1,8,0:0:0:0:
215,17,138755,1,8,0:0:0:0:
215,17,139693,1,0,0:0:0:0:
215,17,140161,1,0,0:0:0:0:
215,17,140630,1,8,0:0:0:0:
215,17,141568,1,0,0:0:0:0:
215,17,142036,1,8,0:0:0:0:
215,17,142505,1,8,0:0:0:0:
215,17,143443,1,0,0:0:0:0:
215,17,144380,1,8,0:0:0:0:
215,17,144849,1,0,0:0:0:0:
215,17,145083,1,0,0:0:0:0:
215,17,145318,1,0,0:0:0:0:
215,17,146724,1,8,0:0:0:0:
215,17,147193,1,0,0:0:0:0:
215,17,147661,1,0,0:0:0:0:
215,17,148130,1,8,0:0:0:0:
215,17,149068,1,0,0:0:0:0:
215,17,149536,1,0,0:0:0:0:
215,17,150005,1,0,0:0:0:0:
215,17,150943,1,0,0:0:0:0:
215,17,151880,1,8,0:0:0:0:
215,17,152818,1,0,0:0:0:0:
215,17,153286,1,8,0:0:0:0:
215,17,153755,1,0,0:0:0:0:
215,17,154693,1,8,0:0:0:0:
215,17,155396,1,0,0:0:0:0:
215,17,156568,1,8,0:0:0:0:
215,17,157271,1,8,0:0:0:0:
215,17,158443,1,0,0:0:0:0:
215,17,159146,1,8,0:0:0:0:
215,17,160083,1,8,0:0:0:0:
215,17,160552,1,0,0:0:0:0:
215,17,161021,1,0,0:0:0:0:
215,17,162193,1,8,0:0:0:0:
215,17,162896,1,0,0:0:0:0:
215,17,164068,1,8,0:0:0:0:
215,17,164771,1,8,0:0:0:0:
215,17,165943,1,0,0:0:0:0:
215,17,166646,1,8,0:0:0:0:
215,17,167818,1,0,0:0:0:0:
215,17,168286,1,0,0:0:0:0:
215,17,168755,1,0,0:0:0:0:
215,17,169693,1,8,0:0:0:0:
215,17,170396,1,0,0:0:0:0:
215,17,171099,1,0,0:0:0:0:
215,17,171568,1,8,0:0:0:0:
215,17,172271,1,0,0:0:0:0:
215,17,172974,1,0,0:0:0:0:
215,17,173443,1,0,0:0:0:0:
215,17,174146,1,8,0:0:0:0:
215,17,175083,1,8,0:0:0:0:
215,17,175552,1,0,0:0:0:0:
215,17,176021,1,0,0:0:0:0:
215,17,177193,1,8,0:0:0:0:
215,17,178130,1,0,0:0:0:0:
215,17,179068,1,8,0:0:0:0:
215,17,180005,1,0,0:0:0:0:
215,17,180943,1,8,0:0:0:0:
215,17,182818,1,0,0:0:0:0:
215,17,184224,1,8,0:0:0:0:
256,192,184927,8,0,185630,0:0:0:0:
