osu file format v14

[General]
AudioFilename: audio.mp3
AudioLeadIn: 0
PreviewTime: 45360
Countdown: 0
SampleSet: Soft
StackLeniency: 0.7
Mode: 2
LetterboxInBreaks: 0
WidescreenStoryboard: 0

[Editor]
DistanceSpacing: 1.3
BeatDivisor: 6
GridSize: 8
TimelineZoom: 1.5

[Metadata]
Title:OKAY
TitleUnicode:OKAY
Artist:Tokyo Machine
ArtistUnicode:Tokyo Machine
Creator:WildOne94
Version:Salad
Source:
Tags:Monstercat Electronic 8-bit Xinely uproar supremacy
BeatmapID:1079737
BeatmapSetID:506237

[Difficulty]
HPDrainRate:4
CircleSize:3
OverallDifficulty:7
ApproachRate:7
SliderMultiplier:1.6
SliderTickRate:1

[Events]
//Background and Video events
0,0,"cute-anime-animal-wallpaper-cute-pokemon-wallpaper.jpg",0,0
//Break Periods
2,94814,101142
//Storyboard Layer 0 (Background)
//Storyboard Layer 1 (Fail)
//Storyboard Layer 2 (Pass)
//Storyboard Layer 3 (Foreground)
//Storyboard Sound Samples

[TimingPoints]
1064,468.75,4,2,2,40,1,0
14189,-100,4,2,2,45,0,0
15595,-100,4,2,2,35,0,0
16064,-100,4,2,1,60,0,0
22860,-100,4,2,1,50,0,0
23564,-100,4,2,1,70,0,0
29189,-100,4,2,1,75,0,0
31064,-100,4,2,1,40,0,0
38564,-100,4,2,1,50,0,0
40439,-100,4,2,1,55,0,0
42314,-100,4,2,1,60,0,0
43251,-100,4,2,1,70,0,0
44189,-100,4,2,1,80,0,0
45360,-100,4,2,1,15,0,0
46064,-100,4,2,1,80,0,1
51689,-100,4,2,1,90,0,1
52860,-100,4,2,1,60,0,1
53564,-100,4,2,1,80,0,1
59189,-100,4,2,1,60,0,0
60595,-100,4,2,1,70,0,0
61064,-100,4,2,1,80,0,1
66689,-100,4,2,1,90,0,1
67860,-100,4,2,1,60,0,1
68564,-100,4,2,1,80,0,1
72314,-100,4,2,1,85,0,1
74189,-100,4,2,1,70,0,0
75595,-100,4,2,1,50,0,0
76064,-100,4,2,1,60,0,0
83564,-100,4,2,1,65,0,0
89189,-100,4,2,1,70,0,0
90595,-100,4,2,1,75,0,0
91064,-100,4,2,1,25,0,0
93876,-100,4,2,1,5,0,0
102314,-100,4,2,2,35,0,0
109814,-100,4,2,1,40,0,0
113564,-100,4,2,1,50,0,0
115439,-100,4,2,1,55,0,0
117314,-100,4,2,1,60,0,0
119189,-100,4,2,1,65,0,0
121064,-100,4,2,1,70,0,0
122001,-100,4,2,1,75,0,0
122470,-100,4,2,1,80,0,0
122939,-100,4,2,1,30,0,0
124814,-100,4,2,1,80,0,1
130439,-100,4,2,1,90,0,1
131610,-100,4,2,1,60,0,1
132314,-100,4,2,1,80,0,1
137939,-100,4,2,1,60,0,0
139345,-100,4,2,1,70,0,0
139814,-100,4,2,1,80,0,1
145439,-100,4,2,1,90,0,1
146610,-100,4,2,1,60,0,1
147314,-100,4,2,1,80,0,1
151064,-100,4,2,1,85,0,1
152939,-100,4,2,1,70,0,0
154345,-100,4,2,1,50,0,0
154814,-100,4,2,1,60,0,0
162314,-100,4,2,1,65,0,0
167939,-100,4,2,1,45,0,0
169345,-100,4,2,2,45,0,0
169814,-100,4,2,2,40,0,0
177314,-100,4,2,2,30,0,0

[Colours]
Combo1 : 183,0,183
Combo2 : 255,128,192
Combo3 : 244,89,81
Combo4 : 242,36,67

[HitObjects]
256,192,1064,6,0,L|352:192,1,80,2|0,0:0|0:0,0:0:0:0:
448,192,1532,2,0,L|360:192,1,80,8|0,0:0|0:0,0:0:0:0:
256,192,2001,1,2,0:0:0:0:
64,192,2470,2,0,L|152:192,1,80,8|0,0:0|0:0,0:0:0:0:
336,192,2939,6,0,P|392:184|408:88,1,160,2|8,0:0|0:0,0:0:0:0:
312,88,3642,1,0,0:0:0:0:
208,88,3876,1,2,0:0:0:0:
448,192,4345,1,8,0:0:0:0:
336,192,4579,1,0,0:0:0:0:
144,200,4814,6,0,P|64:152|104:104,1,160,2|8,0:0|0:0,0:0:0:0:
176,192,5517,1,0,0:0:0:0:
288,192,5751,2,0,L|128:192,1,160,2|8,0:0|0:0,0:0:0:0:
360,192,6689,6,0,P|456:184|480:128,2,160,2|8|2,0:0|0:0|0:0,0:0:0:0:
136,200,8095,2,0,L|40:200,1,80,8|0,0:0|0:0,0:0:0:0:
256,200,8564,6,0,L|416:200,1,160,2|8,0:0|0:0,0:0:0:0:
304,200,9267,2,0,L|208:200,1,80,0|2,0:0|0:0,0:0:0:0:
448,200,9970,1,8,0:0:0:0:
112,192,10439,6,0,L|280:240,1,160,2|8,0:0|0:0,0:0:0:0:
368,240,11142,1,0,0:0:0:0:
265,235,11376,1,2,0:0:0:0:
64,192,11845,2,0,L|144:192,1,80,8|0,0:0|0:0,0:0:0:0:
336,192,12314,6,0,P|408:192|496:144,2,160,2|8|2,0:0|0:0|0:0,0:0:0:0:
128,192,13720,1,8,0:0:0:0:
232,192,13954,1,0,0:0:0:0:
336,184,14189,6,0,P|404:179|387:245,1,160,2|8,0:0|0:0,0:0:0:0:
280,248,14892,1,0,0:0:0:0:
385,245,15126,1,2,0:0:0:0:
200,248,15595,2,0,L|120:248,1,80,8|0,0:0|0:0,0:0:0:0:
360,248,16064,6,0,P|424:240|352:136,1,240,6|2,0:0|0:0,0:0:0:0:
96,144,17470,1,2,0:0:0:0:
296,136,17939,6,0,P|208:168|304:232,1,240,2|2,0:0|0:0,0:0:0:0:
120,248,19345,2,0,L|208:248,1,80,0|0,0:0|0:0,0:0:0:0:
400,248,19814,6,0,P|456:240|400:192,1,160,2|0,0:0|0:0,0:0:0:0:
280,192,20517,2,0,L|120:192,2,160,2|0|2,0:0|0:0|0:0,0:0:0:0:
80,192,21923,5,2,0:0:0:0:
256,192,22392,1,2,0:0:0:0:
256,192,22860,2,0,L|160:192,2,80,2|2|2,0:0|0:0|0:0,0:0:0:0:
456,192,23564,6,0,P|496:160|424:136,1,160,6|8,0:0|0:0,0:0:0:0:
320,136,24267,2,0,P|216:128|176:88,1,160,2|0,0:0|0:0,0:0:0:0:
72,96,24970,1,8,0:0:0:0:
352,128,25439,5,2,0:0:0:0:
144,128,25907,1,8,0:0:0:0:
248,128,26142,2,0,P|336:192|240:256,1,240,2|8,0:0|0:0,0:0:0:0:
368,264,27079,1,0,0:0:0:0:
128,184,27314,6,0,P|72:200|136:240,1,160,2|8,0:0|0:0,0:0:0:0:
232,248,28017,1,2,0:0:0:0:
64,232,28485,1,0,0:0:0:0:
336,192,29189,6,0,L|240:192,1,80,10|0,0:0|0:0,0:0:0:0:
144,192,29657,2,0,L|304:192,1,160,10|10,0:0|0:0,0:0:0:0:
112,192,30595,1,0,0:0:0:0:
400,192,31064,5,6,0:0:0:0:
200,152,31532,2,0,L|296:152,1,80,8|0,0:0|0:0,0:0:0:0:
384,152,32001,2,0,L|464:152,2,80,2|0|8,0:0|0:0|0:0,0:0:0:0:
176,152,32939,5,2,0:0:0:0:
336,152,33407,2,0,L|248:152,2,80,8|0|2,0:0|0:0|0:0,0:0:0:0:
448,152,34110,1,0,0:0:0:0:
336,152,34345,1,8,0:0:0:0:
112,152,34814,6,0,L|280:152,1,160,2|8,0:0|0:0,0:0:0:0:
80,144,35751,2,0,L|168:144,2,80,2|0|8,0:0|0:0|0:0,0:0:0:0:
192,144,36454,1,0,0:0:0:0:
304,144,36689,5,2,0:0:0:0:
104,144,37157,2,0,L|208:144,1,80,8|0,0:0|0:0,0:0:0:0:
296,144,37626,2,0,L|208:144,1,80,2|0,0:0|0:0,0:0:0:0:
104,144,38095,1,8,0:0:0:0:
432,144,38564,5,6,0:0:0:0:
320,144,38798,1,0,0:0:0:0:
208,144,39032,1,8,0:0:0:0:
392,144,39501,2,0,L|472:144,2,80,2|0|8,0:0|0:0|0:0,0:0:0:0:
168,144,40439,6,0,L|352:144,1,160,2|8,0:0|0:0,0:0:0:0:
104,144,41376,2,0,L|16:144,2,80,2|2|8,0:0|0:0|0:0,0:0:0:0:
328,144,42314,6,0,L|168:144,1,160,2|2,0:0|0:0,0:0:0:0:
280,144,43017,1,8,0:0:0:0:
168,144,43252,2,0,L|88:144,1,80,2|0,0:0|0:0,0:0:0:0:
200,144,43720,2,0,L|280:144,1,80,2|8,0:0|0:0,0:0:0:0:
392,144,44189,6,0,L|496:144,2,80,2|0|2,0:0|0:0|0:0,0:0:0:0:
208,144,44892,1,8,0:0:0:0:
416,144,45360,2,0,L|416:232,1,80,0|0,0:0|0:0,0:0:0:0:
96,208,46064,6,0,P|64:248|152:248,1,160,6|8,0:0|0:0,0:0:0:0:
368,296,47001,2,0,L|472:296,2,80,2|0|8,0:0|0:0|0:0,0:0:0:0:
256,296,47704,1,0,0:0:0:0:
368,296,47939,5,2,0:0:0:0:
104,304,48407,2,0,L|216:304,1,80,8|0,0:0|0:0,0:0:0:0:
296,304,48876,2,0,L|400:304,1,80,2|0,0:0|0:0,0:0:0:0:
488,304,49345,1,8,0:0:0:0:
176,304,49814,6,0,L|336:304,1,160,2|8,0:0|0:0,0:0:0:0:
480,312,50751,1,2,0:0:0:0:
360,312,50985,2,0,L|440:312,2,80,0|8|0,0:0|0:0|0:0,0:0:0:0:
160,312,51689,6,0,L|48:312,2,80,2|0|2,0:0|0:0|0:0,0:0:0:0:
272,312,52392,1,8,0:0:0:0:
384,312,52626,1,2,0:0:0:0:
144,312,53095,1,8,0:0:0:0:
456,312,53564,6,0,L|288:312,1,160,6|8,0:0|0:0,0:0:0:0:
56,304,54501,2,0,L|136:304,1,80,2|0,0:0|0:0,0:0:0:0:
256,304,54970,2,0,L|168:304,1,80,8|0,0:0|0:0,0:0:0:0:
288,304,55439,5,2,0:0:0:0:
64,304,55907,2,0,L|168:304,2,80,8|0|2,0:0|0:0|0:0,0:0:0:0:
176,304,56610,1,0,0:0:0:0:
288,304,56845,1,8,0:0:0:0:
48,304,57314,6,0,L|224:304,1,160,2|8,0:0|0:0,0:0:0:0:
432,304,58251,2,0,L|320:304,1,80,2|0,0:0|0:0,0:0:0:0:
240,304,58720,2,0,L|336:304,1,80,8|0,0:0|0:0,0:0:0:0:
128,304,59189,5,2,0:0:0:0:
256,304,59657,1,2,0:0:0:0:
384,304,60126,1,2,0:0:0:0:
144,304,60595,2,0,L|240:304,1,80,4|4,0:0|0:0,0:0:0:0:
424,304,61064,6,0,P|480:280|408:248,1,160,6|8,0:0|0:0,0:0:0:0:
200,216,62001,1,2,0:0:0:0:
304,216,62235,2,0,L|384:216,2,80,0|8|0,0:0|0:0|0:0,0:0:0:0:
200,216,62939,5,2,0:0:0:0:
376,216,63407,2,0,L|296:216,1,80,8|0,0:0|0:0,0:0:0:0:
192,216,63876,2,0,L|88:216,2,80,2|0|8,0:0|0:0|0:0,0:0:0:0:
368,216,64814,5,2,0:0:0:0:
160,216,65282,1,8,0:0:0:0:
384,216,65751,2,0,L|480:216,2,80,2|0|8,0:0|0:0|0:0,0:0:0:0:
72,216,66689,6,0,L|176:216,1,80,2|0,0:0|0:0,0:0:0:0:
280,216,67157,2,0,L|168:216,1,80,2|8,0:0|0:0,0:0:0:0:
96,216,67626,1,2,0:0:0:0:
328,216,68095,1,8,0:0:0:0:
16,216,68564,6,0,L|176:240,1,160,6|8,0:0|0:0,0:0:0:0:
384,240,69501,1,2,0:0:0:0:
280,240,69735,2,0,L|360:240,2,80,0|8|0,0:0|0:0|0:0,0:0:0:0:
176,240,70439,5,2,0:0:0:0:
400,232,70907,2,0,L|304:232,1,80,8|0,0:0|0:0,0:0:0:0:
208,232,71376,2,0,L|104:232,1,80,2|0,0:0|0:0,0:0:0:0:
24,232,71845,1,8,0:0:0:0:
312,216,72314,6,0,L|472:216,1,160,2|8,0:0|0:0,0:0:0:0:
256,208,73251,1,2,0:0:0:0:
152,208,73485,1,0,0:0:0:0:
256,208,73720,1,8,0:0:0:0:
360,208,73954,1,0,0:0:0:0:
168,208,74189,5,2,0:0:0:0:
320,208,74657,1,2,0:0:0:0:
112,208,75126,1,2,0:0:0:0:
336,200,75595,2,0,L|440:200,1,80,0|0,0:0|0:0,0:0:0:0:
208,200,76064,6,0,L|48:200,1,160,6|8,0:0|0:0,0:0:0:0:
184,200,76767,2,0,P|288:200|352:88,1,240,2|8,0:0|0:0,0:0:0:0:
152,88,77939,5,2,0:0:0:0:
360,80,78407,1,8,0:0:0:0:
176,80,78642,2,0,P|88:88|40:232,1,240,2|8,0:0|0:0,0:0:0:0:
280,208,79814,6,0,L|112:208,1,160,2|8,0:0|0:0,0:0:0:0:
232,208,80517,1,2,0:0:0:0:
56,208,80985,1,0,0:0:0:0:
200,208,81454,1,0,0:0:0:0:
392,208,81689,6,0,L|472:208,2,80,2|0|8,0:0|0:0|0:0,0:0:0:0:
288,192,82392,2,0,P|376:192|400:64,1,240,2|8,0:0|0:0,0:0:0:0:
72,104,83564,5,6,0:0:0:0:
296,104,84032,1,8,0:0:0:0:
184,104,84267,2,0,P|296:96|400:200,1,240,2|8,0:0|0:0,0:0:0:0:
64,184,85439,6,0,L|248:184,1,160,2|8,0:0|0:0,0:0:0:0:
328,184,86142,2,0,P|240:184|128:296,1,240,2|8,0:0|0:0,0:0:0:0:
376,264,87314,6,0,L|480:264,2,80,2|0|8,0:0|0:0|0:0,0:0:0:0:
272,264,88017,1,2,0:0:0:0:
64,272,88485,1,0,0:0:0:0:
184,272,88720,1,8,0:0:0:0:
64,272,88954,1,0,0:0:0:0:
256,272,89189,6,0,L|416:272,2,160,10|10|10,0:0|0:0|0:0,0:0:0:0:
64,272,90595,1,4,0:0:0:0:
256,192,91064,12,0,93876,0:0:0:0:
256,192,102314,5,2,0:0:0:0:
56,208,103017,2,0,L|216:208,1,160,2|0,0:0|0:0,0:0:0:0:
328,208,103720,2,0,L|224:208,1,80,2|0,0:0|0:0,0:0:0:0:
136,208,104189,6,0,P|208:288|336:240,1,240,2|2,0:0|0:0,0:0:0:0:
64,296,105595,2,0,L|160:296,1,80,2|2,0:0|0:0,0:0:0:0:
344,296,106064,6,0,P|416:296|472:200,1,160,2|2,0:0|0:0,0:0:0:0:
368,224,106767,1,2,0:0:0:0:
184,216,107235,1,2,0:0:0:0:
352,208,107704,1,2,0:0:0:0:
144,208,108173,5,2,0:0:0:0:
408,208,108642,2,0,P|464:176|392:136,1,160,2|0,0:0|0:0,0:0:0:0:
304,128,109345,1,2,0:0:0:0:
16,96,109814,6,0,P|56:160|160:160,1,160,6|8,0:0|0:0,0:0:0:0:
344,168,110751,2,0,L|424:168,2,80,2|0|8,0:0|0:0|0:0,0:0:0:0:
136,168,111689,6,0,L|312:168,1,160,2|8,0:0|0:0,0:0:0:0:
400,168,112392,1,0,0:0:0:0:
296,168,112626,2,0,L|192:168,2,80,2|0|8,0:0|0:0|0:0,0:0:0:0:
488,104,113564,5,2,0:0:0:0:
328,104,114032,2,0,L|168:104,1,160,8|2,0:0|0:0,0:0:0:0:
280,104,114735,2,0,L|360:104,2,80,0|8|0,0:0|0:0|0:0,0:0:0:0:
80,112,115439,5,2,0:0:0:0:
272,112,115907,2,0,L|368:112,1,80,8|0,0:0|0:0,0:0:0:0:
264,112,116376,2,0,L|184:112,1,80,2|0,0:0|0:0,0:0:0:0:
304,112,116845,1,8,0:0:0:0:
16,120,117314,6,0,L|192:120,1,160,6|8,0:0|0:0,0:0:0:0:
384,120,118251,2,0,L|464:120,2,80,2|0|8,0:0|0:0|0:0,0:0:0:0:
280,120,118954,1,2,0:0:0:0:
176,128,119189,6,0,P|120:152|192:176,1,160,2|8,0:0|0:0,0:0:0:0:
384,184,120126,2,0,L|280:184,1,80,2|2,0:0|0:0,0:0:0:0:
200,184,120595,2,0,L|96:184,1,80,8|0,0:0|0:0,0:0:0:0:
328,192,121064,6,0,L|424:192,2,80,2|0|2,0:0|0:0|0:0,0:0:0:0:
232,192,121767,1,0,0:0:0:0:
120,192,122001,2,0,L|40:192,1,80,2|8,0:0|0:0,0:0:0:0:
152,192,122470,2,0,L|240:192,1,80,2|8,0:0|0:0,0:0:0:0:
440,192,122939,5,2,0:0:0:0:
224,192,123407,1,2,0:0:0:0:
360,192,123720,1,0,0:0:0:0:
432,192,123876,2,0,P|472:224|416:304,1,160,2|0,0:0|0:0,0:0:0:0:
104,320,124814,5,6,0:0:0:0:
312,320,125282,2,0,L|184:320,1,106.666666666667,8|0,0:0|0:0,0:0:0:0:
80,320,125751,2,0,L|8:320,2,53.3333333333333,2|0|0,0:0|0:0|0:0,0:0:0:0:
176,320,126220,1,8,0:0:0:0:
384,320,126689,5,2,0:0:0:0:
176,320,127157,2,0,L|280:320,1,80,8|0,0:0|0:0,0:0:0:0:
360,320,127626,2,0,L|280:320,1,80,2|0,0:0|0:0,0:0:0:0:
120,320,128095,1,8,0:0:0:0:
344,320,128564,5,2,0:0:0:0:
136,328,129032,2,0,L|72:328,2,53.3333333333333,8|0|0,0:0|0:0|0:0,0:0:0:0:
280,328,129501,2,0,L|344:328,2,53.3333333333333,2|0|0,0:0|0:0|0:0,0:0:0:0:
208,328,129970,1,8,0:0:0:0:
413,328,130439,6,0,L|333:328,1,80,2|0,0:0|0:0,0:0:0:0:
229,328,130907,2,0,L|309:328,1,80,2|8,0:0|0:0,0:0:0:0:
117,328,131376,2,0,P|69:304|133:264,1,160,2|8,0:0|0:0,0:0:0:0:
416,264,132314,5,6,0:0:0:0:
216,328,132782,2,0,L|152:328,2,53.3333333333333,8|0|0,0:0|0:0|0:0,0:0:0:0:
344,328,133251,2,0,L|408:328,2,53.3333333333333,2|0|0,0:0|0:0|0:0,0:0:0:0:
272,328,133720,1,8,0:0:0:0:
64,328,134189,5,2,0:0:0:0:
280,328,134657,2,0,L|200:328,1,80,8|0,0:0|0:0,0:0:0:0:
88,328,135126,2,0,L|168:328,1,80,2|0,0:0|0:0,0:0:0:0:
296,328,135595,1,8,0:0:0:0:
136,328,136064,5,2,0:0:0:0:
360,328,136532,2,0,L|248:328,1,106.666666666667,8|0,0:0|0:0,0:0:0:0:
112,328,137001,2,0,L|40:328,2,53.3333333333333,2|0|0,0:0|0:0|0:0,0:0:0:0:
253,328,137470,1,8,0:0:0:0:
317,304,137626,1,0,0:0:0:0:
293,240,137782,1,0,0:0:0:0:
229,224,137939,5,2,0:0:0:0:
392,280,138407,1,2,0:0:0:0:
168,288,138876,1,2,0:0:0:0:
360,328,139345,2,0,L|464:328,1,80,4|4,0:0|0:0,0:0:0:0:
216,328,139814,6,0,L|48:328,1,160,6|8,0:0|0:0,0:0:0:0:
320,328,140751,2,0,L|224:328,2,80,2|0|8,0:0|0:0|0:0,0:0:0:0:
208,328,141454,1,0,0:0:0:0:
16,328,141689,5,2,0:0:0:0:
256,328,142157,2,0,L|336:328,2,80,8|0|2,0:0|0:0|0:0,0:0:0:0:
152,328,142860,1,0,0:0:0:0:
256,328,143095,1,8,0:0:0:0:
88,328,143564,6,0,L|264:328,1,160,2|8,0:0|0:0,0:0:0:0:
456,328,144501,1,2,0:0:0:0:
360,328,144735,2,0,L|448:328,2,80,0|8|0,0:0|0:0|0:0,0:0:0:0:
160,328,145439,6,0,L|48:328,2,80,2|8|2,0:0|0:0|0:0,0:0:0:0:
264,328,146142,1,8,0:0:0:0:
160,328,146376,1,2,0:0:0:0:
384,328,146845,1,8,0:0:0:0:
88,336,147314,6,0,P|40:280|112:264,1,160,6|8,0:0|0:0,0:0:0:0:
320,264,148251,1,2,0:0:0:0:
216,264,148485,1,0,0:0:0:0:
320,264,148720,1,8,0:0:0:0:
424,264,148954,1,0,0:0:0:0:
224,264,149189,5,2,0:0:0:0:
16,264,149657,2,0,L|112:264,1,80,8|0,0:0|0:0,0:0:0:0:
216,264,150126,2,0,L|128:264,2,80,2|0|8,0:0|0:0|0:0,0:0:0:0:
440,264,151064,5,2,0:0:0:0:
216,264,151532,2,0,L|312:264,1,80,8|0,0:0|0:0,0:0:0:0:
400,264,152001,2,0,L|320:264,1,80,2|0,0:0|0:0,0:0:0:0:
216,264,152470,2,0,L|120:264,1,80,8|0,0:0|0:0,0:0:0:0:
336,272,152939,6,0,P|408:264|488:200,2,160,2|2|2,0:0|0:0|0:0,0:0:0:0:
112,272,154345,2,0,L|208:272,1,80,2|0,0:0|0:0,0:0:0:0:
392,272,154814,6,0,P|440:240|368:192,1,160,6|8,0:0|0:0,0:0:0:0:
256,192,155517,2,0,P|136:208|168:280,1,240,2|8,0:0|0:0,0:0:0:0:
384,288,156689,5,2,0:0:0:0:
176,296,157157,1,8,0:0:0:0:
384,296,157392,2,0,P|464:272|376:184,1,240,2|8,0:0|0:0,0:0:0:0:
272,176,158329,1,0,0:0:0:0:
64,176,158564,6,0,P|48:224|136:280,1,160,2|8,0:0|0:0,0:0:0:0:
224,288,159267,2,0,L|392:288,1,160,2|0,0:0|0:0,0:0:0:0:
176,280,160204,1,0,0:0:0:0:
376,272,160439,6,0,L|480:272,2,80,2|0|8,0:0|0:0|0:0,0:0:0:0:
272,272,161142,1,2,0:0:0:0:
128,192,161845,1,8,0:0:0:0:
448,208,162314,5,2,0:0:0:0:
256,208,162782,1,8,0:0:0:0:
152,208,163017,2,0,P|88:152|192:136,1,240,2|8,0:0|0:0,0:0:0:0:
408,112,164189,5,2,0:0:0:0:
184,128,164657,1,8,0:0:0:0:
376,128,164892,2,0,P|440:136|352:192,1,240,2|8,0:0|0:0,0:0:0:0:
448,232,165829,1,0,0:0:0:0:
240,240,166064,5,2,0:0:0:0:
424,232,166532,1,8,0:0:0:0:
320,224,166767,2,0,P|232:200|232:136,1,160,2|0,0:0|0:0,0:0:0:0:
392,224,167704,1,0,0:0:0:0:
176,224,167939,6,0,P|80:224|40:176,2,160,10|10|10,0:0|0:0|0:0,0:0:0:0:
384,216,169345,1,2,0:0:0:0:
200,216,169814,6,0,L|304:216,1,80,2|0,0:0|0:0,0:0:0:0:
384,216,170282,2,0,L|208:216,1,160,8|2,0:0|0:0,0:0:0:0:
432,216,171220,1,8,0:0:0:0:
184,208,171689,6,0,L|80:208,2,80,2|0|8,0:0|0:0|0:0,0:0:0:0:
288,208,172392,1,0,0:0:0:0:
392,208,172626,1,2,0:0:0:0:
192,208,173095,2,0,L|288:208,1,80,8|0,0:0|0:0,0:0:0:0:
376,208,173564,5,2,0:0:0:0:
232,208,174032,2,0,L|64:208,2,160,8|2|8,0:0|0:0|0:0,0:0:0:0:
352,208,175204,1,0,0:0:0:0:
232,208,175439,5,2,0:0:0:0:
112,200,175907,1,8,0:0:0:0:
256,200,176376,1,2,0:0:0:0:
400,200,176845,1,8,0:0:0:0:
160,200,177314,6,0,P|88:208|152:240,1,160,2|8,0:0|0:0,0:0:0:0:
240,248,178017,1,0,0:0:0:0:
360,248,178251,2,0,L|192:248,1,160,2|8,0:0|0:0,0:0:0:0:
408,248,179189,5,2,0:0:0:0:
200,256,179657,2,0,L|104:256,2,80,8|0|2,0:0|0:0|0:0,0:0:0:0:
408,256,180595,2,0,L|296:256,1,80,8|0,0:0|0:0,0:0:0:0:
224,256,181064,6,0,L|48:256,2,160,2|8|2,0:0|0:0|0:0,0:0:0:0:
448,256,182470,1,8,0:0:0:0:
336,256,182704,1,8,0:0:0:0:
232,256,182939,6,0,L|128:256,2,80,0|0|8,0:0|0:0|0:0,0:0:0:0:
352,256,183642,1,2,0:0:0:0:
456,256,183876,1,2,0:0:0:0:
352,256,184110,1,2,0:0:0:0:
256,248,184345,2,0,L|256:168,1,80,8|2,0:0|0:0,0:0:0:0:
