osu file format v14

[General]
AudioFilename: audio.mp3
AudioLeadIn: 0
PreviewTime: 45360
Countdown: 0
SampleSet: Soft
StackLeniency: 0.7
Mode: 2
LetterboxInBreaks: 0
WidescreenStoryboard: 0

[Editor]
DistanceSpacing: 1.3
BeatDivisor: 4
GridSize: 8
TimelineZoom: 1.5

[Metadata]
Title:OKAY
TitleUnicode:OKAY
Artist:Tokyo Machine
ArtistUnicode:Tokyo Machine
Creator:WildOne94
Version:Platter
Source:
Tags:Monstercat Electronic 8-bit Xinely uproar supremacy
BeatmapID:1080445
BeatmapSetID:506237

[Difficulty]
HPDrainRate:5
CircleSize:3.5
OverallDifficulty:8
ApproachRate:8
SliderMultiplier:1.9
SliderTickRate:1

[Events]
//Background and Video events
0,0,"cute-anime-animal-wallpaper-cute-pokemon-wallpaper.jpg",0,0
//Break Periods
2,94814,101142
//Storyboard Layer 0 (Background)
//Storyboard Layer 1 (Fail)
//Storyboard Layer 2 (Pass)
//Storyboard Layer 3 (Foreground)
//Storyboard Sound Samples

[TimingPoints]
1064,468.75,4,2,2,40,1,0
14189,-100,4,2,2,45,0,0
15595,-100,4,2,2,35,0,0
16064,-100,4,2,1,60,0,0
22860,-100,4,2,1,50,0,0
23564,-100,4,2,1,70,0,0
29189,-100,4,2,1,75,0,0
31064,-100,4,2,1,40,0,0
38564,-100,4,2,1,50,0,0
40439,-100,4,2,1,55,0,0
42314,-100,4,2,1,60,0,0
43251,-100,4,2,1,70,0,0
44189,-100,4,2,1,80,0,0
45360,-100,4,2,1,15,0,0
46064,-100,4,2,1,80,0,1
51689,-100,4,2,1,90,0,1
52860,-100,4,2,1,60,0,1
53564,-100,4,2,1,80,0,1
59189,-100,4,2,1,60,0,0
60595,-100,4,2,1,70,0,0
61064,-100,4,2,1,80,0,1
66689,-100,4,2,1,90,0,1
67860,-100,4,2,1,60,0,1
68564,-100,4,2,1,80,0,1
72314,-100,4,2,1,85,0,1
74189,-100,4,2,1,70,0,0
75595,-100,4,2,1,50,0,0
76064,-100,4,2,1,60,0,0
83564,-100,4,2,1,65,0,0
89189,-100,4,2,1,70,0,0
90595,-100,4,2,1,75,0,0
91064,-100,4,2,1,25,0,0
93876,-100,4,2,1,5,0,0
102314,-100,4,2,2,35,0,0
109814,-100,4,2,1,40,0,0
113564,-100,4,2,1,50,0,0
115439,-100,4,2,1,55,0,0
117314,-100,4,2,1,60,0,0
119189,-100,4,2,1,65,0,0
121064,-100,4,2,1,70,0,0
122001,-100,4,2,1,75,0,0
122470,-100,4,2,1,80,0,0
122939,-100,4,2,1,30,0,0
124814,-100,4,2,1,80,0,1
130439,-100,4,2,1,90,0,1
131610,-100,4,2,1,60,0,1
132314,-100,4,2,1,80,0,1
137939,-100,4,2,1,60,0,0
139345,-100,4,2,1,70,0,0
139814,-100,4,2,1,80,0,1
145439,-100,4,2,1,90,0,1
146610,-100,4,2,1,60,0,1
147314,-100,4,2,1,80,0,1
151064,-100,4,2,1,85,0,1
152939,-100,4,2,1,70,0,0
154345,-100,4,2,1,50,0,0
154814,-100,4,2,1,60,0,0
162314,-100,4,2,1,65,0,0
167939,-100,4,2,1,45,0,0
169345,-100,4,2,2,45,0,0
169814,-100,4,2,2,40,0,0
177314,-100,4,2,2,30,0,0

[Colours]
Combo1 : 183,0,183
Combo2 : 255,128,192
Combo3 : 244,89,81
Combo4 : 242,36,67

[HitObjects]
360,200,1064,6,0,P|464:184|432:88,1,190,2|8,0:0|0:0,0:0:0:0:
344,112,1767,2,0,L|249:112,2,95,0|2|0,0:0|0:0|0:0,0:0:0:0:
464,112,2470,2,0,L|369:112,1,95,8|0,0:0|0:0,0:0:0:0:
152,192,2939,6,0,P|88:216|176:248,1,190,2|8,0:0|0:0,0:0:0:0:
272,272,3642,1,0,0:0:0:0:
392,272,3876,1,2,0:0:0:0:
160,272,4345,2,0,L|264:272,1,95,8|0,0:0|0:0,0:0:0:0:
376,280,4814,5,2,0:0:0:0:
168,232,5282,2,0,L|64:232,2,95,8|0|2,0:0|0:0|0:0,0:0:0:0:
288,232,5985,2,0,L|384:232,1,95,0|8,0:0|0:0,0:0:0:0:
256,232,6454,2,0,L|144:232,1,95,0|2,0:0|0:0,0:0:0:0:
288,232,6923,6,0,L|408:232,1,95,0|8,0:0|0:0,0:0:0:0:
144,232,7392,2,0,L|32:232,1,95,0|2,0:0|0:0,0:0:0:0:
368,232,8095,1,8,0:0:0:0:
80,224,8564,6,0,P|40:176|144:160,1,190,2|8,0:0|0:0,0:0:0:0:
256,136,9267,1,0,0:0:0:0:
376,136,9501,1,2,0:0:0:0:
48,128,9970,2,0,L|160:128,1,95,8|0,0:0|0:0,0:0:0:0:
344,128,10439,6,0,P|416:144|336:184,1,190,2|8,0:0|0:0,0:0:0:0:
232,192,11142,1,0,0:0:0:0:
112,192,11376,1,2,0:0:0:0:
360,192,11845,2,0,L|265:192,1,95,8|0,0:0|0:0,0:0:0:0:
392,192,12314,5,2,0:0:0:0:
144,192,12782,2,0,L|40:192,2,95,8|0|2,0:0|0:0|0:0,0:0:0:0:
265,192,13485,1,0,0:0:0:0:
144,192,13720,1,8,0:0:0:0:
288,208,13954,2,0,L|408:208,1,95,0|2,0:0|0:0,0:0:0:0:
208,208,14423,6,0,L|112:208,1,95,0|8,0:0|0:0,0:0:0:0:
352,208,14892,2,0,L|472:208,1,95,0|2,0:0|0:0,0:0:0:0:
88,208,15595,2,0,L|192:208,1,95,8|0,0:0|0:0,0:0:0:0:
400,208,16064,6,0,P|440:176|344:112,1,190,6|0,0:0|0:0,0:0:0:0:
160,96,16767,1,2,0:0:0:0:
360,104,17470,2,0,L|464:104,1,95,2|0,0:0|0:0,0:0:0:0:
256,104,17939,5,2,0:0:0:0:
48,104,18407,1,0,0:0:0:0:
256,104,18642,2,0,P|336:104|240:176,1,285,2|0,0:0|0:0,0:0:0:0:
376,192,19579,1,0,0:0:0:0:
184,192,19814,6,0,P|112:200|192:256,1,190,2|0,0:0|0:0,0:0:0:0:
280,280,20517,1,2,0:0:0:0:
64,288,20985,1,0,0:0:0:0:
352,288,21454,6,0,L|447:288,1,95,2|0,0:0|0:0,0:0:0:0:
320,288,21923,2,0,L|415:288,1,95,2|0,0:0|0:0,0:0:0:0:
208,288,22392,1,2,0:0:0:0:
408,296,22860,2,0,P|463:295|480:224,2,95,2|2|2,0:0|0:0|0:0,0:0:0:0:
72,304,23564,6,0,P|32:240|120:208,1,190,6|8,0:0|0:0,0:0:0:0:
240,208,24267,1,2,0:0:0:0:
80,208,24735,2,0,L|176:208,1,95,0|8,0:0|0:0,0:0:0:0:
296,208,25204,1,0,0:0:0:0:
104,208,25439,5,2,0:0:0:0:
320,208,25907,1,8,0:0:0:0:
120,216,26142,2,0,P|56:176|136:160,1,190,2|0,0:0|0:0,0:0:0:0:
256,152,26845,2,0,L|352:152,1,95,8|0,0:0|0:0,0:0:0:0:
144,152,27314,5,2,0:0:0:0:
360,152,27782,1,8,0:0:0:0:
160,152,28017,2,0,L|64:152,1,95,2|0,0:0|0:0,0:0:0:0:
192,152,28485,2,0,L|312:152,1,95,0|8,0:0|0:0,0:0:0:0:
96,224,29189,6,0,L|200:224,1,95,10|0,0:0|0:0,0:0:0:0:
416,224,29657,2,0,L|321:224,1,95,10|0,0:0|0:0,0:0:0:0:
152,224,30126,2,0,L|56:224,1,95,10|0,0:0|0:0,0:0:0:0:
256,224,30595,1,0,0:0:0:0:
32,224,31064,6,0,L|224:224,1,190,6|8,0:0|0:0,0:0:0:0:
440,224,32001,2,0,L|344:224,2,95,2|0|8,0:0|0:0|0:0,0:0:0:0:
96,224,32939,5,2,0:0:0:0:
424,224,33407,2,0,L|304:224,1,95,8|0,0:0|0:0,0:0:0:0:
152,224,33876,2,0,L|272:224,1,95,2|0,0:0|0:0,0:0:0:0:
368,224,34345,1,8,0:0:0:0:
56,224,34814,5,2,0:0:0:0:
320,224,35282,2,0,L|424:224,1,95,8|0,0:0|0:0,0:0:0:0:
288,224,35751,2,0,L|184:224,1,95,2|0,0:0|0:0,0:0:0:0:
271,224,36142,2,0,L|319:224,1,31.6666666666667,0|8,0:0|0:0,0:0:0:0:
424,224,36454,1,0,0:0:0:0:
216,224,36689,6,0,L|121:224,1,95,2|0,0:0|0:0,0:0:0:0:
320,224,37157,2,0,L|415:224,1,95,8|0,0:0|0:0,0:0:0:0:
256,224,37626,2,0,L|376:224,2,95,2|0|8,0:0|0:0|0:0,0:0:0:0:
32,232,38564,5,6,0:0:0:0:
152,232,38798,1,0,0:0:0:0:
272,232,39032,1,8,0:0:0:0:
152,232,39267,1,0,0:0:0:0:
376,232,39501,2,0,L|480:232,1,95,2|0,0:0|0:0,0:0:0:0:
336,232,39970,2,0,L|440:232,1,95,8|0,0:0|0:0,0:0:0:0:
200,232,40439,5,2,0:0:0:0:
320,232,40673,1,2,0:0:0:0:
439,232,40907,2,0,L|319:232,1,95,8|0,0:0|0:0,0:0:0:0:
136,232,41376,2,0,L|240:232,2,95,2|2|8,0:0|0:0|0:0,0:0:0:0:
256,232,42079,1,0,0:0:0:0:
40,232,42314,5,2,0:0:0:0:
160,232,42548,1,0,0:0:0:0:
352,232,42782,1,2,0:0:0:0:
232,232,43016,1,8,0:0:0:0:
424,232,43251,2,0,L|304:232,1,95,2|0,0:0|0:0,0:0:0:0:
112,232,43720,2,0,L|224:232,1,95,2|8,0:0|0:0,0:0:0:0:
384,232,44189,6,0,L|488:232,2,95,2|0|2,0:0|0:0|0:0,0:0:0:0:
88,240,44892,1,8,0:0:0:0:
336,232,45360,2,0,L|336:328,1,95,0|0,0:0|0:0,0:0:0:0:
48,232,46064,6,0,L|144:232,1,95,6|0,0:0|0:0,0:0:0:0:
448,232,46532,2,0,L|336:160,1,95,8|0,0:0|0:0,0:0:0:0:
160,240,47001,2,0,L|64:240,1,95,2|0,0:0|0:0,0:0:0:0:
144,240,47392,1,0,0:0:0:0:
184,240,47470,1,8,0:0:0:0:
65,240,47704,1,0,0:0:0:0:
368,240,47939,6,0,L|464:240,1,95,2|0,0:0|0:0,0:0:0:0:
264,240,48407,2,0,L|152:240,1,95,8|0,0:0|0:0,0:0:0:0:
296,240,48876,2,0,L|392:240,2,95,2|0|8,0:0|0:0|0:0,0:0:0:0:
64,240,49814,5,2,0:0:0:0:
344,240,50282,2,0,L|456:240,1,95,8|0,0:0|0:0,0:0:0:0:
224,240,50751,1,2,0:0:0:0:
104,248,50985,1,0,0:0:0:0:
184,248,51142,1,0,0:0:0:0:
224,248,51220,1,8,0:0:0:0:
344,248,51454,1,0,0:0:0:0:
48,248,51689,6,0,L|152:176,1,95,2|0,0:0|0:0,0:0:0:0:
344,248,52157,2,0,L|439:248,2,95,2|8|2,0:0|0:0|0:0,0:0:0:0:
160,248,53095,1,8,0:0:0:0:
40,248,53329,1,0,0:0:0:0:
432,248,53564,5,6,0:0:0:0:
184,248,54032,1,8,0:0:0:0:
304,248,54267,1,0,0:0:0:0:
424,248,54501,2,0,L|320:248,1,95,2|0,0:0|0:0,0:0:0:0:
248,248,54892,1,0,0:0:0:0:
208,248,54970,1,8,0:0:0:0:
336,248,55204,1,0,0:0:0:0:
40,256,55439,5,2,0:0:0:0:
328,256,55907,2,0,L|216:256,1,95,8|0,0:0|0:0,0:0:0:0:
48,264,56376,2,0,L|144:264,1,95,2|0,0:0|0:0,0:0:0:0:
336,264,56845,1,8,0:0:0:0:
48,264,57314,6,0,L|168:264,1,95,2|0,0:0|0:0,0:0:0:0:
288,264,57782,2,0,L|408:264,2,95,8|0|2,0:0|0:0|0:0,0:0:0:0:
144,264,58485,1,0,0:0:0:0:
64,264,58642,1,0,0:0:0:0:
104,264,58720,1,8,0:0:0:0:
432,264,59189,6,0,L|312:264,1,95,2|0,0:0|0:0,0:0:0:0:
128,264,59657,2,0,L|33:264,2,95,2|0|2,0:0|0:0|0:0,0:0:0:0:
296,264,60595,1,4,0:0:0:0:
480,264,60829,1,4,0:0:0:0:
168,256,61064,6,0,L|64:256,1,95,6|0,0:0|0:0,0:0:0:0:
216,256,61532,2,0,L|312:256,2,95,8|0|2,0:0|0:0|0:0,0:0:0:0:
400,256,62235,1,0,0:0:0:0:
480,256,62392,1,0,0:0:0:0:
440,256,62470,1,8,0:0:0:0:
320,256,62704,1,0,0:0:0:0:
128,256,62939,6,0,L|24:256,1,95,2|0,0:0|0:0,0:0:0:0:
360,256,63407,2,0,L|464:256,2,95,8|0|2,0:0|0:0|0:0,0:0:0:0:
240,256,64110,1,0,0:0:0:0:
360,256,64345,1,8,0:0:0:0:
72,248,64814,6,0,L|192:248,1,95,2|0,0:0|0:0,0:0:0:0:
368,256,65282,2,0,L|480:256,1,95,8|0,0:0|0:0,0:0:0:0:
336,256,65751,1,2,0:0:0:0:
216,256,65985,1,0,0:0:0:0:
296,256,66142,1,0,0:0:0:0:
256,256,66220,1,8,0:0:0:0:
80,256,66454,1,0,0:0:0:0:
384,248,66689,6,0,L|504:248,2,95,2|0|2,0:0|0:0|0:0,0:0:0:0:
176,264,67392,2,0,L|81:264,1,95,8|2,0:0|0:0,0:0:0:0:
368,264,68095,1,8,0:0:0:0:
152,272,68564,6,0,L|57:272,1,95,6|0,0:0|0:0,0:0:0:0:
384,280,69032,2,0,L|479:280,1,95,8|0,0:0|0:0,0:0:0:0:
304,280,69501,2,0,L|399:280,1,95,2|0,0:0|0:0,0:0:0:0:
320,280,69892,1,0,0:0:0:0:
280,280,69970,1,8,0:0:0:0:
399,280,70204,1,0,0:0:0:0:
80,264,70439,5,2,0:0:0:0:
368,264,70907,2,0,L|272:264,2,95,8|0|2,0:0|0:0|0:0,0:0:0:0:
248,264,71610,1,0,0:0:0:0:
424,264,71845,1,8,0:0:0:0:
104,264,72314,5,2,0:0:0:0:
368,264,72782,2,0,L|488:264,1,95,8|0,0:0|0:0,0:0:0:0:
152,264,73251,2,0,L|48:264,1,95,2|0,0:0|0:0,0:0:0:0:
136,264,73642,1,0,0:0:0:0:
176,264,73720,1,8,0:0:0:0:
57,264,73954,1,0,0:0:0:0:
360,264,74189,5,2,0:0:0:0:
160,264,74657,1,2,0:0:0:0:
288,264,75126,1,2,0:0:0:0:
40,272,75595,2,0,L|144:272,1,95,0|0,0:0|0:0,0:0:0:0:
432,272,76064,6,0,P|480:232|384:176,1,190,6|8,0:0|0:0,0:0:0:0:
208,152,76767,1,2,0:0:0:0:
48,152,77235,1,0,0:0:0:0:
168,152,77470,1,8,0:0:0:0:
408,208,77939,6,0,L|296:208,1,95,2|0,0:0|0:0,0:0:0:0:
192,208,78407,1,8,0:0:0:0:
408,208,78642,1,2,0:0:0:0:
64,216,79345,2,0,L|184:216,1,95,8|0,0:0|0:0,0:0:0:0:
360,224,79814,6,0,P|432:216|384:120,1,190,2|8,0:0|0:0,0:0:0:0:
192,120,80517,1,2,0:0:0:0:
392,120,80985,2,0,L|488:120,1,95,0|8,0:0|0:0,0:0:0:0:
360,120,81454,1,0,0:0:0:0:
160,120,81689,6,0,L|56:120,2,95,2|0|8,0:0|0:0|0:0,0:0:0:0:
368,120,82392,1,2,0:0:0:0:
184,120,82860,1,0,0:0:0:0:
304,120,83095,2,0,L|424:120,1,95,8|0,0:0|0:0,0:0:0:0:
96,120,83564,5,6,0:0:0:0:
328,128,84032,1,8,0:0:0:0:
144,128,84267,2,0,L|24:128,2,95,2|0|0,0:0|0:0|0:0,0:0:0:0:
264,128,84970,1,8,0:0:0:0:
96,136,85439,5,2,0:0:0:0:
416,136,85907,1,8,0:0:0:0:
208,136,86142,2,0,L|88:136,1,95,2|0,0:0|0:0,0:0:0:0:
360,136,86845,1,8,0:0:0:0:
240,136,87079,1,0,0:0:0:0:
432,136,87314,6,0,L|320:136,1,95,2|0,0:0|0:0,0:0:0:0:
240,136,87782,1,8,0:0:0:0:
448,136,88017,2,0,L|353:136,1,95,2|0,0:0|0:0,0:0:0:0:
145,136,88485,2,0,L|265:136,1,95,0|8,0:0|0:0,0:0:0:0:
112,136,88954,1,0,0:0:0:0:
408,136,89189,6,0,P|456:160|376:232,1,190,10|10,0:0|0:0,0:0:0:0:
136,240,90126,1,10,0:0:0:0:
480,232,90595,2,0,L|368:232,1,95,4|4,0:0|0:0,0:0:0:0:
256,192,91064,12,0,93876,0:0:0:0:
256,192,102314,5,2,0:0:0:0:
256,192,103017,2,0,P|328:176|456:336,1,285,2|2,0:0|0:0,0:0:0:0:
112,288,104189,6,0,P|168:192|256:192,1,190,2|0,0:0|0:0,0:0:0:0:
360,184,104892,2,0,P|280:144|128:256,1,285,2|2,0:0|0:0,0:0:0:0:
256,224,105829,1,2,0:0:0:0:
376,224,106064,5,2,0:0:0:0:
104,176,106532,1,2,0:0:0:0:
104,176,106767,1,2,0:0:0:0:
368,176,107235,2,0,L|264:176,1,95,2|0,0:0|0:0,0:0:0:0:
152,176,107704,6,0,L|264:176,1,95,2|0,0:0|0:0,0:0:0:0:
368,176,108173,2,0,P|336:96|216:96,1,190,2|2,0:0|0:0,0:0:0:0:
80,96,109110,2,0,L|80:208,1,95,0|2,0:0|0:0,0:0:0:0:
440,184,109814,6,0,L|328:184,1,95,6|0,0:0|0:0,0:0:0:0:
216,184,110282,1,8,0:0:0:0:
480,184,110751,2,0,L|376:184,2,95,2|0|8,0:0|0:0|0:0,0:0:0:0:
144,192,111689,5,2,0:0:0:0:
384,192,112157,2,0,L|288:192,1,95,8|0,0:0|0:0,0:0:0:0:
152,192,112626,2,0,L|56:192,1,95,2|0,0:0|0:0,0:0:0:0:
256,192,113095,1,8,0:0:0:0:
408,200,113564,6,0,P|440:176|368:80,1,190,2|8,0:0|0:0,0:0:0:0:
112,104,114501,1,2,0:0:0:0:
304,104,114735,1,0,0:0:0:0:
384,104,114892,1,0,0:0:0:0:
424,104,114970,1,8,0:0:0:0:
304,104,115204,1,0,0:0:0:0:
96,104,115439,5,2,0:0:0:0:
328,104,115907,2,0,L|424:104,2,95,8|0|2,0:0|0:0|0:0,0:0:0:0:
208,104,116610,1,0,0:0:0:0:
328,104,116845,1,8,0:0:0:0:
32,136,117314,5,6,0:0:0:0:
153,136,117548,1,0,0:0:0:0:
280,136,117782,1,8,0:0:0:0:
153,136,118017,1,0,0:0:0:0:
280,136,118251,2,0,L|176:136,1,95,2|0,0:0|0:0,0:0:0:0:
312,136,118720,2,0,L|208:136,1,95,8|2,0:0|0:0,0:0:0:0:
392,136,119189,6,0,L|496:136,2,95,2|2|8,0:0|0:0|0:0,0:0:0:0:
272,136,119892,1,0,0:0:0:0:
32,128,120126,2,0,L|136:128,1,95,2|2,0:0|0:0,0:0:0:0:
256,128,120595,1,8,0:0:0:0:
127,128,120829,1,0,0:0:0:0:
432,128,121064,6,0,L|336:128,1,95,2|0,0:0|0:0,0:0:0:0:
160,128,121532,2,0,L|256:128,1,95,2|0,0:0|0:0,0:0:0:0:
48,128,122001,1,2,0:0:0:0:
168,128,122235,1,8,0:0:0:0:
48,128,122470,1,2,0:0:0:0:
168,128,122704,1,8,0:0:0:0:
471,128,122939,6,0,L|343:128,1,126.666666666667,2|0,0:0|0:0,0:0:0:0:
255,128,123407,2,0,L|399:128,1,126.666666666667,2|0,0:0|0:0,0:0:0:0:
471,128,123876,2,0,P|487:192|375:240,1,190,2|0,0:0|0:0,0:0:0:0:
32,256,124814,6,0,L|144:256,1,95,6|0,0:0|0:0,0:0:0:0:
440,240,125282,1,8,0:0:0:0:
400,320,125439,1,0,0:0:0:0:
312,328,125595,1,0,0:0:0:0:
160,248,125751,1,2,0:0:0:0:
80,248,125907,1,0,0:0:0:0:
160,248,126064,1,0,0:0:0:0:
328,248,126220,2,0,L|392:248,2,63.3333333333333,8|0|0,0:0|0:0|0:0,0:0:0:0:
152,248,126689,5,2,0:0:0:0:
440,248,127157,2,0,L|328:248,1,95,8|0,0:0|0:0,0:0:0:0:
152,248,127626,2,0,L|40:248,2,95,2|0|8,0:0|0:0|0:0,0:0:0:0:
472,248,128564,6,0,L|368:248,1,95,2|0,0:0|0:0,0:0:0:0:
72,240,129032,1,8,0:0:0:0:
128,312,129189,1,0,0:0:0:0:
216,336,129345,1,0,0:0:0:0:
384,336,129501,1,2,0:0:0:0:
464,336,129657,1,0,0:0:0:0:
384,336,129814,1,0,0:0:0:0:
256,336,129970,1,8,0:0:0:0:
168,336,130126,1,0,0:0:0:0:
80,336,130282,1,0,0:0:0:0:
224,240,130439,6,0,L|344:240,2,95,2|0|2,0:0|0:0|0:0,0:0:0:0:
104,240,131142,1,8,0:0:0:0:
400,240,131376,1,2,0:0:0:0:
152,248,131845,1,8,0:0:0:0:
32,248,132079,1,0,0:0:0:0:
344,248,132314,6,0,L|456:248,1,95,6|0,0:0|0:0,0:0:0:0:
232,248,132782,2,0,L|152:248,2,63.3333333333333,8|0|0,0:0|0:0|0:0,0:0:0:0:
320,248,133251,2,0,L|400:248,2,63.3333333333333,2|0|0,0:0|0:0|0:0,0:0:0:0:
200,248,133720,1,8,0:0:0:0:
104,248,133876,1,0,0:0:0:0:
200,248,134032,1,0,0:0:0:0:
368,248,134189,5,2,0:0:0:0:
128,232,134657,2,0,L|24:232,1,95,8|0,0:0|0:0,0:0:0:0:
256,232,135126,2,0,L|360:232,1,95,2|0,0:0|0:0,0:0:0:0:
224,232,135595,1,8,0:0:0:0:
496,232,136064,6,0,L|392:232,1,95,2|0,0:0|0:0,0:0:0:0:
104,224,136532,1,8,0:0:0:0:
24,224,136689,1,0,0:0:0:0:
104,224,136845,1,0,0:0:0:0:
256,224,137001,1,2,0:0:0:0:
336,224,137157,1,0,0:0:0:0:
256,224,137314,1,0,0:0:0:0:
408,224,137470,1,8,0:0:0:0:
488,224,137626,1,0,0:0:0:0:
408,224,137782,1,0,0:0:0:0:
256,224,137939,5,2,0:0:0:0:
351,224,138407,2,0,L|247:224,1,95,2|0,0:0|0:0,0:0:0:0:
136,224,138876,1,2,0:0:0:0:
392,240,139345,2,0,L|488:240,1,95,4|4,0:0|0:0,0:0:0:0:
160,248,139814,6,0,L|40:248,1,95,6|0,0:0|0:0,0:0:0:0:
192,248,140282,1,8,0:0:0:0:
72,248,140517,1,0,0:0:0:0:
288,248,140751,1,2,0:0:0:0:
408,248,140985,1,0,0:0:0:0:
328,248,141142,1,0,0:0:0:0:
368,248,141220,1,8,0:0:0:0:
488,248,141454,1,0,0:0:0:0:
136,256,141689,5,2,0:0:0:0:
440,256,142157,2,0,L|344:256,1,95,8|0,0:0|0:0,0:0:0:0:
48,256,142626,1,2,0:0:0:0:
168,256,142860,1,0,0:0:0:0:
48,256,143095,1,8,0:0:0:0:
368,256,143564,6,0,L|488:256,1,95,2|0,0:0|0:0,0:0:0:0:
152,264,144032,2,0,L|40:264,1,95,8|0,0:0|0:0,0:0:0:0:
248,264,144501,1,2,0:0:0:0:
368,264,144735,1,0,0:0:0:0:
288,264,144892,1,0,0:0:0:0:
328,264,144970,1,8,0:0:0:0:
456,264,145204,1,0,0:0:0:0:
160,264,145439,6,0,L|48:264,2,95,2|8|2,0:0|0:0|0:0,0:0:0:0:
280,264,146142,1,8,0:0:0:0:
160,264,146376,1,2,0:0:0:0:
464,264,146845,2,0,L|360:264,1,95,8|0,0:0|0:0,0:0:0:0:
64,272,147314,5,6,0:0:0:0:
336,272,147782,2,0,L|232:272,1,95,8|0,0:0|0:0,0:0:0:0:
120,272,148251,2,0,L|232:272,1,95,2|0,0:0|0:0,0:0:0:0:
312,272,148642,1,0,0:0:0:0:
352,272,148720,1,8,0:0:0:0:
464,272,148954,1,0,0:0:0:0:
256,272,149189,5,2,0:0:0:0:
56,272,149657,2,0,L|168:272,1,95,8|0,0:0|0:0,0:0:0:0:
456,272,150126,2,0,L|344:272,1,95,2|0,0:0|0:0,0:0:0:0:
160,272,150595,1,8,0:0:0:0:
448,272,151064,5,2,0:0:0:0:
96,272,151532,2,0,L|192:272,1,95,8|0,0:0|0:0,0:0:0:0:
56,272,152001,2,0,L|168:272,1,95,2|0,0:0|0:0,0:0:0:0:
232,272,152392,1,0,0:0:0:0:
272,272,152470,1,8,0:0:0:0:
151,272,152704,1,0,0:0:0:0:
472,272,152939,5,2,0:0:0:0:
304,272,153407,1,2,0:0:0:0:
120,272,153876,1,2,0:0:0:0:
368,264,154345,2,0,L|472:264,1,95,2|0,0:0|0:0,0:0:0:0:
160,272,154814,6,0,P|96:272|56:168,1,190,6|8,0:0|0:0,0:0:0:0:
256,168,155517,1,2,0:0:0:0:
456,168,155985,2,0,L|360:168,2,95,0|8|0,0:0|0:0|0:0,0:0:0:0:
232,168,156689,6,0,P|160:192|240:208,1,190,2|8,0:0|0:0,0:0:0:0:
400,224,157392,2,0,P|488:272|368:312,1,285,2|8,0:0|0:0,0:0:0:0:
248,312,158329,1,0,0:0:0:0:
24,312,158564,6,0,L|104:240,1,95,2|0,0:0|0:0,0:0:0:0:
208,232,159032,1,8,0:0:0:0:
408,232,159267,1,2,0:0:0:0:
176,224,159735,1,0,0:0:0:0:
296,224,159970,2,0,L|201:224,1,95,8|0,0:0|0:0,0:0:0:0:
400,224,160439,6,0,L|512:224,2,95,2|0|8,0:0|0:0|0:0,0:0:0:0:
280,224,161142,1,2,0:0:0:0:
64,216,161610,1,0,0:0:0:0:
184,216,161845,2,0,L|72:216,1,95,8|0,0:0|0:0,0:0:0:0:
416,216,162314,5,2,0:0:0:0:
208,216,162782,1,8,0:0:0:0:
392,216,163017,2,0,L|488:216,2,95,2|0|0,0:0|0:0|0:0,0:0:0:0:
272,216,163720,1,8,0:0:0:0:
152,216,163954,1,0,0:0:0:0:
392,152,164189,6,0,L|272:152,1,95,2|0,0:0|0:0,0:0:0:0:
176,152,164657,1,8,0:0:0:0:
368,152,164892,2,0,L|463:152,1,95,2|0,0:0|0:0,0:0:0:0:
136,152,165595,2,0,L|40:152,1,95,8|0,0:0|0:0,0:0:0:0:
256,152,166064,5,2,0:0:0:0:
456,152,166532,1,8,0:0:0:0:
264,152,166767,2,0,L|160:152,1,95,2|0,0:0|0:0,0:0:0:0:
304,152,167235,2,0,L|200:152,1,95,0|8,0:0|0:0,0:0:0:0:
88,152,167704,1,0,0:0:0:0:
384,152,167939,6,0,L|488:152,1,95,10|0,0:0|0:0,0:0:0:0:
128,152,168407,2,0,L|8:152,1,95,10|0,0:0|0:0,0:0:0:0:
336,152,168876,2,0,L|448:152,1,95,10|0,0:0|0:0,0:0:0:0:
208,152,169345,1,2,0:0:0:0:
256,152,169814,6,0,L|368:152,1,95,2|0,0:0|0:0,0:0:0:0:
224,152,170282,2,0,L|120:152,2,95,8|0|2,0:0|0:0|0:0,0:0:0:0:
112,224,171220,2,0,L|208:224,1,95,8|0,0:0|0:0,0:0:0:0:
328,224,171689,6,0,L|424:224,2,95,2|0|8,0:0|0:0|0:0,0:0:0:0:
207,224,172392,1,0,0:0:0:0:
328,224,172626,1,2,0:0:0:0:
80,216,173095,2,0,L|184:216,1,95,8|0,0:0|0:0,0:0:0:0:
296,216,173564,5,2,0:0:0:0:
64,216,174032,2,0,L|160:216,1,95,8|0,0:0|0:0,0:0:0:0:
280,216,174501,1,2,0:0:0:0:
400,216,174735,2,0,L|288:216,1,95,0|8,0:0|0:0,0:0:0:0:
184,208,175204,1,0,0:0:0:0:
304,208,175439,5,2,0:0:0:0:
184,208,175673,2,0,L|80:208,2,95,0|8|0,0:0|0:0|0:0,0:0:0:0:
304,208,176376,1,2,0:0:0:0:
128,208,176845,1,8,0:0:0:0:
376,200,177314,6,0,L|480:200,1,95,2|0,0:0|0:0,0:0:0:0:
344,200,177782,2,0,P|256:200|296:288,1,190,8|2,0:0|0:0,0:0:0:0:
392,280,178485,1,0,0:0:0:0:
256,280,178720,1,8,0:0:0:0:
432,280,179189,6,0,L|320:280,1,95,2|0,0:0|0:0,0:0:0:0:
216,280,179657,1,8,0:0:0:0:
337,280,179892,1,0,0:0:0:0:
464,280,180126,2,0,L|360:280,1,95,2|0,0:0|0:0,0:0:0:0:
248,280,180595,2,0,L|136:280,1,95,8|0,0:0|0:0,0:0:0:0:
256,272,181064,5,2,0:0:0:0:
480,272,181532,2,0,L|384:272,1,95,8|0,0:0|0:0,0:0:0:0:
264,272,182001,2,0,L|376:272,1,95,2|0,0:0|0:0,0:0:0:0:
480,272,182470,1,8,0:0:0:0:
359,272,182704,1,8,0:0:0:0:
232,272,182939,6,0,L|136:272,1,95,0|0,0:0|0:0,0:0:0:0:
256,272,183407,1,8,0:0:0:0:
376,272,183642,1,2,0:0:0:0:
256,272,183876,1,2,0:0:0:0:
136,272,184110,1,2,0:0:0:0:
256,272,184345,2,0,L|256:168,1,95,8|2,0:0|0:0,0:0:0:0:
