osu file format v14

[General]
AudioFilename: audio.mp3
AudioLeadIn: 0
PreviewTime: 45360
Countdown: 0
SampleSet: Soft
StackLeniency: 0.7
Mode: 2
LetterboxInBreaks: 0
WidescreenStoryboard: 0

[Editor]
DistanceSpacing: 1.3
BeatDivisor: 4
GridSize: 8
TimelineZoom: 1.5

[Metadata]
Title:OKAY
TitleUnicode:OKAY
Artist:Tokyo Machine
ArtistUnicode:Tokyo Machine
Creator:WildOne94
Version:Cup
Source:
Tags:Monstercat Electronic 8-bit Xinely uproar supremacy
BeatmapID:1076845
BeatmapSetID:506237

[Difficulty]
HPDrainRate:3
CircleSize:2.5
OverallDifficulty:6
ApproachRate:6
SliderMultiplier:1.3
SliderTickRate:1

[Events]
//Background and Video events
0,0,"cute-anime-animal-wallpaper-cute-pokemon-wallpaper.jpg",0,0
//Break Periods
2,94814,101142
//Storyboard Layer 0 (Background)
//Storyboard Layer 1 (Fail)
//Storyboard Layer 2 (Pass)
//Storyboard Layer 3 (Foreground)
//Storyboard Sound Samples

[TimingPoints]
1064,468.75,4,2,2,40,1,0
14189,-100,4,2,2,45,0,0
15595,-100,4,2,2,35,0,0
16064,-100,4,2,1,60,0,0
22860,-100,4,2,1,50,0,0
23564,-100,4,2,1,70,0,0
29189,-100,4,2,1,75,0,0
31064,-100,4,2,1,40,0,0
38564,-100,4,2,1,50,0,0
40439,-100,4,2,1,55,0,0
42314,-100,4,2,1,60,0,0
43251,-100,4,2,1,70,0,0
44189,-100,4,2,1,80,0,0
45360,-100,4,2,1,15,0,0
46064,-100,4,2,1,80,0,1
51689,-100,4,2,1,90,0,1
52860,-100,4,2,1,60,0,1
53564,-100,4,2,1,80,0,1
59189,-100,4,2,1,60,0,0
60595,-100,4,2,1,70,0,0
61064,-100,4,2,1,80,0,1
66689,-100,4,2,1,90,0,1
67860,-100,4,2,1,60,0,1
68564,-100,4,2,1,80,0,1
72314,-100,4,2,1,85,0,1
74189,-100,4,2,1,70,0,0
75595,-100,4,2,1,50,0,0
76064,-100,4,2,1,60,0,0
83564,-100,4,2,1,65,0,0
89189,-100,4,2,1,70,0,0
90595,-100,4,2,1,75,0,0
91064,-100,4,2,1,25,0,0
93876,-100,4,2,1,5,0,0
102314,-100,4,2,2,35,0,0
109814,-100,4,2,1,40,0,0
113564,-100,4,2,1,50,0,0
115439,-100,4,2,1,55,0,0
117314,-100,4,2,1,60,0,0
119189,-100,4,2,1,65,0,0
121064,-100,4,2,1,70,0,0
122001,-100,4,2,1,75,0,0
122470,-100,4,2,1,80,0,0
122939,-100,4,2,1,30,0,0
124814,-100,4,2,1,80,0,1
130439,-100,4,2,1,90,0,1
131610,-100,4,2,1,60,0,1
132314,-100,4,2,1,80,0,1
137939,-100,4,2,1,60,0,0
139345,-100,4,2,1,70,0,0
139814,-100,4,2,1,80,0,1
145439,-100,4,2,1,90,0,1
146610,-100,4,2,1,60,0,1
147314,-100,4,2,1,80,0,1
151064,-100,4,2,1,85,0,1
152939,-100,4,2,1,70,0,0
154345,-100,4,2,1,50,0,0
154814,-100,4,2,1,60,0,0
162314,-100,4,2,1,65,0,0
167939,-100,4,2,1,45,0,0
169345,-100,4,2,2,45,0,0
169814,-100,4,2,2,40,0,0
177314,-100,4,2,2,30,0,0

[Colours]
Combo1 : 183,0,183
Combo2 : 255,128,192
Combo3 : 244,89,81
Combo4 : 242,36,67

[HitObjects]
256,192,1064,6,0,L|408:192,1,130,2|8,0:0|0:0,0:0:0:0:
216,192,2001,2,0,L|64:192,1,130,2|8,0:0|0:0,0:0:0:0:
256,192,2939,5,2,0:0:0:0:
424,192,3407,1,8,0:0:0:0:
336,192,3642,1,0,0:0:0:0:
248,192,3876,1,2,0:0:0:0:
80,192,4345,2,8,L|160:192,1,65,8|0,0:0|0:0,0:0:0:0:
232,192,4814,6,0,L|376:192,2,130,2|8|2,0:0|0:0|0:0,0:0:0:0:
72,192,6220,1,8,0:0:0:0:
160,192,6454,1,0,0:0:0:0:
256,192,6689,6,0,L|408:192,1,130,2|8,0:0|0:0,0:0:0:0:
216,192,7626,2,0,L|363:192,1,130,2|8,0:0|0:0,0:0:0:0:
176,192,8564,6,0,P|120:176|64:120,1,130,2|8,0:0|0:0,0:0:0:0:
232,120,9501,1,2,0:0:0:0:
400,120,9970,1,8,0:0:0:0:
256,192,10439,5,2,0:0:0:0:
344,192,10673,2,0,L|440:192,2,65,0|8|0,0:0|0:0|0:0,0:0:0:0:
256,192,11376,1,2,0:0:0:0:
424,192,11845,1,8,0:0:0:0:
216,192,12314,6,0,L|64:192,1,130,2|8,0:0|0:0,0:0:0:0:
168,192,13017,1,0,0:0:0:0:
256,192,13251,2,0,L|408:192,1,130,2|8,0:0|0:0,0:0:0:0:
216,192,14189,6,0,L|64:192,2,130,2|8|2,0:0|0:0|0:0,0:0:0:0:
48,192,15595,1,8,0:0:0:0:
256,192,16064,6,0,P|328:232|248:240,1,195,6|2,0:0|0:0,0:0:0:0:
96,264,17470,1,2,0:0:0:0:
312,264,17939,6,0,P|424:240|408:168,2,195,2|2|0,0:0|0:0|0:0,0:0:0:0:
224,264,19579,1,0,0:0:0:0:
136,264,19814,6,0,P|112:224|152:144,1,130,2|0,0:0|0:0,0:0:0:0:
240,144,20517,1,2,0:0:0:0:
408,144,20985,1,0,0:0:0:0:
224,264,21454,6,0,L|80:264,2,130,2|2|2,0:0|0:0|0:0,0:0:0:0:
424,264,22860,2,0,L|488:264,2,65,2|2|2,0:0|0:0|0:0,0:0:0:0:
336,264,23564,6,0,P|272:280|184:192,1,195,6|2,0:0|0:0,0:0:0:0:
424,200,24970,1,8,0:0:0:0:
256,192,25439,6,0,P|360:192|416:96,1,195,2|2,0:0|0:0,0:0:0:0:
160,128,26845,2,0,L|88:128,1,65,8|0,0:0|0:0,0:0:0:0:
184,128,27314,6,0,L|336:128,1,130,2|8,0:0|0:0,0:0:0:0:
224,128,28017,2,0,L|64:128,1,130,2|0,0:0|0:0,0:0:0:0:
368,128,29189,6,0,L|224:128,3,130,10|10|10|0,0:0|0:0|0:0|0:0,0:0:0:0:
56,136,31064,5,6,0:0:0:0:
240,136,31532,1,8,0:0:0:0:
408,144,32001,2,0,P|456:112|392:88,1,130,2|8,0:0|0:0,0:0:0:0:
256,120,32939,6,0,L|386:120,1,130,2|8,0:0|0:0,0:0:0:0:
304,120,33642,1,0,0:0:0:0:
216,120,33876,2,0,L|151:120,2,65,2|0|8,0:0|0:0|0:0,0:0:0:0:
376,136,34814,5,2,0:0:0:0:
176,136,35282,1,8,0:0:0:0:
376,136,35751,2,0,L|464:136,2,65,2|0|8,0:0|0:0|0:0,0:0:0:0:
280,136,36454,1,0,0:0:0:0:
192,136,36689,6,0,L|352:136,1,130,2|8,0:0|0:0,0:0:0:0:
128,128,37626,2,0,L|40:128,2,65,2|0|8,0:0|0:0|0:0,0:0:0:0:
312,128,38564,5,6,0:0:0:0:
224,128,38798,1,0,0:0:0:0:
128,128,39032,2,0,L|272:128,1,130,8|2,0:0|0:0,0:0:0:0:
440,128,39970,1,8,0:0:0:0:
256,128,40439,5,2,0:0:0:0:
168,128,40673,1,2,0:0:0:0:
80,128,40907,1,8,0:0:0:0:
264,128,41376,2,0,L|352:128,2,65,2|2|8,0:0|0:0|0:0,0:0:0:0:
80,128,42314,6,0,L|224:128,1,130,2|2,0:0|0:0,0:0:0:0:
304,128,43017,1,8,0:0:0:0:
392,128,43251,2,0,L|248:128,1,130,2|2,0:0|0:0,0:0:0:0:
168,136,43954,1,8,0:0:0:0:
256,136,44189,6,0,L|416:136,1,130,2|2,0:0|0:0,0:0:0:0:
386,136,44892,1,8,0:0:0:0:
256,136,45360,2,0,L|256:224,1,65,0|0,0:0|0:0,0:0:0:0:
448,200,46064,6,0,L|288:200,1,130,6|8,0:0|0:0,0:0:0:0:
136,200,47001,2,0,L|40:200,2,65,2|0|8,0:0|0:0|0:0,0:0:0:0:
320,200,47939,5,2,0:0:0:0:
136,200,48407,2,0,L|224:200,2,65,8|0|2,0:0|0:0|0:0,0:0:0:0:
48,200,49110,1,0,0:0:0:0:
136,200,49345,1,8,0:0:0:0:
336,200,49814,6,0,L|496:200,1,130,2|8,0:0|0:0,0:0:0:0:
280,200,50751,2,0,L|192:200,2,65,2|0|8,0:0|0:0|0:0,0:0:0:0:
416,200,51689,6,0,L|256:200,1,130,2|2,0:0|0:0,0:0:0:0:
192,200,52392,1,8,0:0:0:0:
104,200,52626,1,2,0:0:0:0:
224,200,53095,1,8,0:0:0:0:
408,200,53564,6,0,L|256:200,1,130,6|8,0:0|0:0,0:0:0:0:
96,200,54501,1,2,0:0:0:0:
184,200,54735,1,0,0:0:0:0:
272,200,54970,1,8,0:0:0:0:
88,200,55439,5,2,0:0:0:0:
272,200,55907,2,0,L|360:200,1,65,8|0,0:0|0:0,0:0:0:0:
432,200,56376,2,0,L|352:200,1,65,2|0,0:0|0:0,0:0:0:0:
272,200,56845,1,8,0:0:0:0:
72,208,57314,6,0,L|232:208,1,130,2|8,0:0|0:0,0:0:0:0:
360,208,58251,2,0,L|456:208,2,65,2|0|8,0:0|0:0|0:0,0:0:0:0:
152,216,59189,6,0,P|72:224|32:280,2,130,2|2|2,0:0|0:0|0:0,0:0:0:0:
288,176,60595,1,4,0:0:0:0:
376,176,60829,1,4,0:0:0:0:
288,176,61064,6,0,L|136:176,1,130,6|8,0:0|0:0,0:0:0:0:
328,168,62001,2,0,L|408:168,2,65,2|0|8,0:0|0:0|0:0,0:0:0:0:
104,144,62939,5,2,0:0:0:0:
288,152,63407,1,8,0:0:0:0:
376,152,63642,1,0,0:0:0:0:
288,152,63876,2,0,L|192:152,2,65,2|0|8,0:0|0:0|0:0,0:0:0:0:
472,152,64814,6,0,L|320:152,1,130,2|8,0:0|0:0,0:0:0:0:
160,144,65751,1,2,0:0:0:0:
72,144,65985,1,0,0:0:0:0:
160,144,66220,1,8,0:0:0:0:
344,144,66689,6,0,L|192:144,1,130,2|2,0:0|0:0,0:0:0:0:
304,144,67392,1,8,0:0:0:0:
392,144,67626,1,2,0:0:0:0:
208,144,68095,1,8,0:0:0:0:
434,144,68564,6,0,L|282:144,1,130,6|8,0:0|0:0,0:0:0:0:
136,152,69501,2,0,L|71:152,2,65,2|0|8,0:0|0:0|0:0,0:0:0:0:
336,152,70439,5,2,0:0:0:0:
152,160,70907,1,8,0:0:0:0:
240,160,71142,1,0,0:0:0:0:
328,160,71376,1,2,0:0:0:0:
240,160,71610,1,0,0:0:0:0:
152,160,71845,1,8,0:0:0:0:
321,160,72314,6,0,L|457:160,1,130,2|8,0:0|0:0,0:0:0:0:
256,160,73251,2,0,L|192:160,2,65,2|0|8,0:0|0:0|0:0,0:0:0:0:
176,168,74189,5,2,0:0:0:0:
344,168,74657,1,2,0:0:0:0:
152,168,75126,1,2,0:0:0:0:
344,160,75595,2,0,L|256:160,1,65,0|0,0:0|0:0,0:0:0:0:
184,160,76064,6,0,P|107:162|48:272,2,195,6|2|8,0:0|0:0|0:0,0:0:0:0:
368,160,77939,6,0,P|296:160|176:240,1,195,2|2,0:0|0:0,0:0:0:0:
400,216,79345,2,0,L|464:216,1,65,8|0,0:0|0:0,0:0:0:0:
376,160,79814,5,2,0:0:0:0:
192,168,80282,1,8,0:0:0:0:
280,176,80517,2,0,L|440:176,1,130,2|0,0:0|0:0,0:0:0:0:
224,176,81454,1,0,0:0:0:0:
136,176,81689,6,0,L|40:176,2,65,2|0|8,0:0|0:0|0:0,0:0:0:0:
224,176,82392,1,2,0:0:0:0:
440,184,83095,1,8,0:0:0:0:
272,192,83564,6,0,P|208:248|280:272,1,195,6|2,0:0|0:0,0:0:0:0:
144,296,84970,1,8,0:0:0:0:
328,296,85439,5,2,0:0:0:0:
136,216,85907,1,8,0:0:0:0:
48,216,86142,2,0,P|96:152|216:144,1,195,2|8,0:0|0:0,0:0:0:0:
288,136,87079,1,0,0:0:0:0:
376,136,87314,6,0,L|232:136,1,130,2|8,0:0|0:0,0:0:0:0:
160,136,88017,1,2,0:0:0:0:
328,144,88485,1,0,0:0:0:0:
104,144,88954,1,0,0:0:0:0:
192,144,89189,6,0,L|328:144,3,130,10|10|10|4,0:0|0:0|0:0|0:0,0:0:0:0:
256,192,91064,12,0,93876,0:0:0:0:
256,192,102314,5,2,0:0:0:0:
120,192,103017,1,2,0:0:0:0:
336,192,103720,1,2,0:0:0:0:
192,192,104189,6,0,P|296:192|344:96,1,195,2|2,0:0|0:0,0:0:0:0:
104,112,105595,2,0,L|176:112,1,65,2|2,0:0|0:0,0:0:0:0:
256,112,106064,6,0,L|416:112,1,130,2|2,0:0|0:0,0:0:0:0:
472,112,106767,1,2,0:0:0:0:
304,112,107235,1,2,0:0:0:0:
440,112,107704,5,2,0:0:0:0:
256,104,108173,2,0,L|104:104,1,130,2|2,0:0|0:0,0:0:0:0:
256,112,109110,2,0,L|256:200,1,65,0|2,0:0|0:0,0:0:0:0:
440,168,109814,5,6,0:0:0:0:
256,168,110282,1,8,0:0:0:0:
424,168,110751,2,0,P|416:216|344:216,1,130,2|8,0:0|0:0,0:0:0:0:
176,192,111689,6,0,L|306:192,1,130,2|8,0:0|0:0,0:0:0:0:
392,192,112392,1,0,0:0:0:0:
306,192,112626,2,0,L|241:192,2,65,2|0|8,0:0|0:0|0:0,0:0:0:0:
160,168,113564,5,2,0:0:0:0:
344,168,114032,1,8,0:0:0:0:
160,168,114501,2,0,L|95:168,2,65,2|0|8,0:0|0:0|0:0,0:0:0:0:
344,176,115439,5,2,0:0:0:0:
168,176,115907,2,0,L|240:176,1,65,8|0,0:0|0:0,0:0:0:0:
328,176,116376,2,0,L|256:176,1,65,2|0,0:0|0:0,0:0:0:0:
168,176,116845,1,8,0:0:0:0:
352,184,117314,6,0,L|496:184,1,130,6|8,0:0|0:0,0:0:0:0:
296,184,118251,2,0,L|144:184,1,130,2|8,0:0|0:0,0:0:0:0:
336,184,119189,6,0,L|408:184,2,65,2|2|8,0:0|0:0|0:0,0:0:0:0:
168,184,120126,1,2,0:0:0:0:
256,184,120360,1,2,0:0:0:0:
344,184,120595,1,8,0:0:0:0:
176,184,121064,6,0,P|128:184|64:112,2,130,2|2|2,0:0|0:0|0:0,0:0:0:0:
256,184,122235,2,0,L|321:184,2,65,8|2|8,0:0|0:0|0:0,0:0:0:0:
168,184,122939,5,2,0:0:0:0:
344,192,123407,1,2,0:0:0:0:
136,192,123876,2,0,P|96:152|144:152,1,130,2|0,0:0|0:0,0:0:0:0:
336,152,124814,6,0,L|206:152,1,130,6|8,0:0|0:0,0:0:0:0:
360,160,125751,2,0,L|456:160,1,86.6666666666667,2|0,0:0|0:0,0:0:0:0:
400,160,126220,2,0,L|304:160,1,86.6666666666667,8|0,0:0|0:0,0:0:0:0:
256,168,126689,1,2,0:0:0:0:
96,184,127157,6,0,L|31:184,2,65,8|0|2,0:0|0:0|0:0,0:0:0:0:
184,184,127860,1,0,0:0:0:0:
272,184,128095,1,8,0:0:0:0:
424,192,128564,6,0,L|288:192,1,130,2|8,0:0|0:0,0:0:0:0:
96,192,129501,2,0,L|200:192,1,86.6666666666667,2|0,0:0|0:0,0:0:0:0:
240,192,129970,2,0,L|344:192,1,86.6666666666667,8|0,0:0|0:0,0:0:0:0:
264,192,130439,6,0,L|120:192,1,130,2|2,0:0|0:0,0:0:0:0:
224,192,131142,1,8,0:0:0:0:
312,200,131376,1,2,0:0:0:0:
128,200,131845,1,8,0:0:0:0:
312,200,132314,6,0,L|456:200,1,130,6|8,0:0|0:0,0:0:0:0:
256,192,133251,2,0,L|152:192,1,86.6666666666667,2|0,0:0|0:0,0:0:0:0:
232,192,133720,2,0,L|336:192,1,86.6666666666667,8|0,0:0|0:0,0:0:0:0:
256,192,134189,5,2,0:0:0:0:
72,192,134657,2,0,L|144:192,1,65,8|0,0:0|0:0,0:0:0:0:
232,192,135126,2,0,L|312:192,2,65,2|0|8,0:0|0:0|0:0,0:0:0:0:
48,192,136064,6,0,L|184:192,1,130,2|8,0:0|0:0,0:0:0:0:
360,192,137001,1,2,0:0:0:0:
424,192,137157,1,0,0:0:0:0:
360,192,137314,1,0,0:0:0:0:
296,192,137470,2,0,L|192:192,1,86.6666666666667,8|0,0:0|0:0,0:0:0:0:
272,192,137939,6,0,L|402:192,2,130,2|2|2,0:0|0:0|0:0,0:0:0:0:
456,192,139345,2,0,L|384:192,1,65,4|4,0:0|0:0,0:0:0:0:
280,192,139814,6,0,L|150:192,1,130,6|8,0:0|0:0,0:0:0:0:
352,192,140751,2,0,L|417:192,2,65,2|0|8,0:0|0:0|0:0,0:0:0:0:
200,152,141689,6,0,L|360:152,1,130,2|8,0:0|0:0,0:0:0:0:
240,152,142392,1,0,0:0:0:0:
152,152,142626,2,0,L|64:152,2,65,2|0|8,0:0|0:0|0:0,0:0:0:0:
368,152,143564,6,0,L|224:152,1,130,2|8,0:0|0:0,0:0:0:0:
424,152,144501,2,0,L|488:152,2,65,2|0|8,0:0|0:0|0:0,0:0:0:0:
240,152,145439,6,0,L|160:152,1,65,2|8,0:0|0:0,0:0:0:0:
88,152,145907,2,0,L|184:152,1,65,2|8,0:0|0:0,0:0:0:0:
256,152,146376,1,2,0:0:0:0:
432,152,146845,1,8,0:0:0:0:
208,152,147314,6,0,L|56:152,1,130,6|8,0:0|0:0,0:0:0:0:
264,152,148251,1,2,0:0:0:0:
352,152,148485,1,0,0:0:0:0:
440,152,148720,1,8,0:0:0:0:
256,152,149189,5,2,0:0:0:0:
256,152,149657,2,0,L|352:152,2,65,8|0|2,0:0|0:0|0:0,0:0:0:0:
168,152,150360,1,0,0:0:0:0:
256,152,150595,1,8,0:0:0:0:
440,152,151064,6,0,L|304:152,1,130,2|8,0:0|0:0,0:0:0:0:
128,152,152001,2,0,L|40:152,1,65,2|0,0:0|0:0,0:0:0:0:
152,152,152470,2,0,L|248:152,1,65,8|0,0:0|0:0,0:0:0:0:
312,152,152939,6,0,L|464:152,2,130,2|2|2,0:0|0:0|0:0,0:0:0:0:
128,152,154345,1,2,0:0:0:0:
312,160,154814,6,0,P|304:96|192:64,1,195,6|2,0:0|0:0,0:0:0:0:
32,112,156220,1,8,0:0:0:0:
256,112,156689,6,0,P|184:112|96:200,1,195,2|2,0:0|0:0,0:0:0:0:
368,200,158095,2,0,L|440:200,1,65,8|0,0:0|0:0,0:0:0:0:
344,200,158564,6,0,L|200:200,1,130,2|8,0:0|0:0,0:0:0:0:
120,200,159267,2,0,L|272:200,1,130,2|0,0:0|0:0,0:0:0:0:
408,200,160204,1,0,0:0:0:0:
320,200,160439,6,0,L|248:200,2,65,2|0|8,0:0|0:0|0:0,0:0:0:0:
408,200,161142,1,2,0:0:0:0:
160,192,161845,1,8,0:0:0:0:
344,192,162314,6,0,P|248:160|144:200,1,195,2|2,0:0|0:0,0:0:0:0:
432,184,163720,1,8,0:0:0:0:
248,176,164189,6,0,P|128:176|64:240,2,195,2|2|8,0:0|0:0|0:0,0:0:0:0:
336,184,165829,1,0,0:0:0:0:
248,176,166064,6,0,P|104:176|88:208,1,195,2|2,0:0|0:0,0:0:0:0:
272,192,167235,1,0,0:0:0:0:
472,200,167704,1,0,0:0:0:0:
384,192,167939,6,0,L|224:192,3,130,10|10|10|2,0:0|0:0|0:0|0:0,0:0:0:0:
254,192,169814,5,2,0:0:0:0:
392,192,170282,1,8,0:0:0:0:
184,192,170751,1,2,0:0:0:0:
352,184,171220,1,8,0:0:0:0:
184,176,171689,6,0,L|40:176,1,130,2|8,0:0|0:0,0:0:0:0:
224,176,172626,1,2,0:0:0:0:
400,184,173095,2,0,L|472:184,1,65,8|0,0:0|0:0,0:0:0:0:
376,184,173564,6,0,L|232:184,2,130,2|8|2,0:0|0:0|0:0,0:0:0:0:
192,184,174970,2,0,L|104:184,1,65,8|0,0:0|0:0,0:0:0:0:
216,184,175439,6,0,L|352:184,1,130,2|8,0:0|0:0,0:0:0:0:
160,184,176376,1,2,0:0:0:0:
352,184,176845,1,8,0:0:0:0:
168,184,177314,6,0,L|320:184,2,130,2|8|2,0:0|0:0|0:0,0:0:0:0:
368,184,178720,1,8,0:0:0:0:
200,184,179189,6,0,L|352:184,1,130,2|8,0:0|0:0,0:0:0:0:
160,184,180126,1,2,0:0:0:0:
360,184,180595,2,0,L|272:184,1,65,8|0,0:0|0:0,0:0:0:0:
208,184,181064,6,0,L|56:184,2,130,2|8|2,0:0|0:0|0:0,0:0:0:0:
376,184,182470,1,8,0:0:0:0:
288,184,182704,1,8,0:0:0:0:
200,184,182939,6,0,L|112:184,2,65,0|0|8,0:0|0:0|0:0,0:0:0:0:
288,184,183642,1,2,0:0:0:0:
376,184,183876,2,0,L|472:184,2,65,2|2|8,0:0|0:0|0:0,0:0:0:0:
256,192,184579,1,2,0:0:0:0:
