osu file format v14

[General]
AudioFilename: audio.mp3
AudioLeadIn: 0
PreviewTime: 45360
Countdown: 0
SampleSet: Soft
StackLeniency: 0.7
Mode: 2
LetterboxInBreaks: 0
WidescreenStoryboard: 1

[Editor]
Bookmarks: 16064,21923,154901
DistanceSpacing: 1.3
BeatDivisor: 4
GridSize: 8
TimelineZoom: 2.599999

[Metadata]
Title:OKAY
TitleUnicode:OKAY
Artist:Tokyo Machine
ArtistUnicode:Tokyo Machine
Creator:WildOne94
Version:Rain Collab
Source:
Tags:Monstercat Electronic 8-bit Xinely uproar supremacy
BeatmapID:1087185
BeatmapSetID:506237

[Difficulty]
HPDrainRate:6
CircleSize:4
OverallDifficulty:9
ApproachRate:9
SliderMultiplier:2.3
SliderTickRate:1

[Events]
//Background and Video events
0,0,"cute-anime-animal-wallpaper-cute-pokemon-wallpaper.jpg",0,0
//Break Periods
2,94814,101142
//Storyboard Layer 0 (Background)
//Storyboard Layer 1 (Fail)
//Storyboard Layer 2 (Pass)
//Storyboard Layer 3 (Foreground)
Sprite,Foreground,Centre,"WildOne94 SB.png",320,240 M,0,9,,186,406 S,0,9,,0.5953546 F,0,9,126,0,1 F,0,126,91064,1 F,0,91064,93876,1,0
Sprite,Foreground,Centre,"Xinely SB.png",320,240 F,0,101845,102314,0,1 M,0,102196,,186,413 S,0,102196,,0.611871 F,0,102314,185048,1 F,0,185048,185282,1,0
//Storyboard Sound Samples

[TimingPoints]
1064,468.75,4,2,2,40,1,0
14189,-100,4,2,2,45,0,0
15595,-100,4,2,2,35,0,0
16064,-100,4,2,1,60,0,0
22860,-100,4,2,1,50,0,0
23564,-100,4,2,1,70,0,0
29189,-100,4,2,1,75,0,0
31064,-100,4,2,1,40,0,0
38564,-100,4,2,1,50,0,0
40439,-100,4,2,1,55,0,0
42314,-100,4,2,1,60,0,0
43251,-100,4,2,1,70,0,0
44189,-100,4,2,1,80,0,0
45360,-100,4,2,1,15,0,0
46064,-100,4,2,1,80,0,1
51689,-100,4,2,1,90,0,1
52860,-100,4,2,1,60,0,1
53564,-100,4,2,1,80,0,1
59189,-100,4,2,1,60,0,0
60595,-100,4,2,1,70,0,0
61064,-100,4,2,1,80,0,1
66689,-100,4,2,1,90,0,1
67860,-100,4,2,1,60,0,1
68564,-100,4,2,1,80,0,1
72314,-100,4,2,1,85,0,1
74189,-100,4,2,1,70,0,0
75595,-100,4,2,1,50,0,0
76064,-100,4,2,1,60,0,0
83564,-100,4,2,1,65,0,0
89189,-100,4,2,1,70,0,0
90595,-100,4,2,1,75,0,0
91064,-100,4,2,1,25,0,0
93876,-100,4,2,1,5,0,0
102314,-100,4,2,2,35,0,0
109814,-100,4,2,1,40,0,0
113564,-100,4,2,1,50,0,0
115439,-100,4,2,1,55,0,0
117314,-100,4,2,1,60,0,0
119189,-100,4,2,1,65,0,0
121064,-100,4,2,1,70,0,0
122001,-100,4,2,1,75,0,0
122470,-100,4,2,1,80,0,0
122939,-100,4,2,1,30,0,0
124814,-100,4,2,1,80,0,1
130439,-100,4,2,1,90,0,1
131610,-100,4,2,1,60,0,1
132314,-100,4,2,1,80,0,1
137939,-100,4,2,1,60,0,0
139345,-100,4,2,1,70,0,0
139814,-100,4,2,1,80,0,1
145439,-100,4,2,1,90,0,1
146610,-100,4,2,1,60,0,1
147314,-100,4,2,1,80,0,1
151064,-100,4,2,1,85,0,1
152939,-100,4,2,1,70,0,0
154345,-100,4,2,1,50,0,0
154814,-100,4,2,1,60,0,0
162314,-100,4,2,1,65,0,0
167939,-100,4,2,1,45,0,0
169345,-100,4,2,2,45,0,0
169814,-133.333333333333,4,2,2,40,0,0
177314,-133.333333333333,4,2,2,30,0,0

[Colours]
Combo1 : 183,0,183
Combo2 : 255,128,192
Combo3 : 244,89,81
Combo4 : 242,36,67

[HitObjects]
216,192,1064,6,0,L|344:192,1,115,2|0,0:0|0:0,0:0:0:0:
208,192,1532,2,0,L|88:192,1,115,8|0,0:0|0:0,0:0:0:0:
216,192,2001,1,2,0:0:0:0:
352,192,2235,1,0,0:0:0:0:
216,192,2470,1,8,0:0:0:0:
352,192,2704,1,0,0:0:0:0:
48,192,2939,6,0,P|48:248|192:256,1,230,2|8,0:0|0:0,0:0:0:0:
408,272,3642,1,0,0:0:0:0:
288,272,3876,2,0,L|424:272,1,115,2|0,0:0|0:0,0:0:0:0:
264,272,4345,2,0,L|392:272,1,115,8|0,0:0|0:0,0:0:0:0:
48,280,4814,5,2,0:0:0:0:
360,280,5282,2,0,L|480:280,2,115,8|0|2,0:0|0:0|0:0,0:0:0:0:
152,280,5985,2,0,L|32:280,1,115,0|8,0:0|0:0,0:0:0:0:
344,280,6454,6,0,L|464:280,1,115,0|2,0:0|0:0,0:0:0:0:
280,280,6923,2,0,L|400:280,1,115,0|8,0:0|0:0,0:0:0:0:
192,280,7392,2,0,L|56:280,1,115,0|2,0:0|0:0,0:0:0:0:
216,280,7860,1,0,0:0:0:0:
352,280,8095,2,0,L|480:280,1,115,8|0,0:0|0:0,0:0:0:0:
120,304,8564,6,0,P|48:264|152:184,1,230,2|8,0:0|0:0,0:0:0:0:
328,168,9267,2,0,L|213:168,1,115,0|2,0:0|0:0,0:0:0:0:
368,168,9735,1,0,0:0:0:0:
504,168,9970,1,8,0:0:0:0:
368,168,10204,1,0,0:0:0:0:
64,168,10439,6,0,P|24:232|136:256,1,230,2|8,0:0|0:0,0:0:0:0:
360,256,11142,2,0,L|480:256,1,115,0|2,0:0|0:0,0:0:0:0:
336,256,11610,1,0,0:0:0:0:
40,256,11845,2,0,L|184:256,1,115,8|0,0:0|0:0,0:0:0:0:
472,248,12314,5,2,0:0:0:0:
200,256,12782,2,0,L|72:256,2,115,8|0|2,0:0|0:0|0:0,0:0:0:0:
336,256,13485,2,0,L|216:256,1,115,0|8,0:0|0:0,0:0:0:0:
56,256,13954,6,0,L|184:256,1,115,0|2,0:0|0:0,0:0:0:0:
464,256,14423,2,0,L|336:256,1,115,0|8,0:0|0:0,0:0:0:0:
144,256,14892,2,0,L|16:256,2,115,0|2|0,0:0|0:0|0:0,0:0:0:0:
456,256,15595,1,8,0:0:0:0:
136,256,16064,5,6,0:0:0:0:
456,256,16532,1,0,0:0:0:0:
160,264,16767,2,0,L|32:264,1,115,2|0,0:0|0:0,0:0:0:0:
304,264,17470,2,0,L|424:264,1,115,2|0,0:0|0:0,0:0:0:0:
88,272,17939,5,2,0:0:0:0:
408,256,18407,1,0,0:0:0:0:
200,256,18642,2,0,L|328:256,1,115,2|0,0:0|0:0,0:0:0:0:
224,264,19345,1,0,0:0:0:0:
64,264,19579,1,0,0:0:0:0:
368,264,19814,6,0,L|504:264,1,115,2|0,0:0|0:0,0:0:0:0:
368,264,20282,1,0,0:0:0:0:
40,272,20517,2,0,L|176:272,1,115,2|0,0:0|0:0,0:0:0:0:
360,272,20985,2,0,L|520:272,1,115,0|0,0:0|0:0,0:0:0:0:
155,272,21454,6,0,L|40:272,1,115,2|0,0:0|0:0,0:0:0:0:
349,272,21923,2,0,L|464:272,1,115,2|0,0:0|0:0,0:0:0:0:
160,272,22392,1,2,0:0:0:0:
416,264,22860,1,2,0:0:0:0:
256,264,23095,1,2,0:0:0:0:
96,264,23329,1,2,0:0:0:0:
392,264,23564,6,0,P|456:248|488:184,2,115,6|0|8,0:0|0:0|0:0,0:0:0:0:
88,264,24267,1,2,0:0:0:0:
416,264,24735,2,0,L|301:264,1,115,0|8,0:0|0:0,0:0:0:0:
448,264,25204,1,0,0:0:0:0:
136,264,25439,6,0,L|-16:264,2,115,2|0|8,0:0|0:0|0:0,0:0:0:0:
472,256,26142,2,0,P|472:128|288:112,1,345,2|8,0:0|0:0,0:0:0:0:
448,112,27079,1,0,0:0:0:0:
136,112,27314,6,0,L|16:112,1,115,2|0,0:0|0:0,0:0:0:0:
168,112,27782,1,8,0:0:0:0:
368,112,28017,2,0,L|483:112,2,115,2|0|0,0:0|0:0|0:0,0:0:0:0:
184,120,28720,1,8,0:0:0:0:
464,120,29189,6,0,L|336:120,1,115,10|0,0:0|0:0,0:0:0:0:
48,120,29657,2,0,L|176:120,1,115,10|0,0:0|0:0,0:0:0:0:
456,112,30126,1,10,0:0:0:0:
320,112,30360,2,0,L|448:112,1,115,0|0,0:0|0:0,0:0:0:0:
88,120,31064,5,6,0:0:0:0:
384,120,31532,2,0,L|264:120,1,115,8|0,0:0|0:0,0:0:0:0:
120,120,32001,2,0,L|240:120,2,115,2|0|8,0:0|0:0|0:0,0:0:0:0:
416,128,32939,5,2,0:0:0:0:
120,120,33407,2,0,L|240:120,1,115,8|0,0:0|0:0,0:0:0:0:
384,120,33876,2,0,L|264:120,1,115,2|0,0:0|0:0,0:0:0:0:
120,120,34345,1,8,0:0:0:0:
416,128,34814,6,0,P|472:136|392:184,1,230,2|8,0:0|0:0,0:0:0:0:
96,192,35751,1,2,0:0:0:0:
248,192,35985,1,0,0:0:0:0:
352,192,36142,1,0,0:0:0:0:
400,192,36220,1,8,0:0:0:0:
248,192,36454,1,0,0:0:0:0:
40,192,36689,5,2,0:0:0:0:
352,192,37157,2,0,L|496:192,1,115,8|0,0:0|0:0,0:0:0:0:
320,192,37626,2,0,L|176:192,1,115,2|0,0:0|0:0,0:0:0:0:
352,192,38095,1,8,0:0:0:0:
32,192,38564,5,6,0:0:0:0:
184,192,38798,1,0,0:0:0:0:
336,192,39032,1,8,0:0:0:0:
184,192,39267,1,0,0:0:0:0:
480,192,39501,2,0,L|344:192,1,115,2|0,0:0|0:0,0:0:0:0:
160,192,39970,2,0,L|32:192,1,115,8|0,0:0|0:0,0:0:0:0:
376,192,40439,6,0,L|496:192,2,115,2|2|8,0:0|0:0|0:0,0:0:0:0:
224,192,41142,1,0,0:0:0:0:
72,192,41376,2,0,L|208:192,1,115,2|2,0:0|0:0,0:0:0:0:
40,192,41845,2,0,L|176:192,1,115,8|0,0:0|0:0,0:0:0:0:
480,192,42314,5,2,0:0:0:0:
344,192,42548,1,0,0:0:0:0:
128,192,42782,1,2,0:0:0:0:
264,192,43016,1,8,0:0:0:0:
488,192,43251,1,2,0:0:0:0:
352,192,43485,1,0,0:0:0:0:
24,192,43720,1,2,0:0:0:0:
160,192,43954,1,8,0:0:0:0:
480,192,44189,5,2,0:0:0:0:
160,192,44423,1,0,0:0:0:0:
376,192,44657,1,2,0:0:0:0:
72,192,44892,1,8,0:0:0:0:
392,208,45360,2,0,L|392:80,1,115,0|0,0:0|0:0,0:0:0:0:
32,192,46064,6,0,L|152:192,1,115,6|0,0:0|0:0,0:0:0:0:
472,192,46532,1,8,0:0:0:0:
336,192,46767,1,0,0:0:0:0:
472,192,47001,1,2,0:0:0:0:
168,192,47235,1,0,0:0:0:0:
72,192,47392,1,0,0:0:0:0:
24,192,47470,1,8,0:0:0:0:
160,192,47704,1,0,0:0:0:0:
488,192,47939,5,2,0:0:0:0:
216,192,48407,2,0,L|360:192,1,115,8|0,0:0|0:0,0:0:0:0:
32,200,48876,1,2,0:0:0:0:
360,200,49110,2,0,L|504:200,1,115,0|8,0:0|0:0,0:0:0:0:
147,200,49814,6,0,L|3:200,1,115,2|0,0:0|0:0,0:0:0:0:
392,192,50282,1,8,0:0:0:0:
256,192,50517,1,0,0:0:0:0:
464,192,50751,1,2,0:0:0:0:
80,192,50985,1,0,0:0:0:0:
176,192,51142,1,0,0:0:0:0:
224,192,51220,1,8,0:0:0:0:
48,192,51454,1,0,0:0:0:0:
376,184,51689,6,0,L|496:184,2,115,2|0|2,0:0|0:0|0:0,0:0:0:0:
64,192,52392,1,8,0:0:0:0:
200,192,52626,1,2,0:0:0:0:
64,192,52860,1,0,0:0:0:0:
136,192,52978,1,0,0:0:0:0:
208,192,53095,1,8,0:0:0:0:
416,192,53329,1,0,0:0:0:0:
48,192,53564,6,0,L|208:192,1,115,6|0,0:0|0:0,0:0:0:0:
376,192,54032,2,0,L|496:192,1,115,8|0,0:0|0:0,0:0:0:0:
120,192,54501,1,2,0:0:0:0:
424,192,54735,1,0,0:0:0:0:
328,192,54892,1,0,0:0:0:0:
280,192,54970,1,8,0:0:0:0:
456,192,55204,1,0,0:0:0:0:
40,200,55439,5,2,0:0:0:0:
312,192,55907,2,0,L|427:192,2,115,8|0|2,0:0|0:0|0:0,0:0:0:0:
160,192,56610,1,0,0:0:0:0:
464,192,56845,1,8,0:0:0:0:
144,200,57314,6,0,L|24:200,1,115,2|0,0:0|0:0,0:0:0:0:
392,200,57782,1,8,0:0:0:0:
256,192,58017,2,0,L|400:192,1,115,0|2,0:0|0:0,0:0:0:0:
56,192,58485,1,0,0:0:0:0:
152,192,58642,1,0,0:0:0:0:
200,192,58720,1,8,0:0:0:0:
56,192,58954,1,0,0:0:0:0:
384,192,59189,6,0,L|512:192,1,115,2|0,0:0|0:0,0:0:0:0:
320,192,59657,2,0,L|448:192,1,115,2|0,0:0|0:0,0:0:0:0:
64,192,60126,1,2,0:0:0:0:
256,192,60595,1,4,0:0:0:0:
64,192,60829,1,4,0:0:0:0:
472,192,61064,6,0,L|336:192,1,115,6|0,0:0|0:0,0:0:0:0:
128,192,61532,2,0,L|243:192,1,115,8|0,0:0|0:0,0:0:0:0:
104,192,62001,1,2,0:0:0:0:
432,192,62235,1,0,0:0:0:0:
336,192,62392,1,0,0:0:0:0:
288,192,62470,1,8,0:0:0:0:
152,192,62704,1,0,0:0:0:0:
464,192,62939,5,2,0:0:0:0:
168,192,63407,2,0,L|40:192,1,115,8|0,0:0|0:0,0:0:0:0:
432,192,63876,2,0,L|317:192,2,115,2|0|8,0:0|0:0|0:0,0:0:0:0:
48,200,64814,6,0,L|192:200,1,115,2|0,0:0|0:0,0:0:0:0:
360,200,65282,2,0,L|480:200,2,115,8|0|2,0:0|0:0|0:0,0:0:0:0:
48,200,65985,1,0,0:0:0:0:
144,200,66142,1,0,0:0:0:0:
192,200,66220,1,8,0:0:0:0:
56,200,66454,1,0,0:0:0:0:
357,200,66689,6,0,L|509:200,1,115,2|0,0:0|0:0,0:0:0:0:
144,200,67157,1,2,0:0:0:0:
472,200,67392,2,0,L|376:104,1,115,8|2,0:0|0:0,0:0:0:0:
184,192,67860,1,0,0:0:0:0:
256,192,67978,1,0,0:0:0:0:
328,192,68095,1,8,0:0:0:0:
96,192,68329,1,0,0:0:0:0:
416,80,68564,6,0,P|416:200|368:176,1,230,6|8,0:0|0:0,0:0:0:0:
240,184,69267,1,0,0:0:0:0:
424,184,69501,1,2,0:0:0:0:
104,192,69735,1,0,0:0:0:0:
200,192,69892,1,0,0:0:0:0:
248,192,69970,1,8,0:0:0:0:
104,192,70204,1,0,0:0:0:0:
424,184,70439,5,2,0:0:0:0:
56,184,70907,2,0,L|192:184,1,115,8|0,0:0|0:0,0:0:0:0:
480,184,71376,2,0,L|352:184,1,115,2|0,0:0|0:0,0:0:0:0:
56,184,71845,1,8,0:0:0:0:
408,192,72314,6,0,L|264:192,1,115,2|0,0:0|0:0,0:0:0:0:
472,192,72782,2,0,L|328:192,1,115,8|0,0:0|0:0,0:0:0:0:
48,192,73251,1,2,0:0:0:0:
432,192,73485,1,0,0:0:0:0:
336,192,73642,1,0,0:0:0:0:
288,192,73720,1,8,0:0:0:0:
424,192,73954,1,0,0:0:0:0:
96,192,74189,5,2,0:0:0:0:
392,192,74657,1,2,0:0:0:0:
16,192,75126,1,2,0:0:0:0:
144,168,75595,1,0,0:0:0:0:
112,168,75653,1,0,0:0:0:0:
80,184,75712,1,0,0:0:0:0:
72,216,75771,1,0,0:0:0:0:
80,248,75829,1,0,0:0:0:0:
112,264,75888,1,0,0:0:0:0:
144,264,75946,1,0,0:0:0:0:
400,264,76064,5,6,0:0:0:0:
128,288,76532,1,8,0:0:0:0:
264,288,76767,2,0,L|128:288,1,115,2|0,0:0|0:0,0:0:0:0:
360,288,77235,2,0,L|488:288,2,115,0|8|0,0:0|0:0|0:0,0:0:0:0:
64,296,77939,5,2,0:0:0:0:
400,304,78407,1,8,0:0:0:0:
88,304,78642,2,0,P|32:256|192:176,1,345,2|8,0:0|0:0,0:0:0:0:
48,176,79579,1,0,0:0:0:0:
408,168,79814,5,2,0:0:0:0:
88,176,80282,1,8,0:0:0:0:
384,176,80517,2,0,L|232:176,1,115,2|0,0:0|0:0,0:0:0:0:
112,176,80985,2,0,P|48:168|8:120,1,115,0|8,0:0|0:0,0:0:0:0:
112,176,81454,1,0,0:0:0:0:
408,176,81689,6,0,P|463:163|504:120,2,115,2|0|8,0:0|0:0|0:0,0:0:0:0:
88,128,82392,1,2,0:0:0:0:
360,128,82860,1,0,0:0:0:0:
144,128,83095,2,0,P|80:136|144:160,1,172.5,8|0,0:0|0:0,0:0:0:0:
408,160,83564,5,6,0:0:0:0:
136,168,84032,1,8,0:0:0:0:
432,152,84267,2,0,P|488:184|384:224,1,230,2|0,0:0|0:0,0:0:0:0:
256,184,84970,1,8,0:0:0:0:
440,184,85204,1,0,0:0:0:0:
144,248,85439,6,0,L|256:192,1,115,2|0,0:0|0:0,0:0:0:0:
448,192,85907,1,8,0:0:0:0:
144,248,86142,2,0,L|24:248,1,115,2|0,0:0|0:0,0:0:0:0:
320,248,86845,2,0,L|480:248,1,115,8|0,0:0|0:0,0:0:0:0:
72,256,87314,5,2,0:0:0:0:
368,248,87782,1,8,0:0:0:0:
168,248,88017,2,0,L|16:248,2,115,2|0|0,0:0|0:0|0:0,0:0:0:0:
344,248,88720,1,8,0:0:0:0:
480,248,88954,1,0,0:0:0:0:
128,256,89189,6,0,L|13:256,1,115,10|0,0:0|0:0,0:0:0:0:
384,256,89657,2,0,L|504:256,1,115,10|0,0:0|0:0,0:0:0:0:
192,256,90126,2,0,L|64:256,1,115,10|0,0:0|0:0,0:0:0:0:
448,264,90595,1,4,0:0:0:0:
256,264,90829,1,4,0:0:0:0:
256,192,91064,12,0,93876,0:0:0:0:
248,184,102314,6,0,P|152:136|120:152,1,115,2|0,0:0|0:0,0:0:0:0:
80,152,102665,1,0,0:0:0:0:
48,216,102782,1,0,0:0:0:0:
80,272,102899,1,0,0:0:0:0:
184,288,103017,2,0,P|288:312|328:192,1,230,2|0,0:0|0:0,0:0:0:0:
208,152,103720,2,0,L|352:152,1,115,2|0,0:0|0:0,0:0:0:0:
120,104,104189,5,2,0:0:0:0:
88,112,104306,1,0,0:0:0:0:
64,128,104423,1,0,0:0:0:0:
64,168,104540,1,0,0:0:0:0:
88,208,104657,1,0,0:0:0:0:
120,224,104774,1,0,0:0:0:0:
240,224,104892,2,0,B|368:256|368:256|448:192,1,230,2|0,0:0|0:0,0:0:0:0:
288,208,105595,1,2,0:0:0:0:
168,208,105829,1,2,0:0:0:0:
384,128,106064,6,0,P|464:200|360:264,1,230,2|2,0:0|0:0,0:0:0:0:
240,280,106767,2,0,P|136:272|48:168,1,230,2|2,0:0|0:0,0:0:0:0:
160,120,107470,1,0,0:0:0:0:
288,120,107704,1,2,0:0:0:0:
320,128,107821,1,0,0:0:0:0:
344,144,107939,5,0,0:0:0:0:
368,168,108056,1,0,0:0:0:0:
392,200,108173,2,0,L|384:56,1,115,2|0,0:0|0:0,0:0:0:0:
232,144,108642,2,0,L|352:144,1,115,2|0,0:0|0:0,0:0:0:0:
152,184,109110,2,0,L|24:192,2,115,0|2|0,0:0|0:0|0:0,0:0:0:0:
480,176,109814,5,6,0:0:0:0:
232,184,110282,1,8,0:0:0:0:
416,184,110751,1,2,0:0:0:0:
144,184,111220,1,8,0:0:0:0:
400,176,111689,5,2,0:0:0:0:
240,184,112157,1,8,0:0:0:0:
144,184,112392,1,0,0:0:0:0:
64,200,112626,1,2,0:0:0:0:
160,208,112860,1,0,0:0:0:0:
256,224,113095,1,8,0:0:0:0:
440,232,113564,5,2,0:0:0:0:
144,224,114032,1,8,0:0:0:0:
352,248,114501,1,2,0:0:0:0:
144,320,114735,1,0,0:0:0:0:
96,312,114853,1,0,0:0:0:0:
48,304,114970,1,8,0:0:0:0:
176,328,115204,1,0,0:0:0:0:
400,312,115439,6,0,L|168:264,1,230,2|8,0:0|0:0,0:0:0:0:
80,224,116142,1,0,0:0:0:0:
232,160,116376,2,0,L|384:144,1,115,2|0,0:0|0:0,0:0:0:0:
480,184,116845,1,8,0:0:0:0:
352,248,117079,1,0,0:0:0:0:
32,208,117314,6,0,L|56:72,1,115,6|0,0:0|0:0,0:0:0:0:
272,224,117782,2,0,L|256:88,1,115,8|0,0:0|0:0,0:0:0:0:
136,264,118251,2,0,L|152:120,1,115,2|0,0:0|0:0,0:0:0:0:
344,272,118720,2,0,L|312:128,1,115,8|2,0:0|0:0,0:0:0:0:
200,112,119110,1,2,0:0:0:0:
120,112,119189,6,0,L|24:200,1,115,2|2,0:0|0:0,0:0:0:0:
200,208,119657,2,0,L|80:208,1,115,8|0,0:0|0:0,0:0:0:0:
200,208,120126,2,0,L|336:208,1,115,2|2,0:0|0:0,0:0:0:0:
440,272,120595,2,0,L|312:272,1,115,8|0,0:0|0:0,0:0:0:0:
232,272,120985,1,2,0:0:0:0:
160,256,121064,6,0,L|80:256,1,76.6666666666667,2|0,0:0|0:0,0:0:0:0:
32,256,121298,2,0,L|112:256,1,76.6666666666667,0|0,0:0|0:0,0:0:0:0:
200,256,121532,2,0,L|288:256,1,76.6666666666667,2|0,0:0|0:0,0:0:0:0:
360,256,121767,2,0,L|264:256,1,76.6666666666667,0|0,0:0|0:0,0:0:0:0:
120,232,122001,6,0,L|56:232,2,38.3333333333333,2|0|0,0:0|0:0|0:0,0:0:0:0:
168,232,122235,2,0,L|216:232,2,38.3333333333333,8|0|0,0:0|0:0|0:0,0:0:0:0:
192,200,122470,1,2,0:0:0:0:
240,184,122548,1,0,0:0:0:0:
288,192,122626,1,0,0:0:0:0:
320,200,122704,1,8,0:0:0:0:
344,224,122782,1,0,0:0:0:0:
304,248,122860,1,0,0:0:0:0:
112,152,122939,6,0,L|32:136,2,76.6666666666667,2|0|0,0:0|0:0|0:0,0:0:0:0:
432,168,123407,2,0,L|520:128,2,76.6666666666667,2|0|0,0:0|0:0|0:0,0:0:0:0:
112,184,123876,1,2,0:0:0:0:
416,192,124345,1,0,0:0:0:0:
224,144,124814,6,0,P|120:120|8:208,1,230,6|8,0:0|0:0,0:0:0:0:
80,256,125439,2,0,P|160:280|200:264,1,76.6666666666667,0|0,0:0|0:0,0:0:0:0:
368,256,125751,1,2,0:0:0:0:
472,216,125907,2,0,L|496:136,1,76.6666666666667,0|0,0:0|0:0,0:0:0:0:
240,144,126220,1,8,0:0:0:0:
328,216,126376,2,0,L|224:208,1,76.6666666666667,0|0,0:0|0:0,0:0:0:0:
16,136,126689,6,0,P|128:128|160:152,1,115,2|0,0:0|0:0,0:0:0:0:
448,200,127157,2,0,L|496:120,1,57.5,8|0,0:0|0:0,0:0:0:0:
392,136,127392,2,0,L|336:72,1,57.5,0|0,0:0|0:0,0:0:0:0:
208,128,127626,2,0,L|312:176,1,115,2|0,0:0|0:0,0:0:0:0:
128,208,128095,2,0,L|16:160,1,115,8|0,0:0|0:0,0:0:0:0:
400,200,128564,6,0,P|256:176|280:120,1,230,2|8,0:0|0:0,0:0:0:0:
144,104,129189,2,0,L|56:112,1,76.6666666666667,0|0,0:0|0:0,0:0:0:0:
320,192,129501,2,0,L|424:200,2,76.6666666666667,2|0|0,0:0|0:0|0:0,0:0:0:0:
176,216,129970,2,0,L|88:208,2,76.6666666666667,8|0|0,0:0|0:0|0:0,0:0:0:0:
424,168,130439,6,0,L|456:96,1,57.5,2|0,0:0|0:0,0:0:0:0:
344,104,130673,2,0,L|264:104,1,57.5,0|0,0:0|0:0,0:0:0:0:
112,168,130907,2,0,L|48:56,1,115,2|8,0:0|0:0,0:0:0:0:
256,80,131376,2,0,L|376:80,1,115,2|0,0:0|0:0,0:0:0:0:
32,192,131845,1,8,0:0:0:0:
368,160,132314,6,0,P|312:208|416:280,1,230,6|8,0:0|0:0,0:0:0:0:
280,288,132939,2,0,L|200:304,2,76.6666666666667,0|0|2,0:0|0:0|0:0,0:0:0:0:
144,232,133407,2,0,L|48:240,2,76.6666666666667,0|0|8,0:0|0:0|0:0,0:0:0:0:
256,216,133876,2,0,L|360:216,1,76.6666666666667
112,136,134189,6,0,L|360:144,1,230,2|8,0:0|0:0,0:0:0:0:
208,152,134892,1,0,0:0:0:0:
56,176,135126,2,0,L|64:112,1,57.5,2|0,0:0|0:0,0:0:0:0:
288,120,135360,2,0,L|208:120,1,57.5,0|0,0:0|0:0,0:0:0:0:
24,152,135595,2,0,L|144:112,1,115,8|0,0:0|0:0,0:0:0:0:
488,200,136064,5,2,0:0:0:0:
152,208,136532,2,0,L|64:208,2,76.6666666666667,8|0|0,0:0|0:0|0:0,0:0:0:0:
384,272,137001,2,0,L|488:280,2,76.6666666666667,2|0|0,0:0|0:0|0:0,0:0:0:0:
208,304,137470,2,0,L|104:320,1,76.6666666666667,8|0,0:0|0:0,0:0:0:0:
24,272,137782,1,0,0:0:0:0:
256,192,137939,5,2,0:0:0:0:
392,136,138173,1,0,0:0:0:0:
192,128,138407,1,2,0:0:0:0:
320,168,138642,1,0,0:0:0:0:
152,176,138876,1,2,0:0:0:0:
72,144,139110,1,0,0:0:0:0:
64,112,139189,1,0,0:0:0:0:
80,80,139267,1,0,0:0:0:0:
256,88,139345,1,4,0:0:0:0:
144,80,139579,1,4,0:0:0:0:
440,216,139814,6,0,B|456:328|456:328|288:320,1,230,6|8,0:0|0:0,0:0:0:0:
104,232,140517,2,0,L|216:176,1,115,0|2,0:0|0:0,0:0:0:0:
336,176,140985,2,0,L|208:128,1,115,0|8,0:0|0:0,0:0:0:0:
80,96,141454,1,0,0:0:0:0:
432,112,141689,6,0,P|504:168|392:248,1,230,2|8,0:0|0:0,0:0:0:0:
264,256,142392,2,0,L|264:192,1,57.5,0|0,0:0|0:0,0:0:0:0:
168,248,142626,2,0,L|168:184,1,57.5,2|0,0:0|0:0,0:0:0:0:
288,240,142860,2,0,L|288:160,1,57.5,0|0,0:0|0:0,0:0:0:0:
200,248,143095,2,0,L|200:184,1,57.5,8|0,0:0|0:0,0:0:0:0:
320,256,143329,2,0,L|320:176,1,57.5,0|0,0:0|0:0,0:0:0:0:
128,112,143564,6,0,P|80:112|8:144,1,115,2|0,0:0|0:0,0:0:0:0:
192,200,144032,2,0,L|328:200,1,115,8|0,0:0|0:0,0:0:0:0:
440,112,144501,2,0,L|320:112,1,115,2|0,0:0|0:0,0:0:0:0:
152,264,144970,1,8,0:0:0:0:
232,280,145087,2,0,L|232:320,2,28.75,0|0|0,0:0|0:0|0:0,0:0:0:0:
464,176,145439,6,0,L|320:176,1,115,2|8,0:0|0:0,0:0:0:0:
136,120,145907,1,2,0:0:0:0:
288,96,146142,2,0,L|424:96,1,115,8|2,0:0|0:0,0:0:0:0:
200,128,146610,1,0,0:0:0:0:
168,112,146669,1,0,0:0:0:0:
168,80,146728,1,0,0:0:0:0:
200,64,146786,1,0,0:0:0:0:
272,72,146845,1,8,0:0:0:0:
80,184,147314,6,0,P|100:240|252:272,1,230,6|8,0:0|0:0,0:0:0:0:
376,216,148017,1,0,0:0:0:0:
240,184,148251,1,2,0:0:0:0:
392,136,148485,1,0,0:0:0:0:
224,112,148642,1,0,0:0:0:0:
184,88,148720,1,8,0:0:0:0:
376,72,148954,1,0,0:0:0:0:
160,128,149110,1,0,0:0:0:0:
160,128,149189,6,0,L|280:136,1,115,2|0,0:0|0:0,0:0:0:0:
312,136,149481,1,0,0:0:0:0:
328,168,149540,1,0,0:0:0:0:
312,136,149599,1,0,0:0:0:0:
280,176,149657,2,0,L|152:160,1,115,8|0,0:0|0:0,0:0:0:0:
376,256,150126,2,0,L|491:256,1,115,2|0,0:0|0:0,0:0:0:0:
160,224,150595,1,8,0:0:0:0:
48,280,150829,1,0,0:0:0:0:
440,192,151064,5,2,0:0:0:0:
240,104,151532,2,0,L|240:224,1,115,8|0,0:0|0:0,0:0:0:0:
384,80,152001,2,0,L|392:224,1,115,2|0,0:0|0:0,0:0:0:0:
144,64,152392,1,0,0:0:0:0:
104,56,152470,2,0,P|96:96|96:136,1,57.5,8|0,0:0|0:0,0:0:0:0:
120,136,152646,1,0,0:0:0:0:
144,152,152704,1,0,0:0:0:0:
440,288,152860,1,0,0:0:0:0:
480,296,152939,5,2,0:0:0:0:
328,304,153173,2,0,L|264:304,2,57.5,0|0|2,0:0|0:0|0:0,0:0:0:0:
184,208,153642,2,0,L|126:213,2,57.5,0|0|2,0:0|0:0|0:0,0:0:0:0:
368,200,154110,2,0,L|423:216,2,57.5,0|0|2,0:0|0:0|0:0,0:0:0:0:
120,80,154814,6,0,P|56:72|96:184,1,230,6|8,0:0|0:0,0:0:0:0:
429,185,155517,2,0,P|486:106|392:80,1,230,2|0,0:0|0:0,0:0:0:0:
216,80,156220,1,8,0:0:0:0:
216,80,156454,1,0,0:0:0:0:
384,88,156689,6,0,B|288:56|288:56|384:144,1,230,2|8,0:0|0:0,0:0:0:0:
48,88,157392,2,0,B|144:56|144:56|49:143,1,230,2|0,0:0|0:0,0:0:0:0:
240,200,158095,1,8,0:0:0:0:
80,208,158329,1,0,0:0:0:0:
416,280,158564,6,0,B|480:256|480:256|312:216,1,230,2|8,0:0|0:0,0:0:0:0:
120,280,159267,2,0,B|56:256|56:256|224:216,1,230,2|0,0:0|0:0,0:0:0:0:
392,232,160204,1,0,0:0:0:0:
248,200,160439,6,0,L|120:176,1,115,2|0,0:0|0:0,0:0:0:0:
8,144,160907,1,8,0:0:0:0:
312,64,161142,2,0,P|432:40|464:144,1,230,2|0,0:0|0:0,0:0:0:0:
296,192,161845,2,0,P|232:192|288:152,1,172.5,8|0,0:0|0:0,0:0:0:0:
472,192,162314,5,2,0:0:0:0:
200,184,162782,1,8,0:0:0:0:
384,192,163017,2,0,P|280:208|184:128,1,230,2|0,0:0|0:0,0:0:0:0:
336,104,163720,2,0,L|336:224,1,115,8|0,0:0|0:0,0:0:0:0:
24,216,164189,6,0,B|120:280|120:280|200:192,1,230,2|8,0:0|0:0,0:0:0:0:
496,176,164892,2,0,B|344:144|344:144|264:232,1,230,2|0,0:0|0:0,0:0:0:0:
64,208,165595,1,8,0:0:0:0:
208,256,165829,1,0,0:0:0:0:
504,160,166064,6,0,B|440:112|440:112|408:192|304:160,1,230,2|8,0:0|0:0,0:0:0:0:
16,208,166767,2,0,P|88:248|160:120,2,230,2|0|0,0:0|0:0|0:0,0:0:0:0:
312,56,167939,6,0,L|448:64,1,115,10|0,0:0|0:0,0:0:0:0:
216,112,168407,2,0,L|336:128,1,115,10|0,0:0|0:0,0:0:0:0:
160,160,168876,2,0,L|296:176,1,115,10|0,0:0|0:0,0:0:0:0:
88,208,169345,1,2,0:0:0:0:
384,280,169814,6,0,L|456:96,1,172.500006580353,2|8,0:0|0:0,0:0:0:0:
320,88,170517,2,0,L|128:88,1,172.500006580353,0|0,0:0|0:0,0:0:0:0:
48,88,171220,1,8,0:0:0:0:
216,192,171689,6,0,L|392:184,1,172.500006580353,2|8,0:0|0:0,0:0:0:0:
256,128,172392,2,0,L|72:144,1,172.500006580353,0|0,0:0|0:0,0:0:0:0:
208,208,173095,2,0,L|312:184,1,86.2500032901765,8|0,0:0|0:0,0:0:0:0:
56,256,173564,6,0,P|115:197|197:209,1,172.500006580353,2|8,0:0|0:0,0:0:0:0:
352,200,174267,2,0,L|152:208,2,172.500006580353,0|0|0,0:0|0:0|0:0,0:0:0:0:
176,120,175673,5,0,0:0:0:0:
424,112,176142,1,0,0:0:0:0:
248,216,176610,1,0,0:0:0:0:
416,256,176845,1,8,0:0:0:0:
184,136,177314,6,0,P|128:208|192:240,1,172.500006580353,2|8,0:0|0:0,0:0:0:0:
335,241,178017,2,0,P|387:185|328:136,1,172.500006580353,0|0,0:0|0:0,0:0:0:0:
192,120,178720,2,0,L|104:120,1,86.2500032901765,8|0,0:0|0:0,0:0:0:0:
256,208,179189,6,0,L|440:208,1,172.500006580353,2|8,0:0|0:0,0:0:0:0:
256,128,179892,2,0,P|168:128|128:216,1,172.500006580353,0|0,0:0|0:0,0:0:0:0:
264,240,180595,2,0,L|384:224,1,86.2500032901765,8|0,0:0|0:0,0:0:0:0:
128,240,181064,6,0,L|96:48,1,172.500006580353,2|8,0:0|0:0,0:0:0:0:
328,64,181767,2,0,L|296:256,1,172.500006580353,0|0,0:0|0:0,0:0:0:0:
192,240,182470,2,0,L|96:240,1,86.2500032901765,8|8,0:0|0:0,0:0:0:0:
240,160,183173,6,0,L|352:160,1,86.2500032901765,0|8,0:0|0:0,0:0:0:0:
104,104,183642,1,2,0:0:0:0:
328,96,184110,1,2,0:0:0:0:
160,80,184345,1,8,0:0:0:0:
240,88,184579,1,2,0:0:0:0:
384,216,185048,5,0,0:0:0:0:
56,208,185282,1,0,0:0:0:0:
