osu file format v14

[General]
AudioFilename: audio.mp3
AudioLeadIn: 0
PreviewTime: 45360
Countdown: 0
SampleSet: Soft
StackLeniency: 0.7
Mode: 2
LetterboxInBreaks: 0
WidescreenStoryboard: 0

[Editor]
Bookmarks: 16064,21923
DistanceSpacing: 1.3
BeatDivisor: 6
GridSize: 8
TimelineZoom: 1.5

[Metadata]
Title:OKAY
TitleUnicode:OKAY
Artist:Tokyo Machine
ArtistUnicode:Tokyo Machine
Creator:WildOne94
Version:A-OK
Source:
Tags:Monstercat Electronic 8-bit Xinely uproar supremacy
BeatmapID:1076846
BeatmapSetID:506237

[Difficulty]
HPDrainRate:6
CircleSize:4
OverallDifficulty:9.2
ApproachRate:9.2
SliderMultiplier:2.4
SliderTickRate:1

[Events]
//Background and Video events
0,0,"cute-anime-animal-wallpaper-cute-pokemon-wallpaper.jpg",0,0
//Break Periods
2,94814,101142
//Storyboard Layer 0 (Background)
//Storyboard Layer 1 (Fail)
//Storyboard Layer 2 (Pass)
//Storyboard Layer 3 (Foreground)
//Storyboard Sound Samples

[TimingPoints]
1064,468.75,4,2,2,40,1,0
14189,-100,4,2,2,45,0,0
15595,-100,4,2,2,35,0,0
16064,-100,4,2,1,60,0,0
22860,-100,4,2,1,50,0,0
23564,-100,4,2,1,70,0,0
29189,-100,4,2,1,75,0,0
31064,-100,4,2,1,40,0,0
38564,-100,4,2,1,50,0,0
40439,-100,4,2,1,55,0,0
42314,-100,4,2,1,60,0,0
43251,-100,4,2,1,70,0,0
44189,-100,4,2,1,80,0,0
45360,-100,4,2,1,15,0,0
46064,-100,4,2,1,80,0,1
51689,-100,4,2,1,90,0,1
52860,-100,4,2,1,60,0,1
53564,-100,4,2,1,80,0,1
59189,-100,4,2,1,60,0,0
60595,-100,4,2,1,70,0,0
61064,-100,4,2,1,80,0,1
66689,-100,4,2,1,90,0,1
67860,-100,4,2,1,60,0,1
68564,-100,4,2,1,80,0,1
72314,-100,4,2,1,85,0,1
74189,-100,4,2,1,70,0,0
75595,-100,4,2,1,50,0,0
76064,-100,4,2,1,60,0,0
83564,-100,4,2,1,65,0,0
89189,-100,4,2,1,70,0,0
90595,-100,4,2,1,75,0,0
91064,-100,4,2,1,25,0,0
93876,-100,4,2,1,5,0,0
102314,-100,4,2,2,35,0,0
109814,-100,4,2,1,40,0,0
113564,-100,4,2,1,50,0,0
115439,-100,4,2,1,55,0,0
117314,-100,4,2,1,60,0,0
119189,-100,4,2,1,65,0,0
121064,-100,4,2,1,70,0,0
122001,-100,4,2,1,75,0,0
122470,-100,4,2,1,80,0,0
122939,-100,4,2,1,30,0,0
124814,-100,4,2,1,80,0,1
130439,-100,4,2,1,90,0,1
131610,-100,4,2,1,60,0,1
132314,-100,4,2,1,80,0,1
137939,-100,4,2,1,60,0,0
139345,-100,4,2,1,70,0,0
139814,-100,4,2,1,80,0,1
145439,-100,4,2,1,90,0,1
146610,-100,4,2,1,60,0,1
147314,-100,4,2,1,80,0,1
151064,-100,4,2,1,85,0,1
152939,-100,4,2,1,70,0,0
154345,-100,4,2,1,50,0,0
154814,-100,4,2,1,60,0,0
162314,-100,4,2,1,65,0,0
167939,-100,4,2,1,45,0,0
169345,-100,4,2,2,45,0,0
169814,-100,4,2,2,40,0,0
177314,-100,4,2,2,30,0,0

[Colours]
Combo1 : 183,0,183
Combo2 : 255,128,192
Combo3 : 244,89,81
Combo4 : 242,36,67

[HitObjects]
256,192,1064,6,0,L|136:192,1,120,2|0,0:0|0:0,0:0:0:0:
432,192,1532,1,8,0:0:0:0:
288,192,1767,1,0,0:0:0:0:
112,192,2001,2,0,L|232:192,1,120,2|0,0:0|0:0,0:0:0:0:
32,192,2470,2,0,L|160:192,1,120,8|0,0:0|0:0,0:0:0:0:
456,184,2939,5,2,0:0:0:0:
144,184,3173,1,0,0:0:0:0:
312,184,3407,2,0,L|168:184,1,120,8|0,0:0|0:0,0:0:0:0:
32,184,3876,2,0,L|160:184,2,120,2|0|8,0:0|0:0|0:0,0:0:0:0:
176,184,4579,1,0,0:0:0:0:
480,184,4814,6,0,L|352:184,1,120,2|0,0:0|0:0,0:0:0:0:
40,184,5282,1,8,0:0:0:0:
184,184,5517,1,0,0:0:0:0:
40,184,5751,2,0,L|184:184,1,120,2|0,0:0|0:0,0:0:0:0:
392,184,6220,1,8,0:0:0:0:
24,192,6454,1,0,0:0:0:0:
168,192,6689,5,2,0:0:0:0:
488,192,6923,1,0,0:0:0:0:
344,192,7158,1,8,0:0:0:0:
48,192,7392,2,0,L|168:192,1,120,0|2,0:0|0:0,0:0:0:0:
48,192,7860,1,0,0:0:0:0:
488,192,8095,2,0,L|368:192,1,120,8|0,0:0|0:0,0:0:0:0:
72,192,8564,5,2,0:0:0:0:
16,240,8681,1,0,0:0:0:0:
48,304,8798,1,0,0:0:0:0:
120,304,8915,1,0,0:0:0:0:
384,304,9032,2,0,L|464:304,1,60,8|0,0:0|0:0,0:0:0:0:
256,304,9267,1,0,0:0:0:0:
192,280,9384,1,0,0:0:0:0:
144,224,9501,5,2,0:0:0:0:
160,152,9618,1,0,0:0:0:0:
224,112,9735,1,0,0:0:0:0:
296,104,9853,1,0,0:0:0:0:
40,40,9970,1,8,0:0:0:0:
40,112,10087,1,0,0:0:0:0:
104,152,10204,1,0,0:0:0:0:
176,152,10321,1,0,0:0:0:0:
440,192,10439,5,2,0:0:0:0:
496,232,10556,1,0,0:0:0:0:
488,304,10673,1,0,0:0:0:0:
416,320,10790,1,0,0:0:0:0:
136,320,10907,2,0,L|32:320,1,60,8|0,0:0|0:0,0:0:0:0:
264,320,11142,1,0,0:0:0:0:
336,304,11259,1,0,0:0:0:0:
376,240,11376,5,2,0:0:0:0:
376,168,11493,1,0,0:0:0:0:
320,120,11610,1,0,0:0:0:0:
248,112,11728,1,0,0:0:0:0:
424,112,11845,2,0,L|488:112,1,60,8|0,0:0|0:0,0:0:0:0:
120,104,12079,2,0,L|16:104,1,60,0|0,0:0|0:0,0:0:0:0:
272,96,12314,5,2,0:0:0:0:
336,128,12431,1,0,0:0:0:0:
352,200,12548,1,0,0:0:0:0:
280,224,12665,1,0,0:0:0:0:
40,224,12782,2,0,L|96:192,1,60,8|0,0:0|0:0,0:0:0:0:
368,248,13017,1,0,0:0:0:0:
440,240,13134,1,0,0:0:0:0:
472,176,13251,5,2,0:0:0:0:
432,120,13368,1,0,0:0:0:0:
104,88,13485,1,0,0:0:0:0:
32,112,13603,1,0,0:0:0:0:
24,184,13720,1,8,0:0:0:0:
88,216,13837,1,0,0:0:0:0:
312,112,13954,2,0,L|376:88,1,60
130,188,14189,6,0,L|16:152,1,120,2|0,0:0|0:0,0:0:0:0:
432,192,14657,1,8,0:0:0:0:
288,192,14892,1,0,0:0:0:0:
456,192,15126,1,2,0:0:0:0:
96,256,15360,1,0,0:0:0:0:
472,256,15595,2,0,L|368:152,1,120,8|0,0:0|0:0,0:0:0:0:
40,256,16064,5,6,0:0:0:0:
384,264,16532,1,0,0:0:0:0:
72,272,16767,2,0,L|192:272,1,120,2|0,0:0|0:0,0:0:0:0:
432,272,17470,1,2,0:0:0:0:
104,272,17939,5,2,0:0:0:0:
392,272,18407,1,0,0:0:0:0:
56,272,18642,2,0,L|208:272,1,120,2|0,0:0|0:0,0:0:0:0:
416,272,19345,1,0,0:0:0:0:
88,272,19579,1,0,0:0:0:0:
416,272,19814,5,2,0:0:0:0:
96,272,20282,1,0,0:0:0:0:
408,272,20517,2,0,L|488:176,1,120,2|0,0:0|0:0,0:0:0:0:
176,152,20985,1,0,0:0:0:0:
320,152,21220,1,0,0:0:0:0:
24,152,21454,6,0,L|152:152,1,120,2|0,0:0|0:0,0:0:0:0:
488,152,21923,2,0,L|360:152,1,120,2|0,0:0|0:0,0:0:0:0:
64,152,22392,1,2,0:0:0:0:
352,152,22860,1,2,0:0:0:0:
168,152,23095,1,2,0:0:0:0:
472,152,23329,1,2,0:0:0:0:
128,152,23564,6,0,L|8:152,1,120,6|0,0:0|0:0,0:0:0:0:
392,160,24032,1,8,0:0:0:0:
80,160,24267,2,0,L|232:160,1,120,2|0,0:0|0:0,0:0:0:0:
344,160,24735,1,0,0:0:0:0:
200,160,24970,1,8,0:0:0:0:
56,160,25204,1,0,0:0:0:0:
368,160,25439,6,0,L|488:160,1,120,2|0,0:0|0:0,0:0:0:0:
344,160,25907,1,8,0:0:0:0:
48,152,26142,2,0,L|176:152,1,120,2|0,0:0|0:0,0:0:0:0:
296,160,26845,1,8,0:0:0:0:
464,160,27079,1,0,0:0:0:0:
144,160,27314,6,0,L|24:160,2,120,2|0|8,0:0|0:0|0:0,0:0:0:0:
448,160,28017,2,0,L|304:160,1,120,2|0,0:0|0:0,0:0:0:0:
176,160,28485,1,0,0:0:0:0:
328,160,28720,1,8,0:0:0:0:
32,184,29189,6,0,L|176:184,1,120,10|0,0:0|0:0,0:0:0:0:
480,184,29657,2,0,L|336:184,1,120,10|0,0:0|0:0,0:0:0:0:
64,184,30126,1,10,0:0:0:0:
256,184,30360,2,0,L|424:184,1,120
40,184,31064,5,6,0:0:0:0:
424,192,31532,1,8,0:0:0:0:
168,184,32001,2,0,L|296:184,2,120,2|0|8,0:0|0:0|0:0,0:0:0:0:
40,184,32704,1,0,0:0:0:0:
472,184,32939,6,0,L|328:184,1,120,2|0,0:0|0:0,0:0:0:0:
208,184,33407,2,0,L|120:184,1,60,8|0,0:0|0:0,0:0:0:0:
368,184,33642,2,0,L|440:184,1,60,0|0,0:0|0:0,0:0:0:0:
144,184,33876,2,0,L|8:184,2,120,2|0|8,0:0|0:0|0:0,0:0:0:0:
432,184,34814,5,2,0:0:0:0:
144,192,35282,2,0,L|312:192,1,120,8|0,0:0|0:0,0:0:0:0:
120,192,35751,1,2,0:0:0:0:
440,192,35985,1,0,0:0:0:0:
344,192,36142,1,0,0:0:0:0:
296,192,36220,1,8,0:0:0:0:
440,192,36454,1,0,0:0:0:0:
144,192,36689,6,0,L|24:192,1,120,2|0,0:0|0:0,0:0:0:0:
420,192,37157,2,0,L|360:192,1,60,8|0,0:0|0:0,0:0:0:0:
176,192,37392,2,0,L|80:192,1,60,0|0,0:0|0:0,0:0:0:0:
336,192,37626,2,0,L|464:192,1,120,2|0,0:0|0:0,0:0:0:0:
256,192,38095,1,8,0:0:0:0:
256,192,38564,5,6,0:0:0:0:
400,192,38798,1,0,0:0:0:0:
24,192,39032,1,8,0:0:0:0:
168,192,39267,1,0,0:0:0:0:
488,192,39501,1,2,0:0:0:0:
320,192,39735,1,0,0:0:0:0:
152,192,39970,1,8,0:0:0:0:
360,192,40204,1,0,0:0:0:0:
16,192,40439,6,0,L|168:192,1,120,2|2,0:0|0:0,0:0:0:0:
304,192,40907,2,0,L|176:192,1,120,8|0,0:0|0:0,0:0:0:0:
480,192,41376,1,2,0:0:0:0:
280,192,41610,1,2,0:0:0:0:
424,192,41845,1,8,0:0:0:0:
40,192,42079,1,0,0:0:0:0:
408,192,42314,6,0,L|488:192,1,60,2|0,0:0|0:0,0:0:0:0:
288,192,42548,2,0,L|240:144,1,60,0|0,0:0|0:0,0:0:0:0:
32,192,42782,2,0,L|112:144,1,60,2|0,0:0|0:0,0:0:0:0:
368,192,43017,2,0,L|464:192,1,60,8|0,0:0|0:0,0:0:0:0:
136,184,43251,5,2,0:0:0:0:
56,208,43368,1,0,0:0:0:0:
48,288,43485,1,0,0:0:0:0:
128,312,43603,1,0,0:0:0:0:
328,312,43720,1,2,0:0:0:0:
408,312,43837,1,0,0:0:0:0:
472,256,43954,1,8,0:0:0:0:
456,176,44072,1,0,0:0:0:0:
280,168,44189,6,0,L|224:136,1,60,2|0,0:0|0:0,0:0:0:0:
32,168,44423,2,0,L|88:136,1,60,0|0,0:0|0:0,0:0:0:0:
384,312,44657,2,0,L|328:280,1,60,2|0,0:0|0:0,0:0:0:0:
136,312,44892,2,0,L|76:312,1,60,8|0,0:0|0:0,0:0:0:0:
376,192,45360,2,0,L|376:320,1,120,0|0,0:0|0:0,0:0:0:0:
40,192,46064,6,0,L|160:192,1,120,6|0,0:0|0:0,0:0:0:0:
456,192,46532,1,8,0:0:0:0:
312,192,46767,1,0,0:0:0:0:
488,192,47001,1,2,0:0:0:0:
184,192,47235,1,0,0:0:0:0:
312,192,47392,1,0,0:0:0:0:
360,192,47470,1,8,0:0:0:0:
44,192,47704,1,0,0:0:0:0:
448,192,47939,6,0,L|448:64,1,120,2|0,0:0|0:0,0:0:0:0:
104,192,48407,2,0,L|0:192,1,60,8|0,0:0|0:0,0:0:0:0:
248,192,48642,2,0,L|312:168,1,60,0|0,0:0|0:0,0:0:0:0:
496,192,48876,2,0,L|392:192,1,60,2|0,0:0|0:0,0:0:0:0:
104,192,49110,2,0,L|0:192,1,60,0|0,0:0|0:0,0:0:0:0:
424,192,49345,1,8,0:0:0:0:
120,192,49814,6,0,L|256:192,1,120,2|0,0:0|0:0,0:0:0:0:
72,192,50282,1,8,0:0:0:0:
256,192,50517,1,0,0:0:0:0:
48,192,50751,1,2,0:0:0:0:
448,200,50985,1,0,0:0:0:0:
168,192,51142,1,0,0:0:0:0:
120,192,51220,1,8,0:0:0:0:
40,192,51337,1,0,0:0:0:0:
80,192,51396,1,0,0:0:0:0:
120,192,51454,1,0,0:0:0:0:
300,192,51689,6,0,L|404:192,1,60,2|0,0:0|0:0,0:0:0:0:
168,192,51923,2,0,L|80:192,1,60,0|0,0:0|0:0,0:0:0:0:
384,192,52157,2,0,L|480:192,1,60,2|0,0:0|0:0,0:0:0:0:
228,192,52392,2,0,L|84:192,1,120,8|2,0:0|0:0,0:0:0:0:
328,192,52860,1,0,0:0:0:0:
368,184,52919,1,0,0:0:0:0:
392,152,52978,1,0,0:0:0:0:
376,112,53036,1,0,0:0:0:0:
336,104,53095,1,8,0:0:0:0:
40,192,53329,1,0,0:0:0:0:
416,192,53564,6,0,L|296:192,1,120,6|0,0:0|0:0,0:0:0:0:
144,192,54032,1,8,0:0:0:0:
448,192,54267,1,0,0:0:0:0:
80,192,54501,1,2,0:0:0:0:
280,192,54735,1,0,0:0:0:0:
384,200,54892,1,0,0:0:0:0:
352,192,54970,1,8,0:0:0:0:
48,192,55204,1,0,0:0:0:0:
352,192,55439,6,0,L|480:192,1,120,2|0,0:0|0:0,0:0:0:0:
152,192,55907,2,0,L|64:192,1,60,8|0,0:0|0:0,0:0:0:0:
288,192,56142,2,0,L|368:192,1,60,0|0,0:0|0:0,0:0:0:0:
120,192,56376,2,0,L|232:192,1,60,2|0,0:0|0:0,0:0:0:0:
400,192,56610,2,0,L|512:192,1,60,0|0,0:0|0:0,0:0:0:0:
56,192,56845,1,8,0:0:0:0:
336,192,57314,6,0,L|480:192,1,120,2|0,0:0|0:0,0:0:0:0:
48,192,57782,1,8,0:0:0:0:
208,192,58017,2,0,L|88:192,1,120,0|2,0:0|0:0,0:0:0:0:
384,192,58485,1,0,0:0:0:0:
264,192,58642,1,0,0:0:0:0:
216,192,58720,1,8,0:0:0:0:
152,192,58837,1,0,0:0:0:0:
112,192,58896,1,0,0:0:0:0:
152,192,58954,1,0,0:0:0:0:
472,200,59189,6,0,L|352:200,1,120,2|0,0:0|0:0,0:0:0:0:
40,200,59657,2,0,L|160:200,1,120,2|0,0:0|0:0,0:0:0:0:
488,200,60126,1,2,0:0:0:0:
176,192,60595,1,4,0:0:0:0:
472,192,60829,1,4,0:0:0:0:
40,192,61064,6,0,L|184:192,1,120,6|0,0:0|0:0,0:0:0:0:
464,192,61532,1,8,0:0:0:0:
304,192,61767,1,0,0:0:0:0:
496,192,62001,1,2,0:0:0:0:
192,192,62235,1,0,0:0:0:0:
88,192,62392,1,0,0:0:0:0:
40,192,62470,1,8,0:0:0:0:
416,192,62704,1,0,0:0:0:0:
72,184,62939,6,0,L|208:184,1,120,2|0,0:0|0:0,0:0:0:0:
432,176,63407,2,0,L|372:176,1,60,8|0,0:0|0:0,0:0:0:0:
160,176,63642,2,0,L|220:176,1,60,0|0,0:0|0:0,0:0:0:0:
404,176,63876,2,0,L|464:176,1,60,2|0,0:0|0:0,0:0:0:0:
176,176,64110,2,0,L|116:176,1,60,0|0,0:0|0:0,0:0:0:0:
440,176,64345,1,8,0:0:0:0:
112,184,64814,6,0,L|264:184,1,120,2|0,0:0|0:0,0:0:0:0:
384,184,65282,1,8,0:0:0:0:
224,184,65517,1,0,0:0:0:0:
440,184,65751,1,2,0:0:0:0:
144,184,65985,1,0,0:0:0:0:
40,184,66142,1,0,0:0:0:0:
88,184,66220,1,8,0:0:0:0:
168,184,66337,1,0,0:0:0:0:
128,184,66396,1,0,0:0:0:0:
88,184,66454,1,0,0:0:0:0:
400,184,66689,6,0,L|488:184,1,60,2|0,0:0|0:0,0:0:0:0:
272,192,66923,2,0,L|208:160,1,60
24,192,67157,2,0,L|120:192,1,60,2|0,0:0|0:0,0:0:0:0:
352,192,67392,2,0,L|480:192,1,120,8|2,0:0|0:0,0:0:0:0:
312,192,67860,1,0,0:0:0:0:
272,176,67919,1,0,0:0:0:0:
256,144,67978,1,0,0:0:0:0:
280,112,68036,1,0,0:0:0:0:
320,104,68095,1,8,0:0:0:0:
464,192,68329,1,0,0:0:0:0:
64,192,68564,6,0,L|208:192,1,120,6|0,0:0|0:0,0:0:0:0:
336,192,69032,1,8,0:0:0:0:
136,192,69267,1,0,0:0:0:0:
480,192,69501,1,2,0:0:0:0:
160,192,69735,1,0,0:0:0:0:
56,192,69892,1,0,0:0:0:0:
104,192,69970,1,8,0:0:0:0:
424,200,70204,1,0,0:0:0:0:
32,192,70439,6,0,L|168:192,1,120,2|0,0:0|0:0,0:0:0:0:
480,192,70907,2,0,L|392:192,1,60,8|0,0:0|0:0,0:0:0:0:
192,192,71142,2,0,L|96:192,1,60,0|0,0:0|0:0,0:0:0:0:
368,192,71376,2,0,L|280:192,1,60,2|0,0:0|0:0,0:0:0:0:
104,192,71610,2,0,L|176:192,1,60,0|0,0:0|0:0,0:0:0:0:
440,192,71845,1,8,0:0:0:0:
128,192,72314,6,0,L|264:192,1,120,2|0,0:0|0:0,0:0:0:0:
96,192,72782,1,8,0:0:0:0:
456,192,73017,1,0,0:0:0:0:
88,192,73251,2,0,L|208:192,1,120,2|0,0:0|0:0,0:0:0:0:
312,192,73642,1,0,0:0:0:0:
360,192,73720,1,8,0:0:0:0:
440,192,73837,1,0,0:0:0:0:
480,192,73896,1,0,0:0:0:0:
440,192,73954,1,0,0:0:0:0:
56,192,74189,5,2,0:0:0:0:
392,192,74657,1,2,0:0:0:0:
176,192,75126,1,2,0:0:0:0:
376,240,75595,1,0,0:0:0:0:
416,240,75653,1,0,0:0:0:0:
448,216,75712,1,0,0:0:0:0:
464,184,75771,1,0,0:0:0:0:
456,144,75829,1,0,0:0:0:0:
424,128,75888,1,0,0:0:0:0:
384,128,75946,1,0,0:0:0:0:
168,128,76064,6,0,L|40:128,2,120,6|0|8,0:0|0:0|0:0,0:0:0:0:
464,128,76767,1,2,0:0:0:0:
184,136,77235,1,0,0:0:0:0:
224,136,77294,1,0,0:0:0:0:
264,136,77353,1,0,0:0:0:0:
344,136,77470,1,8,0:0:0:0:
160,128,77704,1,0,0:0:0:0:
464,128,77939,6,0,L|320:128,1,120,2|0,0:0|0:0,0:0:0:0:
456,128,78407,1,8,0:0:0:0:
40,128,78642,2,0,L|168:208,1,120,2|0,0:0|0:0,0:0:0:0:
424,136,79345,1,8,0:0:0:0:
112,128,79579,1,0,0:0:0:0:
432,128,79814,6,0,L|304:128,1,120,2|0,0:0|0:0,0:0:0:0:
480,128,80282,1,8,0:0:0:0:
128,128,80517,2,0,L|256:128,1,120,2|0,0:0|0:0,0:0:0:0:
56,120,80985,1,0,0:0:0:0:
96,120,81044,1,0,0:0:0:0:
136,120,81103,1,0,0:0:0:0:
344,128,81220,1,8,0:0:0:0:
480,128,81454,1,0,0:0:0:0:
152,120,81689,6,0,L|32:120,2,120,2|0|8,0:0|0:0|0:0,0:0:0:0:
448,128,82392,1,2,0:0:0:0:
96,112,82860,1,0,0:0:0:0:
264,120,83095,2,0,L|128:120,1,120,8|0,0:0|0:0,0:0:0:0:
456,120,83564,5,6,0:0:0:0:
96,128,84032,1,8,0:0:0:0:
392,128,84267,2,0,L|264:128,1,120,2|0,0:0|0:0,0:0:0:0:
440,128,84735,1,0,0:0:0:0:
480,128,84794,1,0,0:0:0:0:
440,128,84853,1,0,0:0:0:0:
160,128,84970,2,0,L|40:128,1,120,8|0,0:0|0:0,0:0:0:0:
408,128,85439,6,0,L|288:128,1,120,2|0,0:0|0:0,0:0:0:0:
456,128,85907,1,8,0:0:0:0:
56,128,86142,2,0,L|200:128,1,120,2|0,0:0|0:0,0:0:0:0:
344,128,86610,1,0,0:0:0:0:
176,128,86845,1,8,0:0:0:0:
480,128,87079,1,0,0:0:0:0:
136,128,87314,6,0,L|8:128,1,120,2|0,0:0|0:0,0:0:0:0:
184,128,87782,1,8,0:0:0:0:
496,128,88017,2,0,L|376:128,1,120,2|0,0:0|0:0,0:0:0:0:
72,128,88485,1,0,0:0:0:0:
32,128,88544,1,0,0:0:0:0:
72,128,88603,1,0,0:0:0:0:
152,128,88720,1,8,0:0:0:0:
464,128,88954,1,0,0:0:0:0:
40,120,89189,6,0,L|168:120,1,120,10|0,0:0|0:0,0:0:0:0:
464,128,89657,2,0,L|320:128,1,120,10|0,0:0|0:0,0:0:0:0:
144,128,90126,1,10,0:0:0:0:
344,128,90360,1,0,0:0:0:0:
48,128,90595,1,4,0:0:0:0:
456,128,90829,1,4,0:0:0:0:
256,192,91064,12,0,93876,0:0:0:0:
256,192,102314,5,2,0:0:0:0:
128,168,102548,1,0,0:0:0:0:
48,184,102665,1,0,0:0:0:0:
40,264,102782,1,0,0:0:0:0:
112,288,102899,1,0,0:0:0:0:
344,312,103017,1,2,0:0:0:0:
416,288,103134,1,0,0:0:0:0:
464,232,103251,5,0,0:0:0:0:
488,160,103368,1,0,0:0:0:0:
440,96,103485,1,0,0:0:0:0:
360,80,103603,1,0,0:0:0:0:
144,72,103720,1,2,0:0:0:0:
64,88,103837,1,0,0:0:0:0:
56,168,103954,1,0,0:0:0:0:
128,192,104071,1,0,0:0:0:0:
336,184,104189,5,2,0:0:0:0:
392,240,104306,1,0,0:0:0:0:
328,280,104423,1,0,0:0:0:0:
248,288,104540,1,0,0:0:0:0:
304,336,104657,1,0,0:0:0:0:
376,312,104774,1,0,0:0:0:0:
160,80,104892,1,2,0:0:0:0:
88,104,105009,1,0,0:0:0:0:
48,168,105126,5,0,0:0:0:0:
80,240,105243,1,0,0:0:0:0:
152,272,105360,1,0,0:0:0:0:
216,224,105478,1,0,0:0:0:0:
368,224,105595,2,0,L|440:232,1,60,2|0,0:0|0:0,0:0:0:0:
176,216,105829,2,0,L|96:224,1,60,2|0,0:0|0:0,0:0:0:0:
376,192,106064,5,2,0:0:0:0:
456,224,106181,1,0,0:0:0:0:
432,304,106298,1,0,0:0:0:0:
352,312,106415,1,0,0:0:0:0:
136,304,106532,2,0,L|56:304,1,60,2|0,0:0|0:0,0:0:0:0:
344,192,106767,2,0,L|416:192,1,60,2|0,0:0|0:0,0:0:0:0:
480,200,107001,5,0,0:0:0:0:
400,200,107118,1,0,0:0:0:0:
88,208,107235,1,2,0:0:0:0:
48,280,107353,1,0,0:0:0:0:
104,336,107470,1,0,0:0:0:0:
184,344,107587,1,0,0:0:0:0:
416,336,107704,2,0,L|488:304,1,60,2|0,0:0|0:0,0:0:0:0:
392,336,107939,5,0,0:0:0:0:
312,336,108056,1,0,0:0:0:0:
96,336,108173,2,0,L|40:304,1,60,2|0,0:0|0:0,0:0:0:0:
120,336,108407,1,0,0:0:0:0:
200,336,108524,1,0,0:0:0:0:
384,336,108642,2,0,P|476:280|380:240,1,240,2|0,0:0|0:0,0:0:0:0:
72,328,109345,2,0,L|72:200,1,120,2|0,0:0|0:0,0:0:0:0:
464,216,109814,6,0,L|344:216,1,120,6|0,0:0|0:0,0:0:0:0:
176,224,110282,1,8,0:0:0:0:
368,224,110517,1,0,0:0:0:0:
160,224,110751,2,0,L|40:224,2,120,2|0|8,0:0|0:0|0:0,0:0:0:0:
464,224,111454,1,0,0:0:0:0:
120,216,111689,6,0,L|240:216,1,120,2|0,0:0|0:0,0:0:0:0:
384,216,112157,1,8,0:0:0:0:
88,216,112392,1,0,0:0:0:0:
232,216,112626,1,2,0:0:0:0:
376,216,112860,1,0,0:0:0:0:
48,224,113095,1,8,0:0:0:0:
384,224,113564,6,0,L|224:224,1,120,2|0,0:0|0:0,0:0:0:0:
432,224,114032,1,8,0:0:0:0:
48,224,114501,1,2,0:0:0:0:
360,224,114735,1,0,0:0:0:0:
472,224,114892,1,0,0:0:0:0:
424,224,114970,1,8,0:0:0:0:
184,224,115204,1,0,0:0:0:0:
480,224,115439,6,0,L|344:224,1,120,2|0,0:0|0:0,0:0:0:0:
56,224,115907,1,8,0:0:0:0:
352,224,116142,1,0,0:0:0:0:
160,224,116376,2,0,L|304:224,1,120,2|0,0:0|0:0,0:0:0:0:
472,216,116845,2,0,L|344:216,1,120,8|0,0:0|0:0,0:0:0:0:
48,208,117314,5,6,0:0:0:0:
200,208,117548,1,0,0:0:0:0:
352,208,117782,1,8,0:0:0:0:
56,208,118017,1,0,0:0:0:0:
464,208,118251,1,2,0:0:0:0:
296,208,118485,1,0,0:0:0:0:
488,208,118720,1,8,0:0:0:0:
56,208,118954,1,2,0:0:0:0:
160,208,119110,1,2,0:0:0:0:
368,208,119189,6,0,L|488:208,2,120,2|2|8,0:0|0:0|0:0,0:0:0:0:
176,192,119892,1,0,0:0:0:0:
368,192,120126,2,0,L|216:192,1,120,2|2,0:0|0:0,0:0:0:0:
480,192,120595,2,0,L|336:192,1,120,8|0,0:0|0:0,0:0:0:0:
256,192,120985,1,2,0:0:0:0:
112,192,121064,6,0,L|32:192,1,80,2|0,0:0|0:0,0:0:0:0:
328,192,121298,2,0,L|418:194,1,80
184,192,121532,2,0,L|96:192,1,80,2|0,0:0|0:0,0:0:0:0:
376,192,121767,2,0,L|480:192,1,80
152,176,122001,1,2,0:0:0:0:
104,176,122079,1,0,0:0:0:0:
64,200,122157,1,0,0:0:0:0:
56,248,122235,1,8,0:0:0:0:
88,280,122314,1,0,0:0:0:0:
136,280,122392,1,0,0:0:0:0:
360,176,122470,5,2,0:0:0:0:
408,176,122548,1,0,0:0:0:0:
448,200,122626,1,0,0:0:0:0:
456,248,122704,1,8,0:0:0:0:
424,280,122783,1,0,0:0:0:0:
376,280,122861,1,0,0:0:0:0:
152,312,122939,5,2,0:0:0:0:
56,312,123095,1,0,0:0:0:0:
152,312,123251,1,0,0:0:0:0:
368,304,123407,2,0,L|448:304,1,80,2|0,0:0|0:0,0:0:0:0:
352,304,123720,1,0,0:0:0:0:
24,192,123876,2,0,P|48:280|192:288,1,240,2|0,0:0|0:0,0:0:0:0:
472,192,124814,6,0,L|344:192,1,120,6|0,0:0|0:0,0:0:0:0:
56,192,125282,1,8,0:0:0:0:
160,192,125439,1,0,0:0:0:0:
264,192,125595,1,0,0:0:0:0:
112,192,125751,2,0,L|8:192,2,80,2|0|0,0:0|0:0|0:0,0:0:0:0:
400,192,126220,2,0,L|504:192,1,80,8|0,0:0|0:0,0:0:0:0:
376,192,126532,1,0,0:0:0:0:
56,200,126689,5,2,0:0:0:0:
416,192,127157,2,0,L|336:192,1,60,8|0,0:0|0:0,0:0:0:0:
176,192,127392,2,0,L|72:192,1,60,0|0,0:0|0:0,0:0:0:0:
356,192,127626,2,0,L|460:192,1,60,2|0,0:0|0:0,0:0:0:0:
120,192,127860,2,0,L|180:192,1,60,0|0,0:0|0:0,0:0:0:0:
408,200,128095,1,8,0:0:0:0:
40,192,128564,6,0,L|168:192,1,120,2|0,0:0|0:0,0:0:0:0:
488,192,129032,1,8,0:0:0:0:
384,192,129189,1,0,0:0:0:0:
488,192,129345,1,0,0:0:0:0:
256,192,129501,1,2,0:0:0:0:
152,192,129657,1,0,0:0:0:0:
256,192,129814,1,0,0:0:0:0:
400,192,129970,2,0,L|504:192,2,80,8|0|0,0:0|0:0|0:0,0:0:0:0:
144,192,130439,6,0,L|72:192,1,60,2|0,0:0|0:0,0:0:0:0:
304,192,130673,2,0,L|376:192,1,60,0|0,0:0|0:0,0:0:0:0:
96,192,130907,2,0,L|16:192,1,60,2|0,0:0|0:0,0:0:0:0:
360,192,131142,2,0,L|488:192,1,120,8|2,0:0|0:0,0:0:0:0:
344,192,131610,1,0,0:0:0:0:
384,184,131669,1,0,0:0:0:0:
408,152,131728,1,0,0:0:0:0:
384,120,131786,1,0,0:0:0:0:
344,112,131845,1,8,0:0:0:0:
48,200,132079,1,0,0:0:0:0:
360,200,132314,6,0,L|488:200,1,120,6|0,0:0|0:0,0:0:0:0:
152,200,132782,1,8,0:0:0:0:
256,200,132939,1,0,0:0:0:0:
360,200,133095,1,0,0:0:0:0:
104,200,133251,2,0,L|16:200,2,80,2|0|0,0:0|0:0|0:0,0:0:0:0:
360,200,133720,1,8,0:0:0:0:
256,200,133876,1,0,0:0:0:0:
152,200,134032,1,0,0:0:0:0:
424,200,134189,5,2,0:0:0:0:
72,192,134657,2,0,L|152:192,1,60,8|0,0:0|0:0,0:0:0:0:
328,200,134892,2,0,L|432:200,1,60,0|0,0:0|0:0,0:0:0:0:
184,200,135126,2,0,L|104:200,1,60,2|0,0:0|0:0,0:0:0:0:
388,200,135360,2,0,L|328:200,1,60,0|0,0:0|0:0,0:0:0:0:
84,200,135595,1,8,0:0:0:0:
324,200,136064,6,0,L|460:200,1,120,2|0,0:0|0:0,0:0:0:0:
40,200,136532,1,8,0:0:0:0:
256,200,136689,1,0,0:0:0:0:
472,200,136845,1,0,0:0:0:0:
256,200,137001,2,0,L|168:200,2,80,2|0|0,0:0|0:0|0:0,0:0:0:0:
480,200,137470,1,8,0:0:0:0:
368,200,137626,1,0,0:0:0:0:
256,200,137782,1,0,0:0:0:0:
32,200,137939,6,0,L|152:200,1,120,2|0,0:0|0:0,0:0:0:0:
480,200,138407,2,0,L|360:200,1,120,2|0,0:0|0:0,0:0:0:0:
48,200,138876,1,2,0:0:0:0:
232,200,139110,1,0,0:0:0:0:
272,200,139169,1,0,0:0:0:0:
312,200,139228,1,0,0:0:0:0:
392,200,139345,1,4,0:0:0:0:
88,200,139579,1,4,0:0:0:0:
464,200,139814,6,0,L|336:200,1,120,6|0,0:0|0:0,0:0:0:0:
32,200,140282,1,8,0:0:0:0:
200,200,140517,2,0,L|80:200,1,120,0|2,0:0|0:0,0:0:0:0:
376,200,140985,1,0,0:0:0:0:
480,200,141142,1,0,0:0:0:0:
432,200,141220,1,8,0:0:0:0:
96,208,141454,1,0,0:0:0:0:
424,208,141689,6,0,L|296:208,1,120,2|0,0:0|0:0,0:0:0:0:
120,208,142157,2,0,L|208:208,1,60,8|0,0:0|0:0,0:0:0:0:
424,208,142392,2,0,L|504:208,1,60,0|0,0:0|0:0,0:0:0:0:
304,208,142626,2,0,L|240:176,1,60,2|0,0:0|0:0,0:0:0:0:
32,208,142860,2,0,L|92:208,1,60,0|0,0:0|0:0,0:0:0:0:
384,208,143095,1,8,0:0:0:0:
32,200,143564,6,0,L|168:200,1,120,2|0,0:0|0:0,0:0:0:0:
448,200,144032,1,8,0:0:0:0:
256,200,144267,1,0,0:0:0:0:
64,200,144501,1,2,0:0:0:0:
424,200,144735,1,0,0:0:0:0:
320,200,144892,1,0,0:0:0:0:
256,200,144970,1,8,0:0:0:0:
176,200,145087,1,0,0:0:0:0:
128,200,145146,1,0,0:0:0:0:
88,200,145204,1,0,0:0:0:0:
464,208,145439,6,0,L|392:208,1,60,2|0,0:0|0:0,0:0:0:0:
176,208,145673,2,0,L|96:208,1,60,8|0,0:0|0:0,0:0:0:0:
376,208,145907,2,0,L|456:208,1,60,2|0,0:0|0:0,0:0:0:0:
176,208,146142,2,0,L|24:208,1,120,8|2,0:0|0:0,0:0:0:0:
424,208,146610,1,0,0:0:0:0:
472,200,146669,1,0,0:0:0:0:
496,160,146728,1,0,0:0:0:0:
472,120,146786,1,0,0:0:0:0:
424,112,146845,1,8,0:0:0:0:
80,128,147079,1,0,0:0:0:0:
424,136,147314,6,0,L|296:136,1,120,6|0,0:0|0:0,0:0:0:0:
112,136,147782,1,8,0:0:0:0:
280,136,148017,1,0,0:0:0:0:
72,136,148251,1,2,0:0:0:0:
392,144,148485,1,0,0:0:0:0:
488,144,148642,1,0,0:0:0:0:
424,144,148720,1,8,0:0:0:0:
56,144,148954,1,0,0:0:0:0:
376,152,149189,6,0,L|496:152,1,120,2|0,0:0|0:0,0:0:0:0:
120,160,149657,2,0,L|200:160,1,60,8|0,0:0|0:0,0:0:0:0:
392,160,149892,2,0,L|332:160,1,60,0|0,0:0|0:0,0:0:0:0:
120,160,150126,2,0,L|32:160,1,60,2|0,0:0|0:0,0:0:0:0:
336,160,150360,2,0,L|424:160,1,60,0|0,0:0|0:0,0:0:0:0:
120,160,150595,1,8,0:0:0:0:
456,160,151064,6,0,L|296:160,1,120,2|0,0:0|0:0,0:0:0:0:
40,168,151532,1,8,0:0:0:0:
232,168,151767,1,0,0:0:0:0:
40,168,152001,1,2,0:0:0:0:
368,176,152235,1,0,0:0:0:0:
240,176,152392,1,0,0:0:0:0:
184,176,152470,1,8,0:0:0:0:
376,176,152587,1,0,0:0:0:0:
416,176,152646,1,0,0:0:0:0:
456,176,152704,1,0,0:0:0:0:
120,184,152939,5,2,0:0:0:0:
424,184,153407,1,2,0:0:0:0:
256,192,153876,1,2,0:0:0:0:
144,200,154345,1,2,0:0:0:0:
104,200,154403,1,0,0:0:0:0:
64,184,154462,1,0,0:0:0:0:
48,152,154521,1,0,0:0:0:0:
64,120,154579,1,0,0:0:0:0:
96,104,154638,1,0,0:0:0:0:
136,104,154696,1,0,0:0:0:0:
320,104,154814,5,6,0:0:0:0:
40,176,155282,1,8,0:0:0:0:
344,176,155517,2,0,L|200:176,1,120,2|0,0:0|0:0,0:0:0:0:
392,176,155985,1,0,0:0:0:0:
432,168,156044,1,0,0:0:0:0:
456,136,156103,1,0,0:0:0:0:
440,104,156161,1,0,0:0:0:0:
400,88,156220,1,8,0:0:0:0:
64,96,156454,1,0,0:0:0:0:
360,96,156689,6,0,L|464:24,1,120,2|0,0:0|0:0,0:0:0:0:
104,96,157157,1,8,0:0:0:0:
440,96,157392,2,0,L|296:96,1,120,2|0,0:0|0:0,0:0:0:0:
128,112,158095,1,8,0:0:0:0:
432,112,158329,1,0,0:0:0:0:
64,120,158564,6,0,L|208:120,1,120,2|0,0:0|0:0,0:0:0:0:
32,120,159032,1,8,0:0:0:0:
368,128,159267,2,0,L|488:128,1,120,2|0,0:0|0:0,0:0:0:0:
264,128,159735,1,0,0:0:0:0:
304,112,159794,1,0,0:0:0:0:
328,80,159853,1,0,0:0:0:0:
304,48,159911,1,0,0:0:0:0:
264,40,159970,1,8,0:0:0:0:
48,128,160204,1,0,0:0:0:0:
384,128,160439,6,0,L|512:128,2,120,2|0|8,0:0|0:0|0:0,0:0:0:0:
56,128,161142,1,2,0:0:0:0:
408,136,161610,1,0,0:0:0:0:
248,136,161845,2,0,L|400:136,1,120,8|0,0:0|0:0,0:0:0:0:
48,136,162314,5,2,0:0:0:0:
360,128,162782,1,8,0:0:0:0:
40,136,163017,2,0,L|184:136,1,120,2|0,0:0|0:0,0:0:0:0:
376,144,163485,1,0,0:0:0:0:
416,136,163544,1,0,0:0:0:0:
432,96,163603,1,0,0:0:0:0:
416,56,163661,1,0,0:0:0:0:
376,56,163720,1,8,0:0:0:0:
80,80,163954,1,0,0:0:0:0:
432,80,164189,6,0,L|304:80,1,120,2|0,0:0|0:0,0:0:0:0:
464,80,164657,1,8,0:0:0:0:
152,72,164892,2,0,L|8:72,1,120,2|0,0:0|0:0,0:0:0:0:
184,72,165360,1,0,0:0:0:0:
344,72,165595,1,8,0:0:0:0:
120,72,165829,1,0,0:0:0:0:
472,80,166064,6,0,L|352:80,1,120,2|0,0:0|0:0,0:0:0:0:
48,80,166532,1,8,0:0:0:0:
352,80,166767,2,0,L|224:80,1,120,2|0,0:0|0:0,0:0:0:0:
424,72,167235,1,0,0:0:0:0:
464,88,167294,1,0,0:0:0:0:
480,120,167353,1,0,0:0:0:0:
464,152,167411,1,0,0:0:0:0:
424,160,167470,1,8,0:0:0:0:
40,80,167704,1,0,0:0:0:0:
368,72,167939,6,0,L|496:72,1,120,10|0,0:0|0:0,0:0:0:0:
152,72,168407,2,0,L|16:72,1,120,10|0,0:0|0:0,0:0:0:0:
360,80,168876,2,0,L|480:80,1,120,10|0,0:0|0:0,0:0:0:0:
256,72,169345,1,2,0:0:0:0:
112,80,169814,5,2,0:0:0:0:
256,80,170048,1,0,0:0:0:0:
400,80,170282,2,0,L|264:80,1,120,8|0,0:0|0:0,0:0:0:0:
136,80,170751,2,0,L|256:80,1,120,2|0,0:0|0:0,0:0:0:0:
456,88,171220,1,8,0:0:0:0:
312,88,171454,1,0,0:0:0:0:
456,88,171689,6,0,L|320:88,1,120,2|0,0:0|0:0,0:0:0:0:
168,88,172157,1,8,0:0:0:0:
312,96,172392,2,0,L|432:96,1,120,0|2,0:0|0:0,0:0:0:0:
272,96,172860,1,0,0:0:0:0:
48,96,173095,2,0,L|168:96,1,120,8|0,0:0|0:0,0:0:0:0:
472,96,173564,5,2,0:0:0:0:
128,104,174032,2,0,L|256:104,2,120,8|0|2,0:0|0:0|0:0,0:0:0:0:
256,104,174735,1,0,0:0:0:0:
112,104,174970,1,8,0:0:0:0:
328,104,175204,1,0,0:0:0:0:
472,104,175439,5,2,0:0:0:0:
144,104,175673,1,0,0:0:0:0:
288,104,175907,1,8,0:0:0:0:
56,112,176142,1,0,0:0:0:0:
200,112,176376,2,0,L|320:112,1,120,2|0,0:0|0:0,0:0:0:0:
160,112,176845,2,0,L|40:112,1,120,8|0,0:0|0:0,0:0:0:0:
360,112,177314,6,0,L|480:112,1,120,2|0,0:0|0:0,0:0:0:0:
336,112,177782,1,8,0:0:0:0:
144,112,178017,2,0,L|24:112,2,120,0|2|0,0:0|0:0|0:0,0:0:0:0:
296,112,178720,1,8,0:0:0:0:
448,112,178954,1,0,0:0:0:0:
152,112,179189,6,0,L|8:112,2,120,2|0|8,0:0|0:0|0:0,0:0:0:0:
296,112,179892,1,0,0:0:0:0:
152,112,180126,1,2,0:0:0:0:
296,112,180360,1,0,0:0:0:0:
440,112,180595,2,0,L|312:112,1,120,8|0,0:0|0:0,0:0:0:0:
176,112,181064,5,2,0:0:0:0:
456,112,181532,2,0,L|336:112,2,120,8|0|2,0:0|0:0|0:0,0:0:0:0:
312,112,182235,1,0,0:0:0:0:
168,112,182470,1,8,0:0:0:0:
312,112,182704,1,8,0:0:0:0:
112,120,183173,5,0,0:0:0:0:
256,120,183407,1,8,0:0:0:0:
400,120,183642,1,2,0:0:0:0:
256,120,183876,1,2,0:0:0:0:
112,112,184110,1,2,0:0:0:0:
256,112,184345,2,0,L|256:240,1,120,8|2,0:0|0:0,0:0:0:0:
