osu file format v14

[General]
AudioFilename: audio.mp3
AudioLeadIn: 0
PreviewTime: -1
Countdown: 1
SampleSet: Normal
StackLeniency: 0.7
Mode: 0
LetterboxInBreaks: 0
WidescreenStoryboard: 0

[Editor]
Bookmarks: 14099,14802
DistanceSpacing: 1.4
BeatDivisor: 8
GridSize: 16
TimelineZoom: 3.399999

[Metadata]
Title:Fight
TitleUnicode:Fight
Artist:Tokyo Machine
ArtistUnicode:Tokyo Machine
Creator:South
Version:meh
Source:
Tags:
BeatmapID:1249112
BeatmapSetID:590155

[Difficulty]
HPDrainRate:5
CircleSize:4
OverallDifficulty:9
ApproachRate:10
SliderMultiplier:1.4
SliderTickRate:1

[Events]
//Background and Video events
//Break Periods
//Storyboard Layer 0 (Background)
//Storyboard Layer 1 (Fail)
//Storyboard Layer 2 (Pass)
//Storyboard Layer 3 (Foreground)
//Storyboard Sound Samples

[TimingPoints]
7537,468.75,4,1,0,100,1,0
19490,-50,4,1,0,100,0,0
19590,-50,4,1,0,100,0,0
19724,-100,4,1,0,100,0,0
29099,-50,4,1,0,100,0,0
33376,-100,4,1,0,100,0,0
34255,-50,4,1,0,100,0,0
41287,-50,4,1,0,100,0,0
41345,-50,4,1,0,5,0,0
41755,-50,4,1,0,100,0,0
41814,-50,4,1,0,5,0,0
42224,-50,4,1,0,100,0,0
42283,-50,4,1,0,5,0,0
42693,-50,4,1,0,100,0,0
42751,-50,4,1,0,5,0,0
43162,-50,4,1,0,100,0,0
43220,-50,4,1,0,5,0,0
43630,-50,4,1,0,100,0,0
43689,-50,4,1,0,5,0,0
44099,-50,4,1,0,100,0,0

[HitObjects]
256,192,7537,5,0,0:0:0:0:
256,80,7771,2,0,L|256:32,2,35
384,304,8240,2,0,L|416:336,2,35
128,304,8708,2,0,L|96:336,2,35
128,192,9646,6,0,L|160:160,2,35
384,192,10115,2,0,L|416:160,6,35
160,160,11287,5,0,0:0:0:0:
256,160,11521,5,0,0:0:0:0:
256,128,11638,1,0,0:0:0:0:
256,96,11755,1,0,0:0:0:0:
352,160,11990,5,0,0:0:0:0:
352,112,12107,1,0,0:0:0:0:
352,64,12224,1,0,0:0:0:0:
256,160,12458,5,0,0:0:0:0:
256,128,12576,1,0,0:0:0:0:
288,128,12693,1,0,0:0:0:0:
288,128,12751,1,0,0:0:0:0:
288,128,12810,1,0,0:0:0:0:
288,128,12869,1,0,0:0:0:0:
288,128,12927,1,0,0:0:0:0:
288,128,12986,1,0,0:0:0:0:
288,128,13044,1,0,0:0:0:0:
288,128,13103,1,0,0:0:0:0:
288,128,13162,1,0,0:0:0:0:
256,134,13279,5,0,0:0:0:0:
313,192,13396,1,0,0:0:0:0:
256,249,13513,1,0,0:0:0:0:
198,192,13630,1,0,0:0:0:0:
313,134,13747,5,0,0:0:0:0:
198,249,13865,1,0,0:0:0:0:
198,134,13982,1,0,0:0:0:0:
320,256,14099,2,0,B|352:288|400:336|400:336,2,105
256,192,15037,5,0,0:0:0:0:
80,96,15271,5,0,0:0:0:0:
112,144,15388,1,0,0:0:0:0:
80,192,15505,1,0,0:0:0:0:
144,80,15740,5,0,0:0:0:0:
176,144,15857,1,0,0:0:0:0:
144,208,15974,1,0,0:0:0:0:
208,64,16208,5,0,0:0:0:0:
240,144,16326,1,0,0:0:0:0:
208,224,16443,1,0,0:0:0:0:
368,80,17146,5,0,0:0:0:0:
320,112,17263,1,8,0:0:0:0:
272,144,17380,1,8,0:0:0:0:
80,288,17615,5,8,0:0:0:0:
128,288,17732,1,8,0:0:0:0:
80,288,17849,1,8,0:0:0:0:
128,288,17966,1,8,0:0:0:0:
80,288,18083,1,8,0:0:0:0:
128,288,18201,1,8,0:0:0:0:
80,288,18318,1,8,0:0:0:0:
336,144,18787,5,8,0:0:0:0:
352,224,19021,5,8,0:0:0:0:
304,224,19138,1,8,0:0:0:0:
256,224,19255,1,8,0:0:0:0:
256,288,19490,6,0,L|352:288,2,70
256,224,19958,5,8,0:0:0:0:
304,224,20076,1,8,0:0:0:0:
352,224,20193,1,8,0:0:0:0:
352,176,20896,5,8,0:0:0:0:
256,48,21013,1,8,0:0:0:0:
160,176,21130,1,8,0:0:0:0:
256,144,21365,5,8,0:0:0:0:
240,176,21482,1,8,0:0:0:0:
272,176,21599,1,8,0:0:0:0:
256,144,21716,1,8,0:0:0:0:
240,176,21833,1,8,0:0:0:0:
272,176,21951,1,8,0:0:0:0:
256,144,22068,1,0,0:0:0:0:
96,112,22537,5,0,0:0:0:0:
192,80,22771,5,8,0:0:0:0:
272,80,22888,1,0,0:0:0:0:
352,80,23005,1,8,0:0:0:0:
352,144,23240,5,0,0:0:0:0:
272,144,23357,1,8,0:0:0:0:
192,144,23474,1,8,0:0:0:0:
192,208,23708,5,0,0:0:0:0:
272,208,23826,1,8,0:0:0:0:
352,208,23943,1,8,0:0:0:0:
48,192,24646,5,0,0:0:0:0:
112,192,24763,1,8,0:0:0:0:
176,192,24880,1,8,0:0:0:0:
208,112,25115,5,0,0:0:0:0:
256,128,25232,1,8,0:0:0:0:
272,176,25349,1,0,0:0:0:0:
272,224,25466,1,8,0:0:0:0:
256,272,25583,1,0,0:0:0:0:
224,304,25701,1,8,0:0:0:0:
176,320,25818,1,8,0:0:0:0:
464,320,26287,5,0,0:0:0:0:
400,256,26521,5,8,0:0:0:0:
352,208,26638,1,8,0:0:0:0:
304,160,26755,1,0,0:0:0:0:
192,48,26990,5,8,0:0:0:0:
144,112,27107,1,8,0:0:0:0:
96,176,27224,1,8,0:0:0:0:
160,320,27458,5,0,0:0:0:0:
208,256,27576,1,8,0:0:0:0:
288,224,27693,1,0,0:0:0:0:
288,224,27751,1,8,0:0:0:0:
288,224,27810,1,0,0:0:0:0:
288,224,27869,1,8,0:0:0:0:
288,224,27927,1,0,0:0:0:0:
288,224,27986,1,8,0:0:0:0:
288,224,28044,1,8,0:0:0:0:
288,224,28103,1,0,0:0:0:0:
288,224,28162,1,8,0:0:0:0:
336,192,28279,5,0,0:0:0:0:
160,192,28396,1,8,0:0:0:0:
336,192,28513,1,0,0:0:0:0:
160,192,28630,1,0,0:0:0:0:
336,192,28747,5,0,0:0:0:0:
160,192,28865,1,0,0:0:0:0:
336,192,28982,1,0,0:0:0:0:
144,192,29099,6,0,L|384:192,2,210
256,192,30037,12,0,33083,0:0:0:0:
192,240,33787,5,0,0:0:0:0:
112,96,34021,1,0,0:0:0:0:
224,176,34255,2,0,L|176:112,3,70
320,192,34958,5,0,0:0:0:0:
448,224,35193,2,0,L|384:304,3,70
160,272,35896,5,0,0:0:0:0:
64,144,36130,2,0,L|128:80,3,70
256,160,36833,5,0,0:0:0:0:
384,240,37068,2,0,L|384:336,2,70
64,256,37537,5,0,0:0:0:0:
176,96,37771,1,0,0:0:0:0:
160,224,38005,2,0,L|112:160,3,70
224,64,38708,5,0,0:0:0:0:
432,80,38943,2,0,L|368:160,3,70
304,304,39646,5,0,0:0:0:0:
64,256,39880,2,0,L|128:192,3,70
224,96,40583,5,0,0:0:0:0:
432,192,40818,2,0,L|432:288,2,70
80,96,41287,6,8,L|352:96,1,245
368,128,41755,2,8,L|144:272,1,245
176,288,42224,6,8,L|448:304,1,245
448,272,42693,2,8,P|352:256|432:176,1,245
416,144,43162,6,8,P|320:160|352:288,1,245
352,288,43630,2,8,L|96:288,1,245
80,272,44099,5,0,0:0:0:0:
80,80,44568,1,0,0:0:0:0:
256,192,45037,1,0,0:0:0:0:
400,304,45505,1,0,0:0:0:0:
384,64,45974,1,0,0:0:0:0:
256,192,46443,1,0,0:0:0:0:
112,304,46912,1,0,0:0:0:0:
80,64,47380,1,0,0:0:0:0:
256,192,47849,1,0,0:0:0:0:
256,48,48318,1,0,0:0:0:0:
256,192,48787,5,0,0:0:0:0:
336,128,49138,1,0,0:0:0:0:
400,128,49490,1,0,0:0:0:0:
336,224,49724,1,0,0:0:0:0:
400,224,50076,1,0,0:0:0:0:
160,144,50427,1,0,0:0:0:0:
96,144,50662,1,0,0:0:0:0:
176,240,51013,1,0,0:0:0:0:
112,240,51365,1,0,0:0:0:0:
176,80,51599,1,0,0:0:0:0:
400,176,51951,1,0,0:0:0:0:
336,288,52302,1,0,0:0:0:0:
272,288,52537,1,0,0:0:0:0:
