osu file format v14

[General]
AudioFilename: audio.mp3
AudioLeadIn: 0
PreviewTime: 59118
Countdown: 1
SampleSet: Soft
StackLeniency: 0.3
Mode: 0
LetterboxInBreaks: 0
WidescreenStoryboard: 1

[Editor]
Bookmarks: 72770,80446,98727,125680
DistanceSpacing: 1
BeatDivisor: 8
GridSize: 8
TimelineZoom: 2.7

[Metadata]
Title:BUBBLES
TitleUnicode:BUBBLES
Artist:Tokyo Machine
ArtistUnicode:Tokyo Machine
Creator:Tacto
Version:BUBBLES \:D/
Source:
Tags:Monstercat Tokyo Machine electronic
BeatmapID:2260567
BeatmapSetID:727447

[Difficulty]
HPDrainRate:4
CircleSize:4
OverallDifficulty:8
ApproachRate:9
SliderMultiplier:1.9
SliderTickRate:1

[Events]
//Background and Video events
0,0,"62906153_p0.jpg",0,0
//Break Periods
2,15240,22410
//Storyboard Layer 0 (Background)
//Storyboard Layer 1 (Fail)
//Storyboard Layer 2 (Pass)
//Storyboard Layer 3 (Foreground)
//Storyboard Layer 4 (Overlay)
//Storyboard Sound Samples

[TimingPoints]
41.7268597460169,468.75,4,2,0,50,1,0
1447,-66.6666666666667,4,2,0,50,0,0
1916,-100,4,2,0,50,0,0
3322,-66.6666666666667,4,2,0,50,0,0
3791,-100,4,2,0,50,0,0
5197,-66.6666666666667,4,2,0,50,0,0
5666,-100,4,2,0,50,0,0
7072,-66.6666666666667,4,2,0,60,0,0
7541,-100,4,2,0,60,0,0
8947,-66.6666666666667,4,2,0,60,0,0
9416,-100,4,2,0,60,0,0
10822,-66.6666666666667,4,2,0,60,0,0
11291,-100,4,2,0,60,0,0
12697,-66.6666666666667,4,2,0,60,0,0
15041,-100,4,2,0,60,0,0
22541,-133.333333333333,4,2,0,50,0,0
29104,-66.6666666666667,4,2,0,50,0,0
30041,-100,4,2,0,50,0,0
45041,-66.6666666666667,4,2,0,50,0,0
59104,-50,4,2,0,50,0,0
59572,-133.333333333333,4,2,0,50,0,0
60041,-50,4,2,0,60,0,1
63557,-200,4,2,0,50,0,1
63791,-50,4,2,0,60,0,1
64494,-200,4,2,0,50,0,1
64729,-50,4,2,0,60,0,1
71057,-200,4,2,0,50,0,1
71291,-50,4,2,0,60,0,1
71994,-200,4,2,0,50,0,1
72229,-50,4,2,0,60,0,1
74572,-75.187969924812,4,2,0,50,0,1
75041,-50,4,2,0,50,0,1
78557,-200,4,2,0,50,0,1
78791,-50,4,2,0,50,0,1
79494,-200,4,2,0,50,0,1
79729,-50,4,2,0,50,0,1
86057,-200,4,2,0,50,0,1
86291,-50,4,2,0,50,0,1
86994,-200,4,2,0,50,0,1
87229,-50,4,2,0,50,0,1
88635,-100,4,2,0,50,0,1
90041,-100,4,2,0,50,0,0
91447,-66.6666666666667,4,2,0,50,0,0
91916,-100,4,2,0,50,0,0
93322,-66.6666666666667,4,2,0,50,0,0
93791,-100,4,2,0,50,0,0
95197,-66.6666666666667,4,2,0,50,0,0
95666,-100,4,2,0,50,0,0
97541,-76.9230769230769,4,2,0,50,0,0
98713,-76.9230769230769,4,2,0,50,0,0
98947,-76.9230769230769,4,2,0,50,0,0
101291,-50,4,2,0,50,0,0
104572,-21.2,4,2,0,50,0,0
105041,-29.7,4,2,0,50,0,1
110666,-66.6666666666667,4,2,0,50,0,1
110901,-29.7,4,2,0,50,0,1
118166,-66.6666666666667,4,2,0,50,0,1
118401,-29.7,4,2,0,50,0,1
119104,-66.6666666666667,4,2,0,50,0,1
120041,-29.7,4,2,0,50,0,1
121682,-29.7,4,2,0,50,0,1
125666,-66.6666666666667,4,2,0,50,0,1
125901,-29.7,4,2,0,50,0,1
130822,-29.7,4,2,0,50,0,1
132580,-50,4,2,0,50,0,0
132932,-66.6666666666667,4,2,0,50,0,0
133635,-100,4,2,0,50,0,0
135041,-100,4,2,0,50,0,0

[HitObjects]
112,64,41,6,0,L|103:119,1,47.5
140,178,276,2,0,L|131:233,1,47.5
184,290,510,2,0,L|175:345,1,47.5
226,103,744,6,0,L|217:158,1,47.5
254,217,979,2,0,L|245:272,1,47.5
297,328,1213,2,0,L|288:383,1,47.5
379,244,1447,2,0,B|359:216|359:216|405:153|405:153|383:119,1,142.500005435944
190,57,1916,6,0,L|159:93,1,47.5
214,181,2151,2,0,L|215:235,1,47.5
312,236,2385,2,0,L|348:268,1,47.5
107,161,2619,6,0,L|76:197,1,47.5
131,285,2854,2,0,L|132:339,1,47.5
229,340,3088,2,0,L|265:372,1,47.5
359,213,3322,2,0,B|398:143|360:120|328:101|362:21,1,190,0|0,3:0|0:0,0:0:0:0:
89,92,3791,6,0,L|76:153,1,47.5
169,210,4026,2,0,L|160:257,1,47.5
52,308,4260,2,0,L|39:369,1,47.5
172,96,4494,6,0,L|185:157,1,47.5
91,214,4729,2,0,L|100:260,1,47.5
209,312,4963,2,0,L|222:373,1,47.5
407,310,5197,2,0,B|399:288|399:288|407:260|407:260|397:236|397:236|408:213|408:213|400:185|400:185|402:175,1,142.500005435944,0|0,3:0|0:0,0:0:0:0:
325,45,5666,6,0,L|261:60,1,47.5
192,175,5901,2,0,L|256:190,1,47.5
333,302,6135,2,0,L|269:317,1,47.5
105,55,6369,6,0,L|169:70,1,47.5
238,185,6604,2,0,L|174:200,1,47.5
97,312,6838,2,0,L|161:327,1,47.5
213,330,7072,5,0,0:0:0:0:
283,317,7190,1,0,0:0:0:0:
309,250,7307,1,0,0:0:0:0:
264,194,7424,1,0,0:0:0:0:
190,238,7541,6,0,B|252:265,1,47.5,4|0,0:3|0:0,0:0:0:0:
479,328,7776,2,0,B|423:300,1,47.5,4|0,0:3|0:0,0:0:0:0:
379,146,8010,1,0,0:0:0:0:
379,146,8127,1,0,0:0:0:0:
379,146,8244,6,0,B|317:119,1,47.5,4|0,0:3|0:0,0:0:0:0:
82,60,8479,2,0,B|144:87,1,47.5,4|0,0:3|0:0,0:0:0:0:
190,238,8713,1,8,0:0:0:0:
190,238,8947,2,0,B|237:241|237:241|253:259|276:273|303:260|319:238,1,142.500005435944
318,239,9416,6,0,B|270:238,1,47.5,4|0,3:0|0:0,0:0:0:0:
74,104,9651,2,0,B|95:93|95:93|117:102,1,47.5,4|0,0:3|0:0,0:0:0:0:
200,263,9885,1,8,0:0:0:0:
200,263,10002,1,0,0:0:0:0:
200,263,10119,2,0,B|187:313,1,47.5,4|0,0:3|0:0,0:0:0:0:
43,204,10354,2,0,B|29:185|29:185|50:159,1,47.5
270,228,10588,1,8,0:0:0:0:
270,228,10705,1,0,0:0:0:0:
270,228,10822,2,0,B|311:293|359:210|407:291,1,142.500005435944,0|0,3:0|0:0,0:0:0:0:
395,274,11291,6,0,L|388:207,1,47.5,4|0,0:3|0:0,0:0:0:0:
254,17,11526,2,0,L|263:84,1,47.5,4|0,0:3|0:0,0:0:0:0:
181,253,11760,1,8,0:0:0:0:
181,253,11877,1,0,0:0:0:0:
181,253,11994,6,0,L|187:320,1,47.5,4|0,3:0|0:0,0:0:0:0:
394,360,12229,2,0,L|389:312,1,47.5,4|0,3:0|0:0,0:0:0:0:
378,117,12463,1,8,0:0:0:0:
378,117,12580,1,0,0:0:0:0:
378,117,12697,2,0,B|355:115|355:115|332:96|332:96|306:96|306:96,1,71.2500027179719,0|0,3:0|0:0,0:0:0:0:
242,115,12932,5,0,0:0:0:0:
242,184,13049,1,0,0:0:0:0:
308,205,13166,2,0,P|343:200|373:181,1,71.2500027179719,2|0,0:2|0:0,0:0:0:0:
166,163,13401,2,0,P|130:167|100:186,1,71.2500027179719,2|0,0:0|0:0,0:0:0:0:
67,298,13635,6,0,L|0:273,1,71.2500027179719,2|0,0:0|0:0,0:0:0:0:
249,255,13869,2,0,L|316:280,1,71.2500027179719,2|0,0:0|0:0,0:0:0:0:
148,126,14104,5,0,0:0:0:0:
212,95,14221,1,0,0:0:0:0:
283,99,14338,1,0,0:0:0:0:
341,140,14455,1,0,0:0:0:0:
383,197,14572,6,0,L|333:36,1,142.500005435944,4|0,0:0|0:0,0:0:0:0:
100,194,23010,5,0,0:0:0:0:
194,250,23244,2,0,P|176:280|146:302,1,71.2500027179719
231,179,23830,2,0,P|282:168|334:180,1,106.875004076958
334,180,24885,5,0,0:0:0:0:
240,207,25119,1,0,0:0:0:0:
232,110,25354,2,0,P|283:99|335:111,1,106.875004076958
335,111,26057,1,0,0:0:0:0:
264,255,26291,5,0,0:0:0:0:
264,255,26760,2,0,P|273:220|267:186,1,71.2500027179719
182,39,27229,5,0,0:0:0:0:
182,39,27697,2,0,P|173:73|179:108,1,71.2500027179719
266,185,28166,1,0,0:0:0:0:
266,185,28635,1,0,0:0:0:0:
266,185,29104,6,0,P|270:200|269:185,1,35.625001358986
386,122,29338,1,0,0:0:0:0:
160,91,29572,1,0,0:0:0:0:
240,308,29807,1,0,0:0:0:0:
292,64,30041,6,0,P|380:33|470:65,1,190
351,209,30744,1,0,0:0:0:0:
217,106,30979,2,0,L|208:11,1,95
235,261,31682,1,0,0:0:0:0:
235,261,32385,5,0,0:0:0:0:
103,328,32619,2,0,P|153:357|209:354,1,95
331,201,33088,1,0,0:0:0:0:
166,252,33322,1,0,0:0:0:0:
292,347,33557,1,0,0:0:0:0:
395,359,33791,5,0,0:0:0:0:
395,359,34260,2,0,L|488:345,1,95
207,186,34729,1,0,0:0:0:0:
207,186,35197,2,0,L|217:300,1,95
443,54,35666,1,0,0:0:0:0:
443,54,36135,6,0,L|386:58,1,47.5
268,143,36369,2,0,L|324:147,1,47.5
254,58,36604,1,0,0:0:0:0:
186,142,36838,1,0,0:0:0:0:
243,242,37072,2,0,P|290:254|349:240,1,95
192,19,37541,6,0,P|158:106|181:197,1,190
263,110,38244,1,0,0:0:0:0:
100,239,38479,2,0,L|105:344,1,95
97,130,39182,1,0,0:0:0:0:
97,130,39885,5,0,0:0:0:0:
245,107,40119,2,0,P|279:131|306:176,1,95
242,372,40588,1,0,0:0:0:0:
188,221,40822,1,0,0:0:0:0:
343,248,41057,1,0,0:0:0:0:
284,319,41291,5,0,0:0:0:0:
284,319,41760,2,0,L|182:310,1,95
330,83,42229,5,0,0:0:0:0:
330,83,42697,2,0,L|431:91,1,95
146,171,43166,1,0,0:0:0:0:
146,171,43635,2,0,L|150:120,1,47.5
267,36,43869,2,0,L|263:87,1,47.5
224,210,44104,1,0,0:0:0:0:
314,170,44338,1,0,0:0:0:0:
407,208,44572,2,0,P|384:249|342:271,1,95
137,160,45041,5,0,0:0:0:0:
105,351,45510,2,0,L|87:301,1,35.625001358986
209,212,45744,2,0,L|225:251,1,35.625001358986
69,248,45979,2,0,L|51:198,1,35.625001358986
56,214,46447,2,0,L|38:164,1,35.625001358986
160,75,46682,2,0,L|176:114,1,35.625001358986
20,111,46916,2,0,L|2:61,1,35.625001358986
7,77,47385,5,0,0:0:0:0:
62,62,47502,1,0,0:0:0:0:
119,55,47619,1,0,0:0:0:0:
177,57,47737,1,0,0:0:0:0:
233,69,47854,1,0,0:0:0:0:
233,69,48322,5,0,0:0:0:0:
410,73,48557,1,0,0:0:0:0:
410,73,48674,1,0,0:0:0:0:
410,73,48791,1,0,0:0:0:0:
410,73,49260,6,0,L|416:109,1,35.625001358986
322,177,49494,2,0,L|321:132,1,35.625001358986
434,177,49729,2,0,L|439:212,1,35.625001358986
439,212,50197,6,0,L|444:247,1,35.625001358986
350,315,50432,2,0,L|349:270,1,35.625001358986
462,315,50666,2,0,L|467:350,1,35.625001358986
467,350,51135,1,0,0:0:0:0:
411,364,51252,1,0,0:0:0:0:
355,370,51369,1,0,0:0:0:0:
298,370,51487,1,0,0:0:0:0:
241,361,51604,1,0,0:0:0:0:
241,361,52072,6,0,L|207:386,2,35.625001358986
367,263,52307,2,0,L|400:237,2,35.625001358986
146,283,52541,5,0,0:0:0:0:
146,283,53010,2,0,L|156:238,1,35.625001358986
213,187,53244,2,0,L|223:142,1,35.625001358986
295,109,53479,2,0,L|305:64,1,35.625001358986
302,74,53947,2,0,L|309:108,1,35.625001358986
384,152,54182,2,0,L|391:186,1,35.625001358986
451,248,54416,2,0,L|458:282,1,35.625001358986
458,282,54885,5,0,0:0:0:0:
448,224,55002,1,0,0:0:0:0:
445,167,55119,1,0,0:0:0:0:
447,109,55237,1,0,0:0:0:0:
454,52,55354,1,0,0:0:0:0:
367,221,55588,1,0,0:0:0:0:
178,65,55822,1,0,0:0:0:0:
277,219,56057,1,0,0:0:0:0:
277,219,56291,5,0,0:0:0:0:
280,275,56408,1,0,0:0:0:0:
283,332,56526,1,0,0:0:0:0:
211,168,56760,5,0,0:0:0:0:
206,111,56877,1,0,0:0:0:0:
201,54,56994,1,0,0:0:0:0:
152,219,57229,5,0,0:0:0:0:
156,275,57346,1,0,0:0:0:0:
159,331,57463,1,0,0:0:0:0:
86,168,57697,5,0,0:0:0:0:
81,110,57815,1,0,0:0:0:0:
76,53,57932,1,0,0:0:0:0:
141,229,58166,6,0,L|114:270,2,47.5000018119813
224,240,58401,6,0,L|232:298,2,47.5000018119813
303,222,58635,6,0,L|338:272,2,47.5000018119813
368,167,58869,6,0,L|414:201,2,47.5000018119813
368,167,59104,6,0,P|347:129|233:178,1,190
402,347,59572,2,0,B|403:336|403:336|409:325|409:325|409:304|409:304|414:285|414:285|413:262|413:262|419:247|419:247|419:234,1,106.875004076958
368,167,60041,6,0,B|291:183|233:150|233:150|167:186,1,190
59,258,60393,1,0,0:0:0:0:
59,258,60510,2,0,P|52:211|58:164,1,95
218,262,60744,2,0,P|225:309|219:356,1,95
116,118,60979,2,0,P|162:112|210:117,1,95
350,174,61213,1,0,0:0:0:0:
350,174,61330,6,0,B|413:225|359:303|359:303|324:266,1,190
284,91,61682,2,0,B|333:26|412:76|412:76|378:112,1,190
350,174,62033,1,0,0:0:0:0:
337,213,62151,2,0,P|338:261|362:307,1,95
478,139,62385,6,0,P|477:91|453:45,1,95
293,149,62619,2,0,P|247:161|202:149,1,95
414,230,62854,2,0,P|434:272|435:319,1,95
311,194,63088,1,0,0:0:0:0:
360,168,63205,1,0,0:0:0:0:
412,180,63322,2,0,L|398:298,1,95
270,319,63557,6,0,P|286:317|310:325,1,35.625
320,335,63791,2,0,P|257:337|153:261,1,190
156,266,64260,1,0,0:0:0:0:
333,126,64495,2,0,P|339:140|337:165,1,35.625
338,179,64729,2,0,P|294:133|370:34,1,190
347,36,65198,1,0,0:0:0:0:
344,290,65432,2,0,P|390:302|436:293,1,95
436,123,65666,2,0,P|390:110|344:120,1,95
243,240,65901,2,0,P|197:252|151:242,1,95
76,131,66135,6,0,P|69:84|79:37,1,95
302,130,66369,2,0,P|315:175|313:222,1,95
151,352,66604,2,0,P|80:294|92:204,1,190
302,130,66955,2,0,P|362:200|355:293,1,190
179,254,67307,2,0,P|224:230|267:230,1,95
446,320,67541,5,0,0:0:0:0:
446,320,67776,2,0,P|441:341|454:334,1,47.5
327,183,68010,2,0,P|298:146|293:99,1,95
437,32,68244,2,0,P|465:68|470:115,1,95
158,73,68479,2,0,P|194:44|245:43,1,95
308,288,68713,1,0,0:0:0:0:
308,288,68830,6,0,B|256:351|179:297|179:297|215:263,1,190
381,235,69182,2,0,B|460:254|445:346|445:346|399:329,1,190
308,288,69533,1,0,0:0:0:0:
281,256,69651,2,0,L|276:139,1,95
285,48,69885,6,0,P|331:38|379:47,1,95
200,178,70119,2,0,P|154:188|106:179,1,95
388,213,70354,2,0,P|398:259|389:307,1,95
196,351,70588,1,0,0:0:0:0:
151,288,70705,1,0,0:0:0:0:
207,234,70822,2,0,L|302:225,1,95
415,325,71057,6,0,P|397:323|382:313,1,35.625
391,282,71291,2,0,P|350:328|183:312,1,237.5
188,316,71760,1,0,0:0:0:0:
231,152,71994,2,0,P|241:166|244:183,1,35.625
249,203,72229,2,0,P|196:160|316:54,1,285
313,52,72698,1,0,0:0:0:0:
143,306,72932,6,0,P|96:314|51:302,1,95
169,97,73166,2,0,P|215:88|260:100,1,95
272,245,73401,2,0,P|317:256|363:248,1,95
464,128,73635,6,0,P|443:82|384:52,1,95
189,269,73869,2,0,P|209:314|268:344,1,95
455,306,74104,2,0,L|455:198,1,95
424,73,74338,1,0,0:0:0:0:
424,73,74572,2,0,P|338:55|257:133,1,189.524992191811
295,253,75041,6,0,P|392:269|458:206,1,190
424,73,75393,1,0,0:0:0:0:
424,73,75510,2,0,P|370:53|330:57,1,95
295,253,75744,2,0,P|349:273|389:269,1,95
257,106,75979,2,0,P|203:86|163:90,1,95
131,158,76213,1,0,0:0:0:0:
131,158,76330,6,0,P|187:224|263:180,1,190
166,89,76682,2,0,P|77:102|60:189,1,190
114,267,77033,1,0,0:0:0:0:
114,267,77151,2,0,P|159:290|211:281,1,95
333,193,77385,6,0,P|378:170|431:176,1,95
485,346,77619,2,0,P|440:369|387:363,1,95
285,300,77854,2,0,P|347:295|382:264,1,95
343,121,78088,1,0,0:0:0:0:
297,112,78205,1,0,0:0:0:0:
254,136,78322,2,0,L|310:225,1,95
377,326,78557,6,0,P|394:321|407:310,1,35.625
403,294,78791,2,0,P|347:263|217:311,1,190
231,294,79260,1,0,0:0:0:0:
302,135,79494,2,0,P|300:117|288:104,1,35.625
272,103,79729,2,0,P|290:160|424:204,1,190
401,209,80197,1,0,0:0:0:0:
341,63,80432,6,0,P|386:48|432:63,1,95
497,221,80666,2,0,P|452:236|406:221,1,95
274,128,80901,2,0,P|229:114|184:129,1,95
185,291,81135,2,0,P|229:304|274:289,1,95
357,95,81369,2,0,P|312:101|273:131,1,95
275,290,81604,2,0,P|355:334|440:298,1,190
438,138,81955,2,0,P|357:94|272:131,1,190
202,264,82307,2,0,P|198:212|207:161,1,95
415,40,82541,5,0,0:0:0:0:
415,40,82776,2,0,L|419:102,1,47.5
379,245,83010,2,0,L|385:340,1,95
279,245,83244,2,0,L|184:250,1,95
330,165,83479,2,0,L|325:70,1,95
379,245,83713,1,0,0:0:0:0:
379,245,83830,6,0,B|474:245|474:245|473:355,1,190
333,307,84182,2,0,P|300:246|382:167,1,190
451,195,84533,1,0,0:0:0:0:
451,195,84651,2,0,P|417:237|372:244,1,95
263,138,84885,6,0,P|212:129|171:138,1,95
171,293,85119,2,0,P|222:302|263:293,1,95
349,167,85354,2,0,P|358:116|349:75,1,95
179,35,85588,1,0,0:0:0:0:
132,54,85705,1,0,0:0:0:0:
84,75,85822,2,0,L|84:173,1,95
129,318,86057,6,0,L|130:353,1,35.625
159,369,86291,2,0,L|159:180,1,190
161,164,86760,1,0,0:0:0:0:
311,192,86995,2,0,L|311:230,1,35.625
349,241,87229,2,0,L|349:52,1,190
349,51,87697,1,0,0:0:0:0:
436,238,87932,1,0,0:0:0:0:
436,238,88635,6,0,P|389:247|343:238,1,95
261,145,89104,2,0,P|214:135|168:144,1,95
79,236,89572,1,0,0:0:0:0:
79,236,90041,6,0,L|139:217,1,47.5
189,280,90276,2,0,L|221:239,1,47.5
309,281,90510,2,0,L|313:223,1,47.5
258,26,90744,6,0,L|254:84,1,47.5
378,27,90979,2,0,L|346:68,1,47.5
488,71,91213,2,0,L|428:90,1,47.5
445,224,91447,2,0,B|419:246|419:246|420:267|420:267|384:247|384:247|384:270|384:270|339:304,1,142.500005435944
182,361,91916,2,0,L|114:355,1,47.5
113,255,92151,2,0,L|45:249,1,47.5
175,155,92385,2,0,L|107:149,1,47.5
299,160,92619,6,0,L|367:166,1,47.5
368,266,92854,2,0,L|436:272,1,47.5
306,366,93088,2,0,L|374:372,1,47.5
214,175,93322,2,0,B|188:149|188:149|218:141|260:97|245:57|209:61,1,142.500005435944
94,237,93791,6,0,L|68:289,1,47.5
191,264,94026,2,0,L|190:322,1,47.5
279,233,94260,2,0,L|303:285,1,47.5
423,144,94494,6,0,L|449:92,1,47.5
326,117,94729,2,0,L|326:58,1,47.5
238,148,94963,2,0,L|213:95,1,47.5
331,213,95197,2,0,B|329:223|329:223|337:251|337:251|326:274|326:274|336:298|336:298|328:326|328:326|336:348,1,142.500005435944
131,331,95666,6,0,L|188:317,1,47.5
118,221,95901,2,0,L|173:221,1,47.5
139,116,96135,2,0,L|196:130,1,47.5
342,242,96369,6,0,L|285:228,1,47.5
355,132,96604,2,0,L|300:132,1,47.5
334,27,96838,2,0,L|277:41,1,47.5
210,76,97072,5,0,0:0:0:0:
202,146,97190,1,0,0:0:0:0:
240,204,97307,1,0,0:0:0:0:
308,223,97424,1,0,0:0:0:0:
374,197,97541,6,0,L|442:176,1,61.7499971733095
333,322,97776,1,0,0:0:0:0:
333,322,97893,1,0,0:0:0:0:
333,322,98010,2,0,L|274:341,1,61.7499971733095
129,343,98244,2,0,L|83:301,1,61.7499971733095
248,263,98479,2,0,L|202:221,1,61.7499971733095
176,165,98713,1,0,0:0:0:0:
196,106,98830,1,0,0:0:0:0:
244,68,98947,1,0,0:0:0:0:
306,65,99065,1,0,0:0:0:0:
358,98,99182,6,0,L|372:185,1,61.7499971733095
477,28,99416,2,0,L|490:89,1,61.7499971733095
484,150,99651,1,0,0:0:0:0:
465,208,99768,1,0,0:0:0:0:
419,249,99885,1,0,0:0:0:0:
357,254,100002,1,0,0:0:0:0:
302,225,100119,2,0,L|259:149,1,61.7499971733095
229,350,100354,2,0,L|186:274,1,61.7499971733095
180,100,100588,6,0,L|115:135,1,61.7499971733095
184,222,100822,2,0,L|113:200,1,61.7499971733095
121,326,101057,2,0,L|85:261,1,61.7499971733095
29,110,101291,5,0,0:0:0:0:
60,74,101408,1,0,0:0:0:0:
107,76,101526,1,0,0:0:0:0:
148,99,101643,1,0,0:0:0:0:
186,140,101760,5,0,0:0:0:0:
237,164,101877,1,0,0:0:0:0:
291,147,101994,1,0,0:0:0:0:
326,102,102112,1,0,0:0:0:0:
370,52,102229,5,0,0:0:0:0:
404,108,102346,1,0,0:0:0:0:
439,164,102463,1,0,0:0:0:0:
466,224,102580,1,0,0:0:0:0:
491,295,102697,5,0,0:0:0:0:
428,251,102815,1,0,0:0:0:0:
366,206,102932,1,0,0:0:0:0:
306,158,103049,1,0,0:0:0:0:
236,108,103166,5,0,0:0:0:0:
226,86,103635,1,0,0:0:0:0:
219,66,104104,1,0,0:0:0:0:
208,52,104572,6,0,B|145:71|131:39|131:39|159:12,1,112.028297855151
208,52,105041,6,0,B|326:-15|428:52|428:52|388:100|323:78,1,320
353,85,105510,2,0,P|235:111|193:295,1,319.865311648557
188,286,105979,2,0,B|449:287|449:287|392:309,1,320
297,371,106330,2,0,L|137:371,1,159.932655824278
108,349,106682,2,0,L|267:349,1,159.932655824278
213,215,106916,2,0,L|53:215,1,159.932655824278
53,215,107385,6,0,P|60:65|194:105,1,320
263,335,107737,2,0,L|105:292,1,159.932655824278
109,143,107971,2,0,L|263:184,1,159.932655824278
263,184,108322,2,0,P|241:256|263:335,1,159.932655824278
429,258,108557,2,0,P|451:186|429:107,1,159.932655824278
429,107,108791,6,0,B|331:59|265:104|192:146|96:86,1,320
117,97,109260,2,0,P|91:206|268:191,1,319.865311648557
254,221,109729,2,0,P|391:182|452:325,1,319.865311648557
453,319,110080,2,0,P|360:350|342:311,1,159.932655824278
342,314,110432,2,0,L|313:154,1,159.932655824278
226,41,110666,2,0,L|154:36,1,71.2500027179719
217,27,110901,6,0,L|28:17,1,160
178,238,111135,2,0,L|367:248,1,160
337,246,111604,6,0,P|375:179|336:113,1,160
336,113,111955,2,0,P|420:149|454:207,1,160
453,205,112307,2,0,P|462:112|423:60,1,160
283,68,112541,6,0,B|252:94|252:94|252:380,1,319.865311648557
252,374,113010,2,0,P|88:329|64:188,1,319.865311648557
60,198,113479,2,0,P|200:168|374:209,1,319.865311648557
353,352,113830,2,0,L|193:352,1,160
179,333,114182,6,0,L|339:333,1,160
478,210,114416,2,0,L|318:210,1,160
318,210,114885,6,0,P|254:58|357:64,1,319.865311648557
340,52,115237,2,0,L|426:210,1,159.932655824278
394,350,115471,2,0,L|317:209,1,159.932655824278
317,209,115822,2,0,P|242:198|154:222,1,159.932655824278
239,367,116057,2,0,P|310:375|398:347,1,159.932655824278
398,149,116291,2,0,P|228:103|97:149,1,319.865311648557
97,148,116760,2,0,P|143:273|302:237,1,319.865311648557
299,241,117229,2,0,P|170:204|48:342,1,319.865311648557
50,324,117580,6,0,P|131:360|186:318,1,159.932655824278
183,323,117932,2,0,P|249:284|316:322,1,159.932655824278
468,343,118166,2,0,L|465:259,1,71.2500027179719
476,355,118401,6,0,L|471:175,1,159.932655824278
353,48,118635,2,0,L|358:228,1,159.932655824278
358,208,119104,2,0,L|272:179,1,71.2500027179719
183,143,119338,1,0,0:0:0:0:
183,143,119572,2,0,P|109:172|103:305,1,213.750008153916
94,293,120041,6,0,B|352:313|352:313|424:293,1,320
411,297,120510,2,0,B|347:272|347:272|309:240|309:240|261:239|261:239|225:210|225:210|169:202|169:202|114:152,1,320
131,167,120979,2,0,B|416:169|416:169|383:128,1,319.865311648557
347,79,121330,2,0,L|187:76,1,159.932655824278
170,61,121682,6,0,L|330:64,1,159.932655824278
341,236,121916,2,0,B|152:231,1,159.932655824278
182,232,122385,2,0,P|260:134|120:85,1,320
37,219,122737,2,0,L|127:402,1,160
182,232,122971,2,0,L|106:48,1,160
120,84,123322,2,0,P|197:62|275:74,1,160
461,217,123557,2,0,P|383:238|305:226,1,160
131,167,123791,6,0,B|201:93|293:151|370:208|459:133,1,320
434,149,124260,2,0,P|431:61|240:60,1,320
243,53,124729,2,0,B|242:298|242:298|297:361,1,319.865311648557
378,271,125080,2,0,B|379:99,1,159.932655824278
379,112,125432,2,0,L|220:125,1,159.932655824278
87,254,125666,2,0,L|158:248,1,71.2500027179719
82,272,125901,6,0,L|240:258,1,159.932655824278
455,179,126135,2,0,L|296:192,1,159.932655824278
295,192,126604,2,0,L|229:30,1,159.932655824278
234,43,126955,2,0,L|126:181,1,159.932655824278
135,169,127307,2,0,L|308:192,1,159.932655824278
366,295,127541,6,0,P|209:361|141:244,1,319.865311648557
141,260,128010,2,0,L|463:169,1,319.865311648557
449,172,128479,2,0,P|329:296|220:233,1,319.865311648557
139,34,128830,2,0,L|152:193,1,159.932655824278
134,211,129182,6,0,L|119:43,1,159.932655824278
311,163,129416,2,0,L|325:330,1,159.932655824278
324,322,129885,6,0,P|180:378|16:326,1,319.865311648557
147,163,130237,2,0,L|296:63,1,159.932655824278
290,234,130471,2,0,L|141:334,1,159.932655824278
157,322,130822,6,0,L|147:155,1,159.932655824278
279,73,131056,2,0,L|289:239,1,159.932655824278
158,324,131291,2,0,P|59:292|101:97,1,319.865311648557
77,108,131760,2,0,P|136:219|178:99,1,320
178,99,132229,2,0,P|310:33|476:120,1,320
459,97,132580,6,0,P|445:144|448:191,1,95
473,317,132932,2,0,B|428:296|428:296|383:311|383:311|346:287|346:287|303:306|303:306|258:281|258:281|213:294|213:294,1,285.000010871888
31,196,133635,2,0,P|55:161|116:137,1,95
237,37,134104,2,0,P|197:51|164:98,1,95
163,176,134572,1,0,0:0:0:0:
163,176,135041,1,0,0:0:0:0:
