osu file format v14

[General]
AudioFilename: Spice.mp3
AudioLeadIn: 0
PreviewTime: 53517
Countdown: 0
SampleSet: None
StackLeniency: 0.2
Mode: 0
LetterboxInBreaks: 0
WidescreenStoryboard: 1

[Editor]
DistanceSpacing: 2
BeatDivisor: 4
GridSize: 4
TimelineZoom: 1

[Metadata]
Title:Spice
TitleUnicode:スパイス
Artist:Tokyo Karan Koron
ArtistUnicode:東京カランコロン
Creator:DT-sama
Version:spice fa rima con duce
Source:食戟のソーマ
Tags:shokugeki no soma 1st Ending food wars
BeatmapID:1347901
BeatmapSetID:635205

[Difficulty]
HPDrainRate:6
CircleSize:6
OverallDifficulty:9
ApproachRate:9
SliderMultiplier:1.6
SliderTickRate:1

[Events]
//Background and Video events
0,0,"BG.png",0,0
//Break Periods
//Storyboard Layer 0 (Background)
//Storyboard Layer 1 (Fail)
//Storyboard Layer 2 (Pass)
//Storyboard Layer 3 (Foreground)
//Storyboard Sound Samples

[TimingPoints]
94.3866142896875,461.538461538462,4,2,1,50,1,0
24094,-100,4,2,1,60,0,0
52248,-133.333333333333,4,2,1,60,0,0
53632,-80,4,2,2,70,0,1
83171,-100,4,2,2,60,0,0
88248,-100,4,2,2,5,0,0

[Colours]
Combo1 : 206,184,28
Combo2 : 87,203,48
Combo3 : 83,129,223
Combo4 : 213,68,94

[HitObjects]
72,64,9094,5,0,0:0:0:0:
404,348,9325,6,0,B|412:308|412:308|404:268,1,80
320,224,9786,2,0,B|312:264|312:264|320:304,1,80
400,180,10248,1,0,0:0:0:0:
467,61,10479,6,0,B|475:101|475:101|467:141,1,80
45,323,10940,2,0,B|37:283|37:283|45:243,1,80
180,188,11402,5,0,0:0:0:0:
112,96,11632,1,0,0:0:0:0:
100,176,11863,1,0,0:0:0:0:
192,108,12094,1,0,0:0:0:0:
204,264,12325,5,0,0:0:0:0:
296,196,12556,1,0,0:0:0:0:
292,276,12786,1,0,0:0:0:0:
367,243,13017,6,0,B|375:205|375:205|367:165,1,80
208,100,13479,2,0,B|200:138|200:138|208:178,2,80
288,196,14171,5,0,0:0:0:0:
340,44,14402,1,0,0:0:0:0:
445,188,14632,6,0,B|405:191|405:191|367:179,2,80
367,179,15325,1,0,0:0:0:0:
296,212,15555,1,0,0:0:0:0:
220,188,15786,5,0,0:0:0:0:
32,108,16132,1,0,0:0:0:0:
24,120,16247,1,0,0:0:0:0:
100,96,16479,1,0,0:0:0:0:
253,111,16709,6,0,B|214:123|214:123|175:119,2,80
308,52,17402,1,0,0:0:0:0:
308,52,17632,1,0,0:0:0:0:
388,64,17863,1,0,0:0:0:0:
392,216,18094,1,0,0:0:0:0:
493,131,18325,6,0,B|453:127|453:127|415:139,2,80
420,292,19017,1,0,0:0:0:0:
340,308,19248,1,0,0:0:0:0:
272,264,19479,1,0,0:0:0:0:
268,244,19594,1,0,0:0:0:0:
148,144,19825,1,0,0:0:0:0:
144,164,19940,1,0,0:0:0:0:
180,240,20171,1,0,0:0:0:0:
220,108,20402,5,0,0:0:0:0:
352,52,20632,1,0,0:0:0:0:
252,44,20863,1,0,0:0:0:0:
324,120,21094,1,0,0:0:0:0:
282,266,21556,5,0,0:0:0:0:
360,272,21786,5,0,0:0:0:0:
204,260,22017,1,0,0:0:0:0:
288,188,22248,1,0,0:0:0:0:
276,344,22479,1,0,0:0:0:0:
256,192,22709,12,0,23171,0:0:0:0:
124,84,23402,5,0,0:0:0:0:
324,136,23632,1,0,0:0:0:0:
305,156,23747,1,0,0:0:0:0:
281,171,23862,1,0,0:0:0:0:
255,180,23978,1,0,0:0:0:0:
227,180,24094,6,0,P|140:176|76:216,1,160
296,336,24786,5,0,0:0:0:0:
324,312,24902,1,0,0:0:0:0:
332,276,25017,1,0,0:0:0:0:
272,172,25248,1,0,0:0:0:0:
384,132,25479,1,0,0:0:0:0:
340,52,25709,1,0,0:0:0:0:
316,248,25940,6,0,B|356:256|356:256|400:244,1,80
461,129,26402,2,0,B|421:121|421:121|377:133,1,80
488,216,26863,5,0,0:0:0:0:
372,192,27094,1,0,0:0:0:0:
156,188,27325,1,0,0:0:0:0:
264,240,27555,1,0,0:0:0:0:
260,120,27786,6,0,P|176:72|100:96,1,160
118,84,28363,1,0,0:0:0:0:
118,84,28479,1,0,0:0:0:0:
56,188,28709,1,0,0:0:0:0:
188,344,28940,1,0,0:0:0:0:
72,308,29171,1,0,0:0:0:0:
288,280,29402,1,0,0:0:0:0:
364,296,29632,5,0,0:0:0:0:
308,352,29863,1,0,0:0:0:0:
236,320,30094,1,0,0:0:0:0:
240,224,30325,1,0,0:0:0:0:
356,188,30555,5,0,0:0:0:0:
160,95,30786,1,0,0:0:0:0:
280,96,31017,1,0,0:0:0:0:
236,187,31248,1,0,0:0:0:0:
280,278,31479,6,0,B|318:290|318:290|358:287,1,80
480,108,31940,2,0,B|442:96|442:96|402:99,1,80
416,200,32402,1,0,0:0:0:0:
280,96,32632,1,0,0:0:0:0:
244,192,32863,1,0,0:0:0:0:
376,100,33094,1,0,0:0:0:0:
484,184,33325,5,0,0:0:0:0:
340,296,33555,1,0,0:0:0:0:
444,296,33786,1,0,0:0:0:0:
300,224,34017,1,0,0:0:0:0:
364,236,34132,1,0,0:0:0:0:
424,212,34248,1,0,0:0:0:0:
352,148,34479,1,0,0:0:0:0:
344,52,34709,1,0,0:0:0:0:
260,8,34940,1,0,0:0:0:0:
196,80,35171,5,0,0:0:0:0:
172,240,35402,1,0,0:0:0:0:
332,264,35632,1,0,0:0:0:0:
356,104,35863,1,0,0:0:0:0:
263,171,36094,5,0,0:0:0:0:
263,171,36325,1,0,0:0:0:0:
242,313,36555,5,0,0:0:0:0:
405,193,36786,1,0,0:0:0:0:
285,30,37016,1,0,0:0:0:0:
122,150,37247,1,0,0:0:0:0:
405,193,37479,5,0,0:0:0:0:
368,176,37594,1,0,0:0:0:0:
328,176,37709,1,0,0:0:0:0:
292,196,37825,1,0,0:0:0:0:
272,232,37940,1,0,0:0:0:0:
280,272,38055,1,0,0:0:0:0:
240,280,38171,1,0,0:0:0:0:
228,244,38286,1,0,0:0:0:0:
268,232,38402,5,0,0:0:0:0:
132,312,38632,1,0,0:0:0:0:
16,200,38863,5,0,0:0:0:0:
44,172,38979,1,0,0:0:0:0:
84,168,39094,1,0,0:0:0:0:
120,184,39209,1,0,0:0:0:0:
160,268,39325,5,0,0:0:0:0:
196,252,39440,1,0,0:0:0:0:
180,216,39555,1,0,0:0:0:0:
144,232,39671,1,0,0:0:0:0:
204,308,39786,5,0,0:0:0:0:
248,328,39902,1,0,0:0:0:0:
296,320,40017,1,0,0:0:0:0:
328,284,40132,1,0,0:0:0:0:
304,164,40248,5,0,0:0:0:0:
348,184,40363,1,0,0:0:0:0:
328,228,40479,1,0,0:0:0:0:
284,208,40594,1,0,0:0:0:0:
348,120,40709,5,0,0:0:0:0:
404,124,40825,1,0,0:0:0:0:
448,160,40940,1,0,0:0:0:0:
448,216,41055,1,0,0:0:0:0:
476,264,41171,1,0,0:0:0:0:
508,220,41286,1,0,0:0:0:0:
464,188,41402,1,0,0:0:0:0:
432,232,41517,1,0,0:0:0:0:
452,284,41632,5,0,0:0:0:0:
446,221,41748,1,0,0:0:0:0:
382,225,41863,1,0,0:0:0:0:
387,289,41979,1,0,0:0:0:0:
440,332,42094,5,0,0:0:0:0:
376,284,42209,1,0,0:0:0:0:
296,300,42325,1,0,0:0:0:0:
224,268,42440,1,0,0:0:0:0:
196,192,42555,5,0,0:0:0:0:
380,104,42786,1,0,0:0:0:0:
236,104,43017,1,0,0:0:0:0:
340,192,43248,1,0,0:0:0:0:
308,104,43479,1,0,0:0:0:0:
268,192,43709,1,0,0:0:0:0:
300,280,43940,1,0,0:0:0:0:
256,192,44171,12,0,45786,0:0:0:0:
424,292,46248,5,0,0:0:0:0:
376,308,46363,1,0,0:0:0:0:
324,296,46479,1,0,0:0:0:0:
292,256,46594,1,0,0:0:0:0:
288,172,46709,5,0,0:0:0:0:
232,228,46825,1,0,0:0:0:0:
172,172,46940,1,0,0:0:0:0:
224,112,47055,1,0,0:0:0:0:
232,172,47171,5,0,0:0:0:0:
220,224,47286,1,0,0:0:0:0:
176,256,47402,1,0,0:0:0:0:
124,252,47517,1,0,0:0:0:0:
32,180,47632,5,0,0:0:0:0:
32,259,47748,1,0,0:0:0:0:
114,262,47863,1,0,0:0:0:0:
119,182,47978,1,0,0:0:0:0:
71,219,48094,5,0,0:0:0:0:
43,264,48209,1,0,0:0:0:0:
51,318,48325,1,0,0:0:0:0:
91,352,48440,1,0,0:0:0:0:
144,356,48555,1,0,0:0:0:0:
189,328,48670,1,0,0:0:0:0:
243,336,48786,1,0,0:0:0:0:
277,376,48901,1,0,0:0:0:0:
212,384,49017,5,0,0:0:0:0:
244,332,49132,1,0,0:0:0:0:
300,312,49248,1,0,0:0:0:0:
360,324,49363,1,0,0:0:0:0:
420,328,49479,1,0,0:0:0:0:
472,300,49594,1,0,0:0:0:0:
444,248,49709,1,0,0:0:0:0:
388,272,49825,1,0,0:0:0:0:
416,324,49940,5,0,0:0:0:0:
488,180,50171,1,0,0:0:0:0:
364,76,50402,1,0,0:0:0:0:
472,28,50632,1,0,0:0:0:0:
368,88,50863,1,0,0:0:0:0:
460,164,51094,1,0,0:0:0:0:
376,252,51325,5,0,0:0:0:0:
120,64,52248,5,0,0:0:0:0:
204,260,52479,1,0,0:0:0:0:
248,96,52709,1,0,0:0:0:0:
72,224,52940,1,0,0:0:0:0:
404,152,53171,1,0,0:0:0:0:
24,88,53402,1,0,0:0:0:0:
468,356,53632,5,0,0:0:0:0:
432,288,53748,1,0,0:0:0:0:
364,256,53863,1,0,0:0:0:0:
292,272,53979,1,0,0:0:0:0:
116,192,54094,5,0,0:0:0:0:
120,208,54209,1,0,0:0:0:0:
224,296,54325,1,0,0:0:0:0:
220,280,54440,1,0,0:0:0:0:
116,300,54555,1,0,0:0:0:0:
112,316,54670,1,0,0:0:0:0:
220,192,54786,1,0,0:0:0:0:
224,176,54901,1,0,0:0:0:0:
276,112,55017,5,0,0:0:0:0:
320,140,55132,1,0,0:0:0:0:
376,92,55248,1,0,0:0:0:0:
448,144,55363,1,0,0:0:0:0:
496,64,55479,6,0,L|536:32,3,50
188,68,55940,5,0,0:0:0:0:
196,144,56055,1,0,0:0:0:0:
260,188,56171,1,0,0:0:0:0:
336,196,56286,1,0,0:0:0:0:
404,168,56402,5,0,0:0:0:0:
356,228,56517,1,0,0:0:0:0:
412,280,56632,1,0,0:0:0:0:
464,224,56748,1,0,0:0:0:0:
416,168,56863,5,0,0:0:0:0:
364,280,56979,1,0,0:0:0:0:
476,224,57094,1,0,0:0:0:0:
352,208,57209,1,0,0:0:0:0:
444,292,57325,5,0,0:0:0:0:
428,304,57440,1,0,0:0:0:0:
336,336,57555,1,0,0:0:0:0:
352,352,57671,1,0,0:0:0:0:
352,268,57786,5,0,0:0:0:0:
280,244,57902,1,0,0:0:0:0:
212,272,58017,1,0,0:0:0:0:
176,336,58132,1,0,0:0:0:0:
252,336,58248,1,0,0:0:0:0:
212,272,58363,1,0,0:0:0:0:
144,240,58479,5,0,0:0:0:0:
68,248,58594,1,0,0:0:0:0:
24,308,58709,1,0,0:0:0:0:
68,248,58825,1,0,0:0:0:0:
60,172,58940,1,0,0:0:0:0:
112,116,59055,1,0,0:0:0:0:
60,172,59171,6,0,L|-16:176,3,50
120,208,59632,5,0,0:0:0:0:
132,220,59748,1,0,0:0:0:0:
196,232,59863,1,0,0:0:0:0:
216,216,59979,1,0,0:0:0:0:
272,188,60094,1,0,0:0:0:0:
312,208,60209,1,0,0:0:0:0:
376,216,60325,1,0,0:0:0:0:
416,192,60440,1,0,0:0:0:0:
408,112,60555,5,0,0:0:0:0:
348,68,60671,1,0,0:0:0:0:
304,128,60786,1,0,0:0:0:0:
364,176,60902,1,0,0:0:0:0:
356,124,61017,5,0,0:0:0:0:
356,124,61132,1,0,0:0:0:0:
292,80,61248,1,0,0:0:0:0:
280,92,61363,1,0,0:0:0:0:
200,64,61479,1,0,0:0:0:0:
208,96,61594,1,0,0:0:0:0:
236,216,61709,5,0,0:0:0:0:
224,168,61825,1,0,0:0:0:0:
140,200,61940,1,0,0:0:0:0:
172,156,62055,1,0,0:0:0:0:
160,104,62171,1,0,0:0:0:0:
104,84,62286,1,0,0:0:0:0:
24,184,62402,5,0,0:0:0:0:
88,224,62517,1,0,0:0:0:0:
124,160,62632,1,0,0:0:0:0:
60,120,62748,1,0,0:0:0:0:
164,224,62863,6,0,L|216:272,3,50
248,176,63325,5,0,0:0:0:0:
268,192,63440,1,0,0:0:0:0:
348,136,63555,1,0,0:0:0:0:
324,132,63671,1,0,0:0:0:0:
336,240,63786,1,0,0:0:0:0:
352,264,63902,1,0,0:0:0:0:
472,312,64017,1,0,0:0:0:0:
440,264,64132,1,0,0:0:0:0:
300,336,64248,5,0,0:0:0:0:
397,311,64363,1,0,0:0:0:0:
464,233,64479,1,0,0:0:0:0:
467,134,64594,1,0,0:0:0:0:
400,60,64709,6,0,L|352:4,3,50
288,100,65171,5,0,0:0:0:0:
288,124,65286,1,0,0:0:0:0:
212,128,65402,1,0,0:0:0:0:
224,148,65517,1,0,0:0:0:0:
164,192,65632,1,0,0:0:0:0:
192,204,65748,1,0,0:0:0:0:
152,272,65863,1,0,0:0:0:0:
188,268,65979,1,0,0:0:0:0:
192,364,66094,5,0,0:0:0:0:
232,324,66209,1,0,0:0:0:0:
296,312,66325,1,0,0:0:0:0:
380,336,66440,1,0,0:0:0:0:
472,364,66555,6,0,L|536:360,2,50
380,336,66901,1,0,0:0:0:0:
316,300,67017,1,0,0:0:0:0:
328,228,67132,2,0,L|336:164,2,50
272,312,67479,5,0,0:0:0:0:
172,324,67594,1,0,0:0:0:0:
120,240,67709,1,0,0:0:0:0:
192,172,67825,1,0,0:0:0:0:
280,220,67940,1,0,0:0:0:0:
360,160,68055,1,0,0:0:0:0:
320,68,68171,1,0,0:0:0:0:
220,68,68286,1,0,0:0:0:0:
192,164,68402,5,0,0:0:0:0:
396,192,68863,5,0,0:0:0:0:
392,208,68978,1,0,0:0:0:0:
288,296,69094,1,0,0:0:0:0:
292,280,69209,1,0,0:0:0:0:
396,300,69324,1,0,0:0:0:0:
400,316,69439,1,0,0:0:0:0:
292,192,69555,1,0,0:0:0:0:
288,176,69670,1,0,0:0:0:0:
236,112,69786,5,0,0:0:0:0:
192,140,69901,1,0,0:0:0:0:
136,92,70017,1,0,0:0:0:0:
64,144,70132,1,0,0:0:0:0:
16,64,70248,6,0,L|-24:32,3,50
324,68,70709,5,0,0:0:0:0:
316,144,70824,1,0,0:0:0:0:
252,188,70940,1,0,0:0:0:0:
176,196,71055,1,0,0:0:0:0:
108,168,71171,5,0,0:0:0:0:
156,228,71286,1,0,0:0:0:0:
100,280,71401,1,0,0:0:0:0:
48,224,71517,1,0,0:0:0:0:
96,168,71632,5,0,0:0:0:0:
148,280,71748,1,0,0:0:0:0:
36,224,71863,1,0,0:0:0:0:
160,208,71978,1,0,0:0:0:0:
68,292,72094,5,0,0:0:0:0:
84,304,72209,1,0,0:0:0:0:
176,336,72324,1,0,0:0:0:0:
160,352,72440,1,0,0:0:0:0:
160,268,72555,5,0,0:0:0:0:
232,244,72671,1,0,0:0:0:0:
300,272,72786,1,0,0:0:0:0:
336,336,72901,1,0,0:0:0:0:
260,336,73017,1,0,0:0:0:0:
300,272,73132,1,0,0:0:0:0:
368,240,73248,5,0,0:0:0:0:
444,248,73363,1,0,0:0:0:0:
488,308,73478,1,0,0:0:0:0:
444,248,73594,1,0,0:0:0:0:
452,172,73709,1,0,0:0:0:0:
400,116,73824,1,0,0:0:0:0:
452,172,73940,6,0,L|528:176,3,50
392,208,74401,5,0,0:0:0:0:
380,220,74517,1,0,0:0:0:0:
316,232,74632,1,0,0:0:0:0:
296,216,74748,1,0,0:0:0:0:
240,188,74863,1,0,0:0:0:0:
200,208,74978,1,0,0:0:0:0:
136,216,75094,1,0,0:0:0:0:
96,192,75209,1,0,0:0:0:0:
104,112,75324,5,0,0:0:0:0:
164,68,75440,1,0,0:0:0:0:
208,128,75555,1,0,0:0:0:0:
148,176,75671,1,0,0:0:0:0:
156,124,75786,5,0,0:0:0:0:
156,124,75901,1,0,0:0:0:0:
220,80,76017,1,0,0:0:0:0:
232,92,76132,1,0,0:0:0:0:
312,64,76248,1,0,0:0:0:0:
304,96,76363,1,0,0:0:0:0:
276,216,76478,5,0,0:0:0:0:
288,168,76594,1,0,0:0:0:0:
372,200,76709,1,0,0:0:0:0:
340,156,76824,1,0,0:0:0:0:
352,104,76940,1,0,0:0:0:0:
408,84,77055,1,0,0:0:0:0:
488,184,77171,5,0,0:0:0:0:
424,224,77286,1,0,0:0:0:0:
388,160,77401,1,0,0:0:0:0:
452,120,77517,1,0,0:0:0:0:
348,224,77632,6,0,L|296:272,3,50
264,176,78094,5,0,0:0:0:0:
244,192,78209,1,0,0:0:0:0:
164,136,78324,1,0,0:0:0:0:
188,132,78440,1,0,0:0:0:0:
176,240,78555,1,0,0:0:0:0:
160,264,78671,1,0,0:0:0:0:
40,312,78786,1,0,0:0:0:0:
72,264,78901,1,0,0:0:0:0:
212,336,79017,5,0,0:0:0:0:
115,311,79132,1,0,0:0:0:0:
48,233,79248,1,0,0:0:0:0:
45,134,79363,1,0,0:0:0:0:
112,60,79478,6,0,L|160:4,3,50
224,100,79940,5,0,0:0:0:0:
224,124,80055,1,0,0:0:0:0:
300,128,80171,1,0,0:0:0:0:
288,148,80286,1,0,0:0:0:0:
348,192,80401,1,0,0:0:0:0:
320,204,80517,1,0,0:0:0:0:
360,272,80632,1,0,0:0:0:0:
324,268,80748,1,0,0:0:0:0:
320,364,80863,5,0,0:0:0:0:
280,324,80978,1,0,0:0:0:0:
216,312,81094,1,0,0:0:0:0:
132,336,81209,1,0,0:0:0:0:
40,364,81324,6,0,L|-24:360,2,50
132,336,81670,1,0,0:0:0:0:
196,300,81786,1,0,0:0:0:0:
184,228,81901,2,0,L|176:164,2,50
240,312,82248,5,0,0:0:0:0:
340,324,82363,1,0,0:0:0:0:
392,240,82478,1,0,0:0:0:0:
320,172,82594,1,0,0:0:0:0:
232,220,82709,1,0,0:0:0:0:
152,160,82824,1,0,0:0:0:0:
192,68,82940,1,0,0:0:0:0:
292,68,83055,1,0,0:0:0:0:
320,164,83171,5,0,0:0:0:0:
