osu file format v14

[General]
AudioFilename: Tokyo Karan Koron - Spice.mp3
AudioLeadIn: 0
PreviewTime: 52197
Countdown: 0
SampleSet: Soft
StackLeniency: 0.7
Mode: 0
LetterboxInBreaks: 0
WidescreenStoryboard: 0

[Editor]
Bookmarks: 24043,27274,53582,53813,54043,54505,55197,55659,55890,57736,59582,60966,61197,61428,63274,65120,68813,70659,72505,74351,76197,78043,79890
DistanceSpacing: 1.5
BeatDivisor: 4
GridSize: 8
TimelineZoom: 1

[Metadata]
Title:Spice
TitleUnicode:スパイス
Artist:Tokyo Karan Koron
ArtistUnicode:東京カランコロン
Creator:Chirikatori
Version:Normal
Source:食戟のソーマ
Tags:shokugeki no souma food wars ending tv size
BeatmapID:694382
BeatmapSetID:309128

[Difficulty]
HPDrainRate:4
CircleSize:3
OverallDifficulty:3
ApproachRate:4
SliderMultiplier:1.1
SliderTickRate:1

[Events]
//Background and Video events
0,0,"1385329027_98380.jpg",0,0
Video,0,"koron karan.avi"
//Break Periods
//Storyboard Layer 0 (Background)
//Storyboard Layer 1 (Fail)
//Storyboard Layer 2 (Pass)
//Storyboard Layer 3 (Foreground)
//Storyboard Sound Samples

[TimingPoints]
1890,461.538461538462,4,2,1,100,1,0
12274,-100,4,2,2,60,0,0
12620,-100,4,2,1,100,0,0
15736,-100,4,2,2,60,0,0
16543,-100,4,2,1,100,0,0
19428,-100,4,2,2,60,0,0
20236,-100,4,2,1,100,0,0
23120,-100,4,2,2,100,0,0
24043,-90.9090909090909,4,2,1,100,0,0
38813,-125,4,2,1,100,0,0
49890,-100,4,2,1,100,0,0
52197,-133.333333333333,4,2,1,100,0,0
53582,-83.3333333333333,4,2,3,100,0,1
66505,-100,4,2,2,100,0,0
68351,-83.3333333333333,4,2,3,100,0,1
81274,-100,4,2,2,100,0,1
83120,-100,4,2,1,100,0,0

[Colours]
Combo1 : 169,10,34
Combo2 : 122,80,106
Combo3 : 73,95,182

[HitObjects]
104,64,1890,6,0,P|56:96|32:168,1,110,2|0,0:0|0:0,0:0:0:0:
264,240,3044,1,2,0:0:0:0:
264,240,3505,2,0,B|304:224|304:224|320:152|392:136,2,165,2|0|0,0:0|0:0|0:0,0:0:0:0:
48,120,5582,6,0,P|103:103|173:131,1,110,2|0,0:0|0:0,0:0:0:0:
400,136,6736,1,2,0:0:0:0:
400,136,7197,2,0,B|360:200|288:184|288:184|248:200,1,165,2|0,0:0|0:0,0:0:0:0:
96,240,8351,2,0,L|40:208,2,55
232,152,9274,6,0,L|312:48,1,110,2|0,0:0|0:0,0:0:0:0:
480,232,10428,1,2,0:0:0:0:
480,232,10890,2,0,L|400:336,2,110,2|0|0,0:0|0:0|0:0,0:0:0:0:
408,192,12043,2,0,L|352:224,2,55,0|2|2,0:0|0:0|0:0,0:0:0:0:
288,80,12966,6,0,P|245:41|170:37,1,110,2|0,0:0|0:0,0:0:0:0:
104,264,14120,2,0,P|146:302|221:306,1,110,2|2,0:0|0:0,0:0:0:0:
280,312,14813,1,0,0:0:0:0:
280,312,15043,2,0,B|336:312|336:312|384:376,1,110
424,296,15736,2,0,L|440:208,2,82.5,2|2|2,0:0|0:0|0:0,0:0:0:0:
352,248,16659,6,0,P|349:193|374:145,1,110,2|0,0:0|0:0,0:0:0:0:
440,96,17351,1,0,0:0:0:0:
360,64,17582,1,0,0:0:0:0:
360,64,17813,2,0,P|307:46|254:57,1,110,2|2,0:0|0:0,0:0:0:0:
184,104,18505,2,0,L|170:157,1,55
336,176,19197,1,0,0:0:0:0:
336,176,19428,6,0,L|408:224,2,82.5,2|2|2,0:0|0:0|0:0,0:0:0:0:
296,248,20351,2,0,L|296:312,1,55,2|0,0:0|0:0,0:0:0:0:
376,320,20813,2,0,L|376:384,1,55
376,208,21505,1,2,0:0:0:0:
376,208,21736,2,0,L|376:144,1,55,0|2,0:0|0:0,0:0:0:0:
296,136,22198,2,0,L|296:72,1,55
136,120,22890,5,0,0:0:0:0:
136,120,23120,1,8,0:0:0:0:
184,184,23351,2,0,L|232:248,2,55,2|2|2,0:0|0:0|0:0,0:0:0:0:
264,144,24043,6,0,P|261:89|304:32,1,121.000003692627,10|0,0:0|0:0,0:0:0:0:
352,112,24736,2,0,L|432:112,1,60.5000018463135,0|8,0:0|0:0,0:0:0:0:
496,144,25197,2,0,P|463:186|393:202,1,121.000003692627,2|2,0:0|0:0,0:0:0:0:
312,232,25890,2,0,L|248:288,2,60.5000018463135,8|0|0,0:0|0:0|0:0,0:0:0:0:
224,200,26582,1,0,0:0:0:0:
296,144,26813,2,0,L|360:96,1,60.5000018463135,8|0,0:0|0:0,0:0:0:0:
168,56,27505,5,0,0:0:0:0:
80,88,27736,2,0,P|113:130|183:146,1,121.000003692627,10|0,0:0|0:0,0:0:0:0:
264,144,28428,1,0,0:0:0:0:
352,144,28659,2,0,L|412:144,2,60.5000018463135,8|2|0,0:0|0:0|0:0,0:0:0:0:
352,232,29351,1,2,0:0:0:0:
352,232,29582,2,0,L|216:232,1,121.000003692627,8|0,0:0|0:0,0:0:0:0:
144,264,30274,2,0,P|142:210|185:153,1,121.000003692627
320,48,31197,5,0,0:0:0:0:
320,48,31428,2,0,L|408:144,1,121.000003692627,10|0,0:0|0:0,0:0:0:0:
472,200,32120,2,0,P|499:220|510:256,1,60.5000018463135,0|8,0:0|0:0,0:0:0:0:
424,280,32582,2,0,P|396:259|385:223,1,60.5000018463135,2|0,0:0|0:0,0:0:0:0:
320,176,33043,1,2,0:0:0:0:
320,176,33274,2,0,P|295:223|310:293,2,121.000003692627,8|0|8,0:0|0:0|0:0,0:0:0:0:
368,104,34428,2,0,L|400:48,2,60.5000018463135
408,184,35120,6,0,L|408:248,1,60.5000018463135,10|0,0:0|0:0,0:0:0:0:
480,296,35582,2,0,P|484:329|467:362,1,60.5000018463135
296,312,36274,1,2,0:0:0:0:
296,312,36505,2,0,L|296:248,1,60.5000018463135,0|2,0:0|0:0,0:0:0:0:
216,208,36967,2,0,P|211:174|228:141,1,60.5000018463135
256,192,37428,12,8,38813,0:0:0:0:
120,64,39736,6,0,P|96:112|96:160,1,88,8|0,0:0|0:0,0:0:0:0:
224,144,40659,2,0,P|248:96|248:48,2,88,8|0|8,0:0|0:0|0:0,0:0:0:0:
128,232,42043,2,0,B|168:296|240:280|240:280|288:304,1,176
344,248,43197,2,0,L|392:224,1,44,0|8,0:0|0:0,0:0:0:0:
384,320,43659,2,0,L|432:320,1,44
432,120,44582,6,0,L|432:56,1,44
368,80,45043,2,0,P|354:51|352:24,2,44,0|8|0,0:0|0:0|0:0,0:0:0:0:
368,144,45735,2,0,P|353:173|352:200,2,44,0|0|8,0:0|0:0|0:0,0:0:0:0:
288,248,46659,6,0,B|312:296|312:296|312:344,2,88,0|8|0,0:0|0:0|0:0,0:0:0:0:
184,168,48044,2,0,B|134:187|134:187|86:183,2,88,8|0|8,0:0|0:0|0:0,0:0:0:0:
312,128,49428,1,0,0:0:0:0:
256,192,49890,12,8,51274,0:0:0:0:
384,192,52197,6,0,L|416:144,2,41.2500015735627
296,192,52890,2,0,P|312:248|344:272,1,82.5000031471254
232,296,53582,6,0,P|177:273|144:208,1,131.99999597168,2|8,0:0|0:0,0:0:0:0:
200,128,54274,1,0,0:0:0:0:
200,128,54505,2,0,B|272:64|272:64|320:64,1,131.99999597168,2|0,0:0|0:0,0:0:0:0:
384,128,55197,2,0,L|432:176,1,65.9999979858399,2|0,0:0|0:0,0:0:0:0:
408,272,55890,6,0,P|351:303|287:290,1,131.99999597168,8|2,0:0|0:0,0:0:0:0:
216,224,56582,1,0,0:0:0:0:
128,272,56813,2,0,P|115:208|146:151,1,131.99999597168
232,104,57505,6,0,L|296:72,2,65.9999979858399,2|8|0,0:0|0:0|0:0,0:0:0:0:
304,168,58197,2,0,B|324:197|324:197|418:219,1,131.99999597168,2|0,0:0|0:0,0:0:0:0:
400,320,58890,2,0,B|380:291|380:291|320:280,1,65.9999979858399,2|0,0:0|0:0,0:0:0:0:
160,224,59582,2,0,B|144:192|144:192|176:144|160:80,2,131.99999597168,8|2|0,0:0|0:0|0:0,0:0:0:0:
232,296,60736,2,0,L|280:344,2,65.9999979858399,2|2|2,0:0|0:0|0:0,0:0:0:0:
296,216,61428,6,0,B|388:188|388:188|431:208,1,131.99999597168,8|2,0:0|0:0,0:0:0:0:
472,288,62120,1,0,0:0:0:0:
472,288,62351,2,0,P|414:318|351:305,1,131.99999597168
152,288,63274,6,0,B|117:258|60:267|60:267|38:239,1,131.99999597168,8|2,0:0|0:0,0:0:0:0:
8,144,63966,1,0,0:0:0:0:
32,48,64197,2,0,B|80:64|96:104|96:104|152:112,1,131.99999597168,0|2,0:0|0:0,0:0:0:0:
336,104,65120,6,0,L|400:128,1,65.9999979858399,8|0,0:0|0:0,0:0:0:0:
456,208,65582,2,0,B|423:221|423:221|331:191,2,131.99999597168,2|0|0,0:0|0:0|0:0,0:0:0:0:
312,288,66966,6,0,L|304:352,2,55,10|2|2,0:0|0:0|0:0,0:0:0:0:
232,272,67659,2,0,L|240:208,2,55,10|2|2,0:0|0:0|0:0,0:0:0:0:
136,280,68351,6,0,B|64:216|64:216|28:216,1,131.99999597168,2|8,0:0|0:0,0:0:0:0:
64,120,69043,1,0,0:0:0:0:
64,120,69274,2,0,L|208:120,1,131.99999597168,2|0,0:0|0:0,0:0:0:0:
296,120,69966,2,0,L|368:120,1,65.9999979858399,2|0,0:0|0:0,0:0:0:0:
360,320,70659,6,0,B|377:288|377:288|434:287|477:237,1,131.99999597168,8|2,0:0|0:0,0:0:0:0:
384,192,71351,1,0,0:0:0:0:
352,96,71582,2,0,B|304:112|288:152|288:152|232:160,1,131.99999597168
152,200,72274,6,0,P|120:238|112:264,1,65.9999979858399,2|8,0:0|0:0,0:0:0:0:
63,338,72736,1,0,0:0:0:0:
63,338,72966,2,0,P|127:350|184:320,1,131.99999597168,2|0,0:0|0:0,0:0:0:0:
256,256,73659,2,0,L|304:200,1,65.9999979858399,2|0,0:0|0:0,0:0:0:0:
120,128,74351,2,0,B|154:135|154:135|240:89,2,131.99999597168,8|2|0,0:0|0:0|0:0,0:0:0:0:
88,224,75505,2,0,L|160:240,2,65.9999979858399,2|0|2,0:0|0:0|0:0,0:0:0:0:
112,320,76197,6,0,P|167:353|231:343,1,131.99999597168,8|2,0:0|0:0,0:0:0:0:
304,280,76890,1,0,0:0:0:0:
328,184,77120,2,0,B|376:200|392:240|392:240|448:248,1,131.99999597168
448,144,77813,1,2,0:0:0:0:
448,144,78043,6,0,B|415:129|415:129|408:72|355:33,2,131.99999597168,8|2|0,0:0|0:0|0:0,0:0:0:0:
480,240,79197,2,0,L|496:320,1,65.9999979858399,2|0,0:0|0:0,0:0:0:0:
312,224,79890,6,0,B|390:279|390:279|398:314,1,131.99999597168,8|2,0:0|0:0,0:0:0:0:
304,328,80582,1,0,0:0:0:0:
304,328,80813,2,0,L|192:248,1,131.99999597168
272,104,81736,6,0,P|304:72|320:40,2,55,8|2|2,0:0|0:0|0:0,0:0:0:0:
192,88,82428,2,0,P|160:120|144:152,2,55,10|2|2,0:0|0:0|0:0,0:0:0:0:
232,176,83120,6,0,L|320:264,1,110,8|0,0:0|0:0,0:0:0:0:
168,336,84043,2,0,L|80:248,1,110,8|0,0:0|0:0,0:0:0:0:
160,104,84966,2,0,P|217:73|272:80,1,110,8|0,0:0|0:0,0:0:0:0:
392,184,85890,2,0,L|440:232,1,55,8|0,0:0|0:0,0:0:0:0:
416,304,86351,1,8,0:0:0:0:
256,192,86813,12,0,88197,0:0:0:0:
