osu file format v14

[General]
AudioFilename: Spice.mp3
AudioLeadIn: 0
PreviewTime: 53517
Countdown: 0
SampleSet: Soft
StackLeniency: 0.7
Mode: 2
LetterboxInBreaks: 0
WidescreenStoryboard: 1

[Editor]
DistanceSpacing: 1
BeatDivisor: 4
GridSize: 8
TimelineZoom: 1

[Metadata]
Title:Spice
TitleUnicode:スパイス
Artist:Tokyo Karan Koron
ArtistUnicode:東京カランコロン
Creator:[ M o m o ]
Version:Rain 9.4
Source:食戟のソーマ
Tags:shokugeki no soma 1st Ending food wars
BeatmapID:1524667
BeatmapSetID:722146

[Difficulty]
HPDrainRate:6
CircleSize:4
OverallDifficulty:8
ApproachRate:9.4
SliderMultiplier:1.6
SliderTickRate:1

[Events]
//Background and Video events
0,0,"BG.jpg",0,0
//Break Periods
//Storyboard Layer 0 (Background)
//Storyboard Layer 1 (Fail)
//Storyboard Layer 2 (Pass)
//Storyboard Layer 3 (Foreground)
//Storyboard Sound Samples

[TimingPoints]
94.3866142896875,461.538461538462,4,2,1,0,1,0
24094,-100,4,2,1,0,0,0
38863,-133.333333333333,4,2,1,0,0,0
52248,-133.333333333333,4,2,1,0,0,0
53632,-100,4,2,2,0,0,1
83171,-100,4,2,2,0,0,0
86863,-133.333333333333,4,2,2,0,0,0
88248,-100,4,2,2,0,0,0

[Colours]
Combo1 : 206,184,28
Combo2 : 87,203,48
Combo3 : 83,129,223
Combo4 : 213,68,94

[HitObjects]
88,96,1940,6,0,L|176:160,1,80
152,143,2286,1,0,0:0:0:0:
224,104,2402,1,0,0:0:0:0:
296,48,2517,1,0,0:0:0:0:
224,104,2632,1,0,0:0:0:0:
296,48,2748,1,0,0:0:0:0:
360,104,2863,1,0,0:0:0:0:
280,168,2979,1,0,0:0:0:0:
64,176,3094,6,0,L|144:96,1,80
448,176,3555,2,0,L|368:96,1,80
288,184,3902,1,0,0:0:0:0:
208,120,4017,1,0,0:0:0:0:
368,104,4132,1,0,0:0:0:0:
304,40,4248,1,0,0:0:0:0:
376,288,4363,1,0,0:0:0:0:
432,232,4479,1,0,0:0:0:0:
488,176,4594,1,0,0:0:0:0:
376,168,4709,1,0,0:0:0:0:
296,112,4825,1,0,0:0:0:0:
376,48,4940,1,0,0:0:0:0:
280,40,5055,1,0,0:0:0:0:
192,40,5171,1,0,0:0:0:0:
128,120,5286,1,0,0:0:0:0:
232,176,5402,1,0,0:0:0:0:
136,120,5517,1,0,0:0:0:0:
440,224,5632,6,0,L|368:136,1,80
192,192,5979,1,0,0:0:0:0:
256,128,6094,1,0,0:0:0:0:
104,152,6209,1,0,0:0:0:0:
56,64,6325,1,0,0:0:0:0:
168,48,6440,1,0,0:0:0:0:
64,64,6555,1,0,0:0:0:0:
328,144,6671,1,0,0:0:0:0:
232,56,6786,2,0,L|120:56,1,80
488,208,7248,2,0,L|408:208,1,80
272,216,7594,5,0,0:0:0:0:
336,144,7709,1,0,0:0:0:0:
240,216,7825,1,0,0:0:0:0:
176,144,7940,1,0,0:0:0:0:
272,216,8055,1,0,0:0:0:0:
336,144,8170,1,0,0:0:0:0:
256,72,8286,1,0,0:0:0:0:
200,128,8402,1,0,0:0:0:0:
144,192,8517,1,0,0:0:0:0:
88,264,8632,1,0,0:0:0:0:
200,272,8748,1,0,0:0:0:0:
88,272,8863,1,0,0:0:0:0:
152,200,8979,1,0,0:0:0:0:
392,224,9094,5,0,0:0:0:0:
192,216,9325,2,0,L|96:152,1,80
360,88,9786,1,0,0:0:0:0:
104,112,10017,2,0,L|208:56,1,80
384,112,10479,2,0,L|456:72,1,80
24,280,10940,2,0,L|120:232,1,80
336,256,11402,2,0,L|240:208,1,80
40,264,11863,2,0,L|136:216,1,80
248,192,12325,1,0,0:0:0:0:
248,192,12555,1,0,0:0:0:0:
456,208,13017,6,0,L|376:152,1,80
144,192,13479,2,0,L|224:128,2,80
400,217,14171,2,0,L|464:168,1,80
111,217,14632,2,0,L|48:168,1,80
384,176,15094,1,0,0:0:0:0:
192,96,15325,1,0,0:0:0:0:
272,200,15555,2,0,L|352:128,2,80
272,200,16132,1,0,0:0:0:0:
136,200,16363,1,0,0:0:0:0:
136,200,16479,1,0,0:0:0:0:
96,208,16709,6,0,L|176:136,1,80
384,168,17171,1,0,0:0:0:0:
240,112,17402,1,0,0:0:0:0:
432,80,17632,1,0,0:0:0:0:
64,192,17863,2,0,L|152:120,1,80
464,192,18325,2,0,L|384:128,1,80
232,160,18786,2,0,L|304:104,1,80
176,152,19248,2,0,L|88:96,1,80
112,112,19825,1,0,0:0:0:0:
112,112,20171,1,0,0:0:0:0:
208,224,20402,5,0,0:0:0:0:
464,120,20632,1,0,0:0:0:0:
376,72,20863,2,0,L|264:56,2,80
304,224,21786,5,0,0:0:0:0:
80,120,22016,1,0,0:0:0:0:
168,64,22247,2,0,L|280:48,2,80
168,72,22940,1,0,0:0:0:0:
336,112,23171,1,0,0:0:0:0:
160,128,23402,1,0,0:0:0:0:
288,120,23632,1,0,0:0:0:0:
232,80,23748,1,0,0:0:0:0:
176,40,23863,1,0,0:0:0:0:
384,208,24094,6,0,L|320:152,1,80
152,160,24555,1,0,0:0:0:0:
272,112,24786,2,0,L|360:72,1,80
136,192,25248,2,0,L|64:136,1,80
376,192,25709,2,0,L|448:136,1,80
232,168,26171,5,0,0:0:0:0:
304,128,26402,1,0,0:0:0:0:
112,152,26632,2,0,L|184:72,1,80
344,168,27094,1,0,0:0:0:0:
256,104,27325,1,0,0:0:0:0:
400,96,27555,1,0,0:0:0:0:
104,160,27786,6,0,L|184:96,1,80
336,160,28248,1,0,0:0:0:0:
248,176,28479,1,0,0:0:0:0:
328,176,28709,1,0,0:0:0:0:
128,184,28940,2,0,L|216:112,1,80
440,160,29402,2,0,L|352:96,1,80
160,160,29863,1,0,0:0:0:0:
80,104,30094,1,0,0:0:0:0:
288,216,30325,2,0,B|384:152|376:160,2,80
152,184,31017,1,0,0:0:0:0:
296,136,31248,5,0,0:0:0:0:
168,144,31479,2,0,L|80:96,1,80
368,152,31940,1,0,0:0:0:0:
288,96,32171,1,0,0:0:0:0:
440,64,32402,1,0,0:0:0:0:
216,152,32632,2,0,L|272:96,1,80
88,312,33094,2,0,L|16:248,1,80
360,312,33555,2,0,L|432:248,1,80
88,312,34017,2,0,L|16:248,1,80
456,208,34479,1,0,0:0:0:0:
336,168,34709,1,0,0:0:0:0:
456,208,34940,1,0,0:0:0:0:
72,192,35171,5,0,0:0:0:0:
328,88,35401,1,0,0:0:0:0:
240,40,35632,2,0,L|128:24,2,80
440,192,36555,5,0,0:0:0:0:
184,88,36785,1,0,0:0:0:0:
272,40,37016,2,0,L|384:24,2,80
120,168,37709,5,0,0:0:0:0:
256,160,37940,1,0,0:0:0:0:
248,168,38171,2,0,L|160:104,1,80
392,176,38632,1,0,0:0:0:0:
168,232,38863,6,0,L|216:168,1,60.0000022888184
328,232,39325,2,0,L|280:168,1,60.0000022888184
96,240,39786,2,0,L|144:176,1,60.0000022888184
432,240,40248,2,0,L|384:176,1,60.0000022888184
40,232,40709,2,0,L|88:168,1,60.0000022888184
472,232,41171,2,0,L|424:168,1,60.0000022888184
40,152,41632,2,0,L|88:216,1,60.0000022888184
472,152,42094,2,0,L|424:216,1,60.0000022888184
168,192,42555,5,0,0:0:0:0:
272,120,42786,1,0,0:0:0:0:
96,104,43017,1,0,0:0:0:0:
312,160,43248,1,0,0:0:0:0:
224,96,43479,1,0,0:0:0:0:
272,64,43709,1,0,0:0:0:0:
72,136,43940,2,0,L|120:80,1,60.0000022888184
280,176,44402,5,0,0:0:0:0:
184,104,44632,1,0,0:0:0:0:
360,128,44863,1,0,0:0:0:0:
272,96,45094,1,0,0:0:0:0:
360,128,45325,1,0,0:0:0:0:
160,144,45555,1,0,0:0:0:0:
384,176,45786,5,0,0:0:0:0:
360,160,45902,1,0,0:0:0:0:
336,144,46017,1,0,0:0:0:0:
312,128,46132,1,0,0:0:0:0:
168,232,46248,6,0,L|216:168,1,60.0000022888184
328,232,46710,2,0,L|280:168,1,60.0000022888184
96,240,47171,2,0,L|144:176,1,60.0000022888184
432,240,47633,2,0,L|384:176,1,60.0000022888184
40,232,48094,2,0,L|88:168,1,60.0000022888184
472,232,48556,2,0,L|424:168,1,60.0000022888184
40,152,49017,2,0,L|88:216,1,60.0000022888184
472,152,49479,2,0,L|424:216,1,60.0000022888184
208,208,49940,5,0,0:0:0:0:
96,168,50171,1,0,0:0:0:0:
256,152,50402,2,0,L|320:112,1,60.0000022888184
120,136,50863,1,0,0:0:0:0:
224,136,51094,2,0,L|304:136,2,60.0000022888184
112,200,53632,6,0,L|40:152,1,80
288,184,54094,1,0,0:0:0:0:
128,136,54325,1,0,0:0:0:0:
400,184,54555,2,0,L|312:120,1,80
168,176,55017,1,0,0:0:0:0:
272,176,55248,1,0,0:0:0:0:
48,208,55479,2,0,L|128:144,1,80
408,184,55940,5,0,0:0:0:0:
336,144,56171,1,0,0:0:0:0:
488,112,56402,1,0,0:0:0:0:
224,160,56632,1,0,0:0:0:0:
352,88,56863,1,0,0:0:0:0:
136,160,57094,1,0,0:0:0:0:
80,128,57209,1,0,0:0:0:0:
240,88,57325,2,0,L|168:48,1,80
328,184,57786,5,0,0:0:0:0:
176,128,58017,1,0,0:0:0:0:
448,168,58248,1,0,0:0:0:0:
256,168,58479,1,0,0:0:0:0:
168,128,58709,1,0,0:0:0:0:
376,128,58940,1,0,0:0:0:0:
80,144,59171,2,0,L|176:80,1,80
392,304,59632,5,0,0:0:0:0:
256,160,59863,1,0,0:0:0:0:
416,160,60094,2,0,L|480:112,1,80
160,160,60555,1,0,0:0:0:0:
320,120,60786,1,0,0:0:0:0:
272,88,60902,1,0,0:0:0:0:
216,56,61017,1,0,0:0:0:0:
88,200,61479,5,0,0:0:0:0:
176,136,61709,1,0,0:0:0:0:
32,128,61940,1,0,0:0:0:0:
272,96,62171,1,0,0:0:0:0:
136,112,62402,1,0,0:0:0:0:
80,48,62632,1,0,0:0:0:0:
392,128,62863,2,0,L|312:80,1,80
176,200,63325,5,0,0:0:0:0:
72,144,63555,1,0,0:0:0:0:
160,56,63786,1,0,0:0:0:0:
264,208,64017,1,0,0:0:0:0:
376,144,64248,1,0,0:0:0:0:
200,128,64479,1,0,0:0:0:0:
240,88,64594,1,0,0:0:0:0:
80,56,64709,2,0,L|168:40,1,80
224,232,65171,5,0,0:0:0:0:
104,176,65402,1,0,0:0:0:0:
280,160,65632,1,0,0:0:0:0:
136,136,65863,1,0,0:0:0:0:
232,40,66094,1,0,0:0:0:0:
320,120,66325,1,0,0:0:0:0:
56,136,66555,2,0,L|136:72,1,80
408,160,67017,5,0,0:0:0:0:
368,120,67132,1,0,0:0:0:0:
104,160,67364,1,0,0:0:0:0:
144,120,67479,1,0,0:0:0:0:
304,184,67709,1,0,0:0:0:0:
344,144,67825,1,0,0:0:0:0:
384,96,67940,1,0,0:0:0:0:
336,88,68055,1,0,0:0:0:0:
280,80,68171,1,0,0:0:0:0:
224,72,68286,1,0,0:0:0:0:
440,72,68402,6,0,L|376:120,1,80
96,192,68863,1,0,0:0:0:0:
208,112,69094,1,0,0:0:0:0:
32,64,69325,1,0,0:0:0:0:
184,128,69555,1,0,0:0:0:0:
328,80,69786,1,0,0:0:0:0:
184,128,70017,1,0,0:0:0:0:
144,96,70132,1,0,0:0:0:0:
432,112,70248,2,0,L|360:64,1,80
144,192,70709,5,0,0:0:0:0:
280,152,70940,1,0,0:0:0:0:
120,128,71171,1,0,0:0:0:0:
64,64,71402,1,0,0:0:0:0:
152,32,71517,1,0,0:0:0:0:
240,24,71632,1,0,0:0:0:0:
488,176,71863,1,0,0:0:0:0:
416,120,71979,1,0,0:0:0:0:
216,136,72094,2,0,L|296:80,1,80
144,224,72555,5,0,0:0:0:0:
32,168,72786,1,0,0:0:0:0:
232,160,73017,1,0,0:0:0:0:
336,104,73248,1,0,0:0:0:0:
272,72,73363,1,0,0:0:0:0:
336,24,73479,1,0,0:0:0:0:
480,176,73709,1,0,0:0:0:0:
416,144,73825,1,0,0:0:0:0:
152,176,73940,6,0,L|216:120,1,80
440,192,74402,1,0,0:0:0:0:
336,136,74632,1,0,0:0:0:0:
480,104,74863,1,0,0:0:0:0:
192,152,75094,1,0,0:0:0:0:
272,88,75325,1,0,0:0:0:0:
464,184,75555,1,0,0:0:0:0:
400,144,75671,1,0,0:0:0:0:
344,96,75786,1,0,0:0:0:0:
160,176,76248,5,0,0:0:0:0:
88,128,76479,1,0,0:0:0:0:
288,120,76709,1,0,0:0:0:0:
128,80,76940,1,0,0:0:0:0:
304,40,77171,1,0,0:0:0:0:
408,176,77402,1,0,0:0:0:0:
456,128,77517,1,0,0:0:0:0:
128,176,77632,2,0,L|184:112,1,80
392,184,78094,5,0,0:0:0:0:
280,128,78325,1,0,0:0:0:0:
392,80,78555,1,0,0:0:0:0:
144,184,78786,1,0,0:0:0:0:
72,128,78902,1,0,0:0:0:0:
224,96,79017,1,0,0:0:0:0:
456,184,79248,1,0,0:0:0:0:
392,136,79363,1,0,0:0:0:0:
152,184,79479,2,0,L|96:128,1,80
408,200,79940,5,0,0:0:0:0:
256,144,80171,1,0,0:0:0:0:
320,96,80402,1,0,0:0:0:0:
128,200,80632,2,0,L|208:128,1,80
448,184,81094,1,0,0:0:0:0:
384,136,81209,1,0,0:0:0:0:
136,192,81325,2,0,L|208:136,1,80
400,208,81786,5,0,0:0:0:0:
344,160,81902,1,0,0:0:0:0:
288,112,82017,1,0,0:0:0:0:
120,184,82132,1,0,0:0:0:0:
160,136,82248,1,0,0:0:0:0:
368,200,82479,1,0,0:0:0:0:
80,184,82709,5,0,0:0:0:0:
128,136,82825,1,0,0:0:0:0:
176,88,82940,1,0,0:0:0:0:
112,56,83055,1,0,0:0:0:0:
51,22,83171,1,0,0:0:0:0:
368,184,83402,5,0,0:0:0:0:
248,144,83632,2,0,L|336:88,1,80
96,144,84094,1,0,0:0:0:0:
184,64,84325,1,0,0:0:0:0:
88,56,84555,1,0,0:0:0:0:
400,192,84786,1,0,0:0:0:0:
344,144,84902,1,0,0:0:0:0:
288,96,85017,1,0,0:0:0:0:
344,48,85132,1,0,0:0:0:0:
112,192,85478,5,0,0:0:0:0:
168,144,85594,1,0,0:0:0:0:
432,208,85940,2,0,L|288:120,1,160
80,152,86517,1,0,0:0:0:0:
120,112,86632,1,0,0:0:0:0:
168,72,86748,1,0,0:0:0:0:
168,16,86863,2,0,L|456:248,1,360.000013732911
