osu file format v14

[General]
AudioFilename: audio.mp3
AudioLeadIn: 0
PreviewTime: 61283
Countdown: 0
SampleSet: Soft
StackLeniency: 0.4
Mode: 0
LetterboxInBreaks: 0
WidescreenStoryboard: 1

[Editor]
Bookmarks: 172523
DistanceSpacing: 1.3
BeatDivisor: 4
GridSize: 32
TimelineZoom: 2.000002

[Metadata]
Title:Sounan
TitleUnicode:遭難
Artist:Tokyo Jihen
ArtistUnicode:東京事変
Creator:Uberzolik
Version:Insane
Source:
Tags:椎名林檎 incidents sheena shiina ringo loneight l1106188 syameimaru-aya axaptice AIR
BeatmapID:2116103
BeatmapSetID:967321

[Difficulty]
HPDrainRate:6
CircleSize:4
OverallDifficulty:8
ApproachRate:9
SliderMultiplier:2.2
SliderTickRate:1

[Events]
//Background and Video events
0,0,"p70132032.jpg",0,0
//Break Periods
//Storyboard Layer 0 (Background)
//Storyboard Layer 1 (Fail)
//Storyboard Layer 2 (Pass)
//Storyboard Layer 3 (Foreground)
//Storyboard Layer 4 (Overlay)
//Storyboard Sound Samples

[TimingPoints]
424,377.358490566038,4,2,1,80,1,0
1178,389.61038961039,4,2,1,80,1,0
2736,384.615384615385,4,2,1,80,1,0
5819,387.096774193548,4,2,1,70,1,0
5819,-125,4,2,1,70,0,0
6578,-100,4,2,1,100,0,0
6593,375,4,2,1,100,1,0
7343,384.615384615385,4,2,1,100,1,0
8112,379.746835443038,4,2,1,100,1,0
10390,389.61038961039,4,2,1,100,1,0
11169,384.615384615385,4,2,1,100,1,0
12707,394.736842105263,4,2,1,100,1,0
13496,375,4,2,1,100,1,0
14246,384.615384615385,4,2,1,100,1,0
16553,379.746835443038,4,2,1,100,1,0
17312,379.746835443038,4,2,1,100,1,0
18071,389.61038961039,4,2,1,100,1,0
18850,389.61038961039,4,2,1,100,1,0
19239,-125,4,2,2,70,0,0
20408,384.615384615385,4,2,2,70,1,0
20408,-125,4,2,2,70,0,0
21946,382.165605095541,4,2,2,70,1,0
21946,-125,4,2,2,70,0,0
23474,389.61038961039,4,2,2,70,1,0
23474,-125,4,2,2,70,0,0
24642,370.37037037037,4,2,2,70,1,0
25012,387.096774193548,4,2,2,70,1,0
25012,-125,4,2,2,70,0,0
26560,382.165605095541,4,2,2,70,1,0
26560,-125,4,2,2,70,0,0
28088,392.156862745098,4,2,2,70,1,0
28088,-125,4,2,2,70,0,0
28872,372.670807453416,4,2,2,70,1,0
29617,402.684563758389,4,2,2,70,1,0
30019,-100,4,2,1,100,0,0
30422,373.831775700935,4,2,2,100,1,0
30795,392.156862745098,4,2,2,100,1,0
31187,397.350993377483,4,2,2,80,1,0
31187,-111.111111111111,4,2,2,80,0,0
31584,372.670807453416,4,2,2,80,1,0
31584,-111.111111111111,4,2,2,80,0,0
32329,394.736842105263,4,2,2,80,1,0
32329,-111.111111111111,4,2,2,80,0,0
32723,387.096774193548,4,2,2,80,1,0
32723,-111.111111111111,4,2,2,80,0,0
33497,377.358490566038,4,2,2,80,1,0
33591,-111.111111111111,4,2,2,80,0,0
34251,384.615384615385,4,2,2,80,1,0
34251,-111.111111111111,4,2,2,80,0,0
35789,392.156862745098,4,2,2,80,1,0
35789,-111.111111111111,4,2,2,80,0,0
36377,-109.89010989011,4,2,2,80,0,0
36573,382.165605095541,4,2,2,80,1,0
36764,-125,4,2,1,80,0,0
36955,-111.111111111111,4,2,2,80,0,0
37337,382.165605095541,4,2,2,80,1,0
37337,-111.111111111111,4,2,2,80,0,0
38865,408.163265306122,4,2,2,80,1,0
38865,-111.111111111111,4,2,2,80,0,0
39273,368.098159509202,4,2,2,80,1,0
39457,-111.111111111111,4,2,2,80,0,0
39643,377.358490566038,4,2,2,80,1,0
40020,-111.111111111111,4,2,2,80,0,0
40397,389.61038961039,4,2,2,80,1,0
40591,-111.111111111111,4,2,1,80,0,0
40786,-111.111111111111,4,2,2,80,0,0
41955,382.165605095541,4,2,2,80,1,0
43101,412.371134020619,4,2,2,80,1,0
43513,379.746835443038,4,2,2,100,1,0
43513,-125,4,2,2,100,0,0
43892,-125,4,2,2,80,0,0
44272,375,4,2,2,80,1,0
44272,-111.111111111111,4,2,2,80,0,0
45022,379.746835443038,4,2,2,100,1,0
45781,389.61038961039,4,2,2,85,1,0
45781,-111.111111111111,4,2,2,85,0,0
45878,-111.111111111111,4,2,2,85,0,0
46073,-111.111111111111,4,2,1,85,0,0
46560,379.746835443038,4,2,2,100,1,0
46560,-111.111111111111,4,2,2,100,0,0
46939,-111.111111111111,4,2,2,80,0,0
48078,400,4,2,2,100,1,0
48273,-111.111111111111,4,2,1,100,0,0
48878,384.615384615385,4,2,2,80,1,0
49070,-111.111111111111,4,2,2,70,0,0
49647,384.615384615385,4,2,2,100,1,1
49647,-90.9090909090909,4,2,2,100,0,1
56570,-90.9090909090909,4,2,1,100,0,1
56762,-90.9090909090909,4,2,2,100,0,1
60208,-66.6666666666667,4,2,2,100,0,1
61938,-90.9090909090909,4,2,2,100,0,1
71185,372.670807453416,4,2,2,100,1,1
71557,-90.9090909090909,4,2,2,100,0,1
71930,389.61038961039,4,2,2,100,1,1
72709,389.61038961039,4,2,2,100,1,1
72900,-90.9090909090909,4,2,2,100,0,1
73293,-66.6666666666667,4,2,2,100,0,1
73877,381.558028616852,4,2,2,100,1,1
74258,384.615384615385,4,2,2,100,1,0
74258,-66.6666666666667,4,2,2,100,0,0
74642,-100,4,2,1,100,0,0
78873,379.746835443038,4,2,1,100,1,0
79634,-100,4,2,2,100,0,0
80012,389.61038961039,4,2,2,100,1,0
80401,389.61038961039,4,2,2,100,1,0
81375,-100,4,2,1,80,0,0
81569,-100,4,2,2,80,0,0
81959,384.615384615385,4,2,2,80,1,0
82920,-100,4,2,1,80,0,0
83112,-100,4,2,2,80,0,0
84459,-100,4,2,1,80,0,0
84651,-100,4,2,2,80,0,0
85997,-100,4,2,1,80,0,0
86189,-100,4,2,2,90,0,0
87535,-100,4,2,1,90,0,0
87728,-100,4,2,2,90,0,0
89074,-100,4,2,1,90,0,0
89266,-100,4,2,2,90,0,0
90420,-100,4,2,2,100,0,0
91574,-90.9090909090909,4,2,1,90,0,0
91862,-90.9090909090909,4,2,1,80,0,0
92728,-90.9090909090909,4,2,2,100,0,0
93401,-90.9090909090909,4,2,2,100,0,0
93880,363.636363636364,4,2,2,100,1,0
93880,-90.9090909090909,4,2,2,100,0,0
94243,384.615384615385,4,2,2,100,1,0
94243,-90.9090909090909,4,2,2,100,0,0
94916,-90.9090909090909,4,2,2,80,0,0
95781,-90.9090909090909,4,2,2,100,0,0
96550,-90.9090909090909,4,2,1,100,0,0
96646,-90.9090909090909,4,2,2,100,0,0
97319,389.61038961039,4,2,2,100,1,0
98098,-90.9090909090909,4,2,2,100,0,0
98877,382.165605095541,4,2,2,100,1,1
98877,-86.9565217391304,4,2,2,100,0,1
101934,384.615384615385,4,2,2,100,1,1
101934,-86.9565217391304,4,2,2,100,0,1
103472,389.61038961039,4,2,1,100,1,1
103472,-86.9565217391304,4,2,1,100,0,1
103666,-86.9565217391304,4,2,2,100,0,1
105030,379.746835443038,4,2,2,100,1,1
105030,-86.9565217391304,4,2,2,100,0,1
105789,-86.9565217391304,4,2,1,100,0,1
105979,-86.9565217391304,4,2,2,100,0,1
106359,384.615384615385,4,2,2,100,1,1
106359,-86.9565217391304,4,2,2,100,0,1
106935,383.754397185801,4,2,2,100,1,1
106935,-86.9565217391304,4,2,2,100,0,1
107894,-86.9565217391304,4,2,1,100,0,1
107990,-86.9565217391304,4,2,2,100,0,1
108086,384.615384615385,4,2,2,100,1,1
108281,-86.9565217391304,4,2,2,80,0,1
109240,-86.9565217391304,4,2,2,100,0,1
109432,-66.6666666666667,4,2,2,100,0,1
111163,-86.9565217391304,4,2,2,100,0,1
112701,-86.9565217391304,4,2,1,100,0,1
112894,-86.9565217391304,4,2,2,100,0,1
114048,-86.9565217391304,4,2,1,100,0,1
114144,-86.9565217391304,4,2,2,100,0,1
115778,389.61038961039,4,2,1,100,1,1
115778,-86.9565217391304,4,2,1,100,0,1
115973,-86.9565217391304,4,2,2,100,0,1
116557,-86.9565217391304,4,2,2,100,0,1
117336,384.615384615385,4,2,2,100,1,1
117336,-86.9565217391304,4,2,2,100,0,1
117720,-86.9565217391304,4,2,2,100,0,1
118105,375,4,2,1,100,1,1
118105,-86.9565217391304,4,2,1,100,0,1
118292,-86.9565217391304,4,2,2,100,0,1
118667,384.615384615385,4,2,2,100,1,1
118667,-86.9565217391304,4,2,2,100,0,1
119243,383.386581469649,4,2,2,100,1,1
120009,-86.9565217391304,4,2,2,100,0,1
120393,384.615384615385,4,2,2,100,1,1
121162,393.44262295082,4,2,2,100,1,1
121752,375,4,2,2,100,1,1
121752,-86.9565217391304,4,2,2,100,0,1
122127,392.156862745098,4,2,2,100,1,1
122127,-86.9565217391304,4,2,2,100,0,1
122519,400,4,2,2,100,1,1
122519,-86.9565217391304,4,2,2,100,0,1
122919,387.096774193548,4,2,2,100,1,1
123499,379.746835443038,4,2,2,100,1,1
123688,-86.9565217391304,4,2,2,100,0,1
125017,387.096774193548,4,2,2,100,1,1
126178,379.746835443038,4,2,2,100,1,1
126367,-86.9565217391304,4,2,2,100,0,0
126557,375,4,2,2,100,1,0
126932,405.405405405405,4,2,2,100,1,0
128148,379.746835443038,4,2,1,100,1,0
128907,359.281437125748,4,2,2,100,1,1
128907,-86.9565217391304,4,2,2,100,0,1
129625,384.615384615385,4,2,2,100,1,1
129625,-86.9565217391304,4,2,2,100,0,1
130971,389.61038961039,4,2,2,100,1,1
131555,397.350993377483,4,2,2,100,1,1
131952,379.746835443038,4,2,2,100,1,1
132331,-86.9565217391304,4,2,2,100,0,1
132711,379.746835443038,4,2,2,100,1,1
132711,-86.9565217391304,4,2,2,100,0,1
133186,-86.9565217391304,4,2,2,60,0,1
133282,-86.9565217391304,4,2,2,70,0,1
133470,394.736842105263,4,2,2,50,1,1
133470,-86.9565217391304,4,2,2,50,0,1
133568,-86.9565217391304,4,2,2,60,0,1
133667,-86.9565217391304,4,2,2,70,0,1
133766,-86.9565217391304,4,2,2,80,0,1
133864,-86.9565217391304,4,2,2,90,0,1
134062,-86.9565217391304,4,2,2,90,0,1
134259,375,4,2,2,90,1,1
135009,392.156862745098,4,2,2,90,1,1
135401,-86.9565217391304,4,2,2,100,0,1
135793,382.165605095541,4,2,2,100,1,1
135793,-86.9565217391304,4,2,2,100,0,1
137321,-86.9565217391304,4,2,1,100,0,1
137512,-86.9565217391304,4,2,2,100,0,1
138659,-86.9565217391304,4,2,1,100,0,1
138754,-86.9565217391304,4,2,2,100,0,1
138850,394.736842105263,4,2,2,100,1,1
139244,-86.9565217391304,4,2,2,100,0,1
139639,375,4,2,2,100,1,1
139639,-86.9565217391304,4,2,2,100,0,1
140201,382.165605095541,4,2,2,100,1,1
140389,-86.9565217391304,4,2,1,100,0,1
140486,-86.9565217391304,4,2,2,100,0,1
140774,391.134289439374,4,2,2,100,1,1
140774,-86.9565217391304,4,2,2,100,0,1
141067,-86.9565217391304,4,2,2,100,0,1
141947,389.61038961039,4,2,2,100,1,1
141947,-86.9565217391304,4,2,2,100,0,1
142726,384.615384615385,4,2,2,100,1,1
142918,-86.9565217391304,4,2,2,100,0,1
143495,384.615384615385,4,2,2,100,1,1
144071,-86.9565217391304,4,2,2,100,0,1
146379,-66.6666666666667,4,2,2,100,0,0
146764,413.793103448276,4,2,2,100,1,0
147488,359.281437125748,4,2,1,100,1,0
147488,-90.9090909090909,4,2,1,100,0,0
147757,422.535211267606,4,2,2,100,1,0
147757,-90.9090909090909,4,2,2,100,0,0
147968,350.877192982456,4,2,2,100,1,0
147968,-90.9090909090909,4,2,2,100,0,0
148143,363.636363636364,4,2,2,100,1,0
148143,-76.9230769230769,4,2,2,100,0,0
148506,377.358490566038,4,2,2,100,1,0
148506,-76.9230769230769,4,2,2,100,0,0
148883,377.358490566038,4,2,2,100,1,0
149637,384.615384615385,4,2,1,100,1,0
149637,-76.9230769230769,4,2,1,100,0,0
149828,-76.9230769230769,4,2,2,100,0,0
151175,379.746835443038,4,2,2,100,1,0
152693,392.156862745098,4,2,2,100,1,0
152693,-76.9230769230769,4,2,2,100,0,0
154261,384.615384615385,4,2,2,100,1,0
154837,-76.9230769230769,4,2,2,100,0,0
155799,379.746835443038,4,2,2,100,1,0
155799,-76.9230769230769,4,2,2,100,0,0
157128,-77.5193798449612,4,2,2,100,0,0
157317,392.156862745098,4,2,2,100,1,0
158493,-76.9230769230769,4,2,2,100,0,0
158885,384.615384615385,4,2,2,100,1,0
159077,-76.9230769230769,4,2,2,100,0,0
159654,375,4,2,2,100,1,0
160404,394.736842105263,4,2,2,100,1,0
160798,-76.9230769230769,4,2,2,100,0,0
161193,379.746835443038,4,2,2,100,1,0
161193,-76.9230769230769,4,2,2,100,0,0
161952,375,4,2,2,100,1,0
161952,-76.9230769230769,4,2,2,100,0,0
162702,387.096774193548,4,2,2,100,1,0
163089,-76.9230769230769,4,2,2,100,0,0
163476,387.096774193548,4,2,2,100,1,0
163476,-76.9230769230769,4,2,2,100,0,0
165024,379.746835443038,4,2,2,100,1,0
165024,-76.9230769230769,4,2,2,100,0,0
165403,400,4,2,2,100,1,0
165803,375,4,2,2,100,1,0
166178,-76.9230769230769,4,2,2,100,0,0
166553,392.156862745098,4,2,2,100,1,0
166553,-76.9230769230769,4,2,2,100,0,0
167337,382.165605095541,4,2,2,100,1,0
167719,-76.9230769230769,4,2,2,100,0,0
168101,375,4,2,2,100,1,0
168101,-76.9230769230769,4,2,2,100,0,0
168851,382.165605095541,4,2,2,100,1,0
169137,-76.9230769230769,4,2,2,100,0,0
169615,392.156862745098,4,2,2,100,1,0
169615,-76.9230769230769,4,2,2,100,0,0
170399,372.670807453416,4,2,2,100,1,0
170774,379.746835443038,4,2,2,100,1,0
170963,-76.9230769230769,4,2,2,100,0,0
171158,379.746835443038,4,2,2,100,1,0
171917,389.61038961039,4,2,2,100,1,0
172696,392.156862745098,4,2,2,100,1,0
172892,-76.9230769230769,4,2,2,100,0,0
174264,384.615384615385,4,2,2,100,1,0
174456,-76.9230769230769,4,2,2,100,0,0
176379,-71.4285714285714,4,2,2,100,0,0
178879,377.358490566038,4,2,2,100,1,0
178879,-71.4285714285714,4,2,2,100,0,0
179256,-76.9230769230769,4,2,2,100,0,0
180199,-77.2200772200772,4,2,2,100,0,0
180388,384.615384615385,4,2,2,100,1,0
180580,-76.9230769230769,4,2,2,100,0,0
181926,394.736842105263,4,2,2,100,1,0
182715,-76.9230769230769,4,2,2,100,0,0
183110,372.670807453416,4,2,2,100,1,0
183482,384.615384615385,4,2,2,100,1,0
184058,-76.9230769230769,4,2,2,100,0,0
186558,379.746835443038,4,2,2,100,1,0
186937,-76.9230769230769,4,2,2,100,0,0
187317,-76.9230769230769,4,2,2,90,0,0
187598,-78.7401574803149,4,2,2,80,0,0
187697,394.736842105263,4,2,2,80,1,0
187894,-76.3358778625954,4,2,2,70,0,0
188091,382.165605095541,4,2,2,70,1,0
188282,-76.9230769230769,4,2,2,65,0,0
188855,-80,4,2,2,60,0,0
189237,392.156862745098,4,2,2,60,1,0
189433,-80,4,2,2,60,0,0
189629,394.736842105263,4,2,2,60,1,0
190418,-80,4,2,2,60,0,0
191207,382.165605095541,4,2,2,50,1,0
191207,-83.3333333333333,4,2,2,50,0,0
192353,-83.3333333333333,4,2,2,40,0,0
192544,-90.0900900900901,4,2,2,35,0,0
192735,375,4,2,2,35,1,0
192922,-90.9090909090909,4,2,2,35,0,0
193203,-100,4,2,2,35,0,0
193860,-111.111111111111,4,2,2,30,0,0
194235,389.61038961039,4,2,2,25,1,0
194235,-111.111111111111,4,2,2,25,0,0
195014,-111.111111111111,4,2,2,20,0,0
195403,384.615384615385,4,2,2,20,1,0
195595,-111.111111111111,4,2,2,20,0,0
195787,384.615384615385,4,2,2,20,1,0
195979,-111.111111111111,4,2,2,20,0,0
196748,-111.111111111111,4,2,2,15,0,0
197325,-125,4,2,2,10,0,0
198093,-142.857142857143,4,2,2,5,0,0

[Colours]
Combo1 : 255,192,255
Combo2 : 192,255,255
Combo3 : 192,255,192

[HitObjects]
174,118,5428,6,0,L|153:-6,1,110,10|0,0:0|0:0,0:0:0:0:
257,193,5819,1,2,2:3:0:0:
265,224,5915,1,2,2:3:0:0:
305,279,6012,1,2,2:3:0:0:
313,248,6109,1,2,2:3:0:0:
358,232,6206,1,2,2:3:0:0:
366,263,6302,1,2,2:3:0:0:
406,318,6399,1,2,2:3:0:0:
414,287,6496,1,2,2:3:0:0:
454,261,6593,6,0,L|475:396,1,110,12|0,1:2|0:0,3:0:0:0:
496,129,6968,2,0,L|513:17,1,110,10|0,0:2|0:0,3:0:0:0:
301,233,7343,1,8,0:0:0:0:
305,248,7391,1,0,0:0:0:0:
331,133,7535,1,0,1:0:0:0:
260,365,7727,2,0,P|212:360|140:402,1,110,8|0,1:2|0:0,0:0:0:0:
0,258,8112,6,0,P|86:289|194:225,1,220,8|8,1:2|0:0,0:0:0:0:
0,309,8681,2,0,P|28:248|90:336,1,220,4|0,0:0|1:0,0:0:0:0:
235,140,9251,1,10,0:0:0:0:
146,102,9441,2,0,L|132:189,1,55,0|0,1:2|0:0,0:0:0:0:
50,108,9630,6,0,L|29:-32,1,110,14|0,0:0|0:0,0:0:0:0:
209,276,10010,2,0,L|192:384,1,110,8|0,0:0|0:0,0:0:0:0:
70,206,10390,1,10,0:0:0:0:
67,189,10438,1,0,0:0:0:0:
133,292,10584,1,0,1:2:0:0:
169,108,10779,2,0,L|190:-9,1,110,10|0,0:0|1:0,0:0:0:0:
267,270,11169,5,12,0:0:0:0:
358,349,11361,1,0,0:0:0:0:
479,352,11553,1,10,0:0:0:0:
362,320,11745,1,0,1:2:0:0:
247,359,11938,1,10,2:3:0:0:
198,332,12034,1,2,2:3:0:0:
136,370,12130,1,2,2:3:0:0:
15,168,12322,2,0,L|39:260,1,55,10|2,2:3|2:3,2:3:0:0:
134,70,12515,1,2,2:3:0:0:
159,65,12611,1,0,2:3:0:0:
190,33,12707,6,0,L|174:114,1,55,14|0,1:2|0:0,0:0:0:0:
263,165,12904,2,0,L|255:110,1,55,2|0,0:0|0:0,0:0:0:0:
349,0,13101,2,0,L|333:81,1,55,10|0,0:0|0:0,0:0:0:0:
416,206,13299,2,0,L|408:151,1,55,2|0,0:0|0:0,0:0:0:0:
480,1,13496,5,10,0:0:0:0:
510,83,13683,1,0,1:2:0:0:
428,114,13871,1,10,0:2:0:0:
397,31,14058,1,0,1:2:0:0:
457,383,14246,6,0,P|390:324|261:370,1,220,8|8,1:2|0:0,0:0:0:0:
508,331,14822,2,0,P|462:335|439:273,1,110,4|8,1:2|0:0,0:0:0:0:
471,212,15207,1,0,1:2:0:0:
198,299,15399,2,0,P|147:265|79:293,1,110,10|0,0:0|1:0,0:0:0:0:
58,348,15784,5,14,1:2:0:0:
15,258,15976,1,2,0:0:0:0:
29,355,16169,1,10,0:0:0:0:
126,373,16361,1,2,1:2:0:0:
185,38,16553,5,8,0:0:0:0:
120,155,16742,1,0,1:2:0:0:
33,106,16932,2,0,L|6:-19,1,110,8|0,0:2|1:0,0:0:0:0:
388,277,17312,6,0,L|364:384,1,110,12|0,1:2|0:0,0:0:0:0:
458,354,17691,1,8,0:0:0:0:
295,310,17881,1,0,1:0:0:0:
423,130,18071,5,2,0:3:0:0:
423,130,18168,1,2,0:3:0:0:
423,130,18265,1,2,0:3:0:0:
93,65,18460,1,2,0:3:0:0:
93,65,18558,1,2,0:3:0:0:
93,65,18655,1,2,0:3:0:0:
256,0,18850,5,12,1:2:0:0:
256,0,19239,1,2,0:0:0:0:
256,0,19629,1,2,0:0:0:0:
340,24,19824,1,0,0:0:0:0:
217,93,20018,1,2,0:0:0:0:
124,220,20213,2,0,L|137:287,1,44
54,173,20408,2,0,L|83:-1,1,176,2|2,1:2|0:0,0:0:0:0:
256,384,21177,5,2,3:2:0:0:
163,348,21369,1,0,3:0:0:0:
256,384,21561,2,0,L|247:340,1,44,2|0,1:2|0:0,0:0:0:0:
410,287,21754,1,0,3:0:0:0:
423,319,21850,1,0,3:0:0:0:
469,344,21946,2,0,L|509:152,1,176,2|2,1:2|0:0,0:0:0:0:
256,0,22710,5,2,3:2:0:0:
339,28,22901,1,0,3:2:0:0:
245,157,23092,2,0,L|227:87,1,44,2|0,3:2|0:2,3:2:0:0:
333,186,23283,1,0,3:2:0:0:
177,218,23474,2,0,L|72:65,1,176,2|2,1:2|0:0,0:0:0:0:
202,384,24253,6,0,L|189:327,1,44,2|0,3:2|0:0,0:0:0:0:
302,343,24448,1,0,3:0:0:0:
407,378,24642,1,2,3:2:0:0:
463,295,24827,1,0,3:0:0:0:
21,169,25012,6,0,P|117:190|164:107,2,176,2|2|2,1:2|3:2|3:2,0:0:0:0:
266,96,25979,1,0,3:2:0:0:
256,192,26173,1,2,3:2:0:0:
238,94,26366,1,0,3:2:0:0:
491,215,26560,6,0,P|395:194|348:277,1,176,2|2,1:2|0:0,0:0:0:0:
369,384,27133,1,0,0:0:0:0:
423,308,27324,2,0,P|466:306|504:327,1,88,2|0,0:0|0:0,0:0:0:0:
258,358,27706,1,2,3:2:0:0:
105,384,27897,1,0,3:2:0:0:
23,332,28088,6,0,L|1:219,1,88,2|0,1:2|0:0,0:0:0:0:
251,24,28480,1,2,3:2:0:0:
291,81,28676,1,0,3:2:0:0:
242,170,28872,1,2,3:2:0:0:
272,245,29058,1,0,3:2:0:0:
206,377,29244,1,2,3:2:0:0:
174,280,29431,1,0,3:2:0:0:
331,170,29617,5,2,1:2:0:0:
120,0,30019,2,0,L|149:222,1,220,2|4,1:3|0:3,0:0:0:0:
224,189,30515,1,4,0:3:0:0:
238,147,30608,1,4,0:3:0:0:
191,88,30702,1,4,0:3:0:0:
198,131,30795,1,4,0:3:0:0:
371,384,31187,6,0,L|393:268,1,98.9999969787599,4|0,0:3|0:3,0:3:0:0:
286,298,31485,1,8,0:3:0:0:
286,298,31584,2,0,L|302:367,1,49.4999984893799,4|0,0:3|0:3,0:3:0:0:
232,384,31770,1,2,0:3:0:0:
66,270,31956,1,4,0:3:0:0:
58,250,32049,2,8,L|77:150,1,98.9999969787599,0|8,3:3|0:3,0:3:0:0:
175,65,32329,2,0,L|159:152,1,49.4999984893799,4|0,0:3|0:3,0:3:0:0:
153,192,32526,2,0,L|137:279,1,49.4999984893799,4|0,0:3|0:3,0:3:0:0:
39,169,32723,6,0,L|21:28,1,98.9999969787599,8|0,1:3|0:3,0:3:0:0:
7,253,33013,1,8,0:3:0:0:
0,274,33110,1,4,0:3:0:0:
236,357,33303,2,0,L|349:390,1,98.9999969787599,2|4,0:3|0:3,0:3:0:0:
419,357,33591,1,8,0:3:0:0:
435,343,33685,2,0,L|405:283,1,49.4999984893799,2|0,0:2|0:3,0:3:0:0:
256,248,33874,2,0,L|308:287,1,49.4999984893799,4|0,0:3|0:3,0:3:0:0:
497,279,34063,1,8,0:3:0:0:
352,48,34251,6,0,L|475:13,1,98.9999969787599,4|0,1:3|0:3,0:3:0:0:
311,125,34539,1,8,0:3:0:0:
306,143,34635,1,4,0:3:0:0:
158,223,34827,1,2,0:3:0:0:
36,97,35020,1,4,0:3:0:0:
36,97,35116,2,0,L|61:-27,1,98.9999969787599,8|0,0:3|0:3,0:3:0:0:
0,186,35404,2,0,L|16:263,1,49.4999984893799,4|0,0:3|0:3,0:3:0:0:
166,384,35597,2,0,L|172:313,1,49.4999984893799,4|0,0:3|0:3,0:3:0:0:
345,277,35789,6,0,P|395:272|461:323,1,98.9999969787599,4|0,1:3|0:3,0:3:0:0:
264,323,36083,1,8,0:3:0:0:
264,323,36181,2,0,P|253:293|246:248,1,49.4999984893799,4|0,0:3|0:3,0:3:0:0:
299,177,36377,2,0,P|341:116|303:-9,1,197.99999395752,2|2,0:3|0:2,0:3:0:0:
206,57,36955,2,0,P|232:81|270:91,1,49.4999984893799,4|0,0:3|0:3,0:3:0:0:
378,137,37146,2,0,P|411:126|439:98,1,49.4999984893799,4|0,0:3|0:3,0:3:0:0:
474,2,37337,6,0,L|451:137,1,98.9999969787599,4|0,1:3|0:3,0:3:0:0:
441,225,37623,1,8,0:3:0:0:
441,225,37719,1,4,0:3:0:0:
152,380,37910,1,2,0:3:0:0:
11,272,38101,1,4,0:3:0:0:
17,296,38196,1,8,0:3:0:0:
17,296,38483,6,0,L|14:231,1,49.4999984893799,4|0,0:3|0:3,0:3:0:0:
134,375,38674,2,0,L|115:325,1,49.4999984893799,4|0,0:3|0:3,0:3:0:0:
316,363,38865,2,0,L|202:286,1,98.9999969787599,4|0,0:3|0:3,0:3:0:0:
354,353,39171,1,8,0:3:0:0:
367,383,39273,1,4,0:3:0:0:
497,380,39457,2,0,L|516:321,1,49.4999984893799,2|0,0:3|0:3,0:3:0:0:
437,212,39641,1,4,0:3:0:0:
442,241,39737,1,8,0:3:0:0:
447,270,39831,1,0,3:0:0:0:
344,162,40020,2,0,L|354:76,1,49.4999984893799,4|0,0:3|0:3,0:3:0:0:
257,70,40209,2,0,L|262:119,1,49.4999984893799,4|0,0:3|0:3,0:3:0:0:
180,169,40397,5,4,0:3:0:0:
101,164,40591,1,2,3:2:0:0:
54,99,40786,1,8,0:3:0:0:
453,18,40981,1,2,0:3:0:0:
354,9,41176,1,8,0:3:0:0:
298,90,41371,1,8,0:3:0:0:
312,127,41468,1,8,0:3:0:0:
350,135,41565,1,4,0:3:0:0:
338,97,41663,1,4,0:3:0:0:
293,113,41760,1,4,0:3:0:0:
278,158,41858,1,4,0:3:0:0:
305,197,41955,5,4,0:2:0:0:
170,384,43005,1,2,0:0:0:0:
167,360,43101,1,2,0:0:0:0:
256,0,43513,5,4,0:0:0:0:
215,158,43892,1,2,0:0:0:0:
270,252,44082,1,0,0:0:0:0:
374,283,44272,2,0,P|405:208|448:143,1,148.49999546814,0|0,3:0|0:0,0:0:0:0:
312,384,44647,2,0,P|297:332|265:281,1,98.9999969787599,2|0,0:0|0:0,0:0:0:0:
0,192,45022,1,4,0:0:0:0:
0,192,45401,1,4,0:0:0:0:
0,192,45781,5,2,0:3:0:0:
17,168,45878,2,0,L|1:55,1,98.9999969787599,4|2,0:3|0:0,0:0:0:0:
93,17,46170,1,2,0:3:0:0:
88,46,46268,1,2,0:3:0:0:
114,99,46365,1,2,0:3:0:0:
141,152,46462,1,2,0:3:0:0:
114,227,46560,5,4,0:2:0:0:
379,368,46939,1,0,3:0:0:0:
260,376,47129,1,0,3:0:0:0:
148,336,47319,2,0,P|219:351|290:331,1,148.49999546814,0|0,3:0|0:0,0:0:0:0:
321,232,47699,2,0,P|277:228|199:283,1,98.9999969787599,2|0,0:0|0:0,0:0:0:0:
419,382,48078,5,4,0:0:0:0:
485,300,48278,1,2,0:3:0:0:
499,263,48378,1,2,0:3:0:0:
479,223,48478,2,0,L|470:188,2,24.74999924469,2|2|2,0:3|0:3|0:3,0:0:0:0:
503,123,48678,1,2,0:3:0:0:
384,1,48878,1,2,0:3:0:0:
396,38,48974,1,2,0:3:0:0:
359,85,49070,1,4,0:3:0:0:
361,106,49166,1,4,0:3:0:0:
325,162,49262,1,4,0:3:0:0:
317,199,49358,1,4,0:3:0:0:
256,226,49454,2,0,L|225:159,1,49.4999984893799,4|4,0:3|0:3,0:0:0:0:
372,278,49647,6,0,L|426:396,1,121.000003692627,4|4,1:2|0:3,0:0:0:0:
279,334,49935,1,0,3:0:0:0:
274,361,50031,1,2,0:3:0:0:
108,375,50223,1,0,0:0:0:0:
30,302,50416,2,0,L|71:88,1,181.500005538941,8|0,1:3|0:0,0:0:0:0:
0,0,50800,2,0,L|10:59,1,60.5000018463135,2|0,0:3|0:0,0:0:0:0:
181,148,50993,2,0,L|199:77,1,60.5000018463135,4|0,0:3|0:3,0:0:0:0:
364,8,51185,5,0,1:0:0:0:
282,23,51377,1,4,0:3:0:0:
468,232,51570,1,2,0:3:0:0:
509,113,51762,1,0,1:0:0:0:
219,226,51954,1,8,0:3:0:0:
317,339,52147,1,4,0:3:0:0:
252,112,52339,2,0,P|173:118|131:167,1,121.000003692627,2|0,0:3|1:0,0:0:0:0:
103,209,52627,1,8,0:3:0:0:
81,261,52723,6,0,L|62:181,1,60.5000018463135,4|0,0:2|0:0,0:0:0:0:
134,365,52916,1,2,0:0:0:0:
134,365,53108,2,0,L|262:386,1,121.000003692627,2|4,0:3|0:3,0:0:0:0:
431,123,53493,2,0,L|444:181,1,60.5000018463135,4|0,0:0|0:0,0:0:0:0:
378,19,53685,1,2,0:0:0:0:
378,19,53877,1,2,0:3:0:0:
236,55,54070,1,4,0:3:0:0:
98,0,54262,1,4,0:2:0:0:
463,224,54454,6,0,P|380:176|294:179,1,181.500005538941,0|0,1:0|0:0,0:0:0:0:
204,225,54839,1,8,3:0:0:0:
204,225,54935,1,8,0:3:0:0:
204,225,55031,2,0,P|156:237|131:237,1,60.5000018463135,4|0,0:3|0:0,0:0:0:0:
57,250,55223,2,0,P|11:229|-7:214,1,60.5000018463135,4|0,0:3|0:0,0:0:0:0:
265,49,55416,1,2,0:3:0:0:
225,382,55608,1,0,1:0:0:0:
197,350,55704,1,0,1:0:0:0:
224,317,55800,5,4,1:2:0:0:
300,349,55993,1,4,0:3:0:0:
107,364,56185,2,0,L|80:229,1,121.000003692627,2|0,0:3|0:0,0:0:0:0:
21,183,56473,1,8,0:3:0:0:
12,160,56570,1,2,0:2:0:0:
161,267,56762,1,8,0:3:0:0:
306,262,56954,1,2,0:3:0:0:
262,0,57147,6,0,P|358:136|356:224,1,242.000007385254,0|4,1:0|0:3,0:0:0:0:
159,108,57723,1,2,0:3:0:0:
73,181,57916,2,0,L|218:230,1,121.000003692627,0|8,3:0|0:3,0:0:0:0:
278,249,58204,1,8,0:3:0:0:
278,249,58300,1,8,0:3:0:0:
20,384,58493,2,0,L|-6:230,1,121.000003692627,2|8,0:3|0:3,0:0:0:0:
108,323,58781,1,8,0:3:0:0:
116,345,58877,5,4,0:0:0:0:
235,368,59070,1,0,3:0:0:0:
329,292,59262,2,0,P|378:310|464:290,1,121.000003692627,2|4,0:3|0:3,0:0:0:0:
505,230,59550,1,0,3:3:0:0:
510,203,59647,1,4,0:2:0:0:
325,325,59839,2,0,L|338:407,1,60.5000018463135,8|0,0:3|0:0,0:0:0:0:
235,368,60031,1,2,0:3:0:0:
101,159,60223,6,0,L|150:-29,1,165.000006294251,4|0,1:2|0:0,0:0:0:0:
384,304,60608,2,0,L|266:188,1,165.000006294251,4|0,1:2|0:0,0:0:0:0:
3,369,60993,2,0,L|162:325,1,165.000006294251,4|0,1:2|0:0,0:0:0:0:
437,33,61377,1,2,3:0:0:0:
407,22,61473,1,2,3:0:0:0:
358,56,61570,1,2,3:0:0:0:
319,86,61666,1,2,3:0:0:0:
272,69,61762,1,2,3:0:0:0:
259,57,61858,1,2,3:0:0:0:
207,124,61954,6,0,L|237:-37,1,121.000003692627,4|0,0:0|0:0,0:0:0:0:
54,122,62243,1,0,0:0:0:0:
16,161,62339,2,0,L|59:305,1,121.000003692627,2|0,0:3|0:3,0:0:0:0:
229,362,62627,1,8,0:3:0:0:
247,329,62723,2,0,L|210:266,1,60.5000018463135,4|8,0:3|0:3,0:0:0:0:
132,378,62916,1,4,0:3:0:0:
19,335,63108,2,0,L|59:175,1,121.000003692627,2|4,0:3|0:3,0:0:0:0:
0,116,63397,1,8,0:3:0:0:
0,116,63493,5,0,1:0:0:0:
64,187,63685,1,4,0:3:0:0:
184,0,63877,2,0,L|217:64,1,60.5000018463135,2|0,0:3|0:0,0:0:0:0:
324,97,64070,2,0,L|506:123,1,181.500005538941,8|0,0:3|0:0,0:0:0:0:
427,62,64454,2,0,L|408:-3,1,60.5000018463135,4|0,0:3|0:0,0:0:0:0:
407,193,64647,1,2,0:3:0:0:
337,320,64839,1,0,1:0:0:0:
283,308,64935,1,8,3:0:0:0:
247,348,65031,5,4,0:2:0:0:
428,310,65223,1,2,0:0:0:0:
428,310,65416,2,0,L|443:170,1,121.000003692627,2|4,0:3|0:3,0:0:0:0:
189,11,65800,2,0,L|195:93,1,60.5000018463135,4|0,0:0|0:0,0:0:0:0:
84,74,65993,1,2,0:0:0:0:
84,74,66185,2,0,L|69:214,1,121.000003692627,2|4,0:3|0:3,0:0:0:0:
188,382,66570,5,4,0:3:0:0:
322,337,66762,2,0,P|266:315|203:274,1,121.000003692627,0|2,1:0|0:3,0:0:0:0:
433,376,67147,1,8,0:3:0:0:
443,354,67243,1,8,0:3:0:0:
456,334,67339,2,0,P|439:304|406:191,1,121.000003692627,4|4,0:3|0:3,0:0:0:0:
448,0,67723,2,0,P|439:47|420:92,1,60.5000018463135,2|0,0:3|0:0,0:0:0:0:
378,128,67916,1,4,0:3:0:0:
0,76,68108,6,0,P|113:57|201:134,1,181.500005538941,4|0,0:0|0:0,0:0:0:0:
210,161,68493,2,0,P|252:191|352:185,1,121.000003692627,2|0,0:3|0:0,0:0:0:0:
391,142,68781,1,8,0:3:0:0:
399,127,68877,1,0,1:0:0:0:
349,12,69070,1,8,0:3:0:0:
248,153,69262,1,4,0:3:0:0:
392,384,69454,6,0,P|381:308|280:379,1,242.000007385254,0|4,1:0|0:3,0:0:0:0:
428,297,70031,1,2,0:3:0:0:
437,195,70223,2,0,P|430:137|387:49,1,121.000003692627,0|8,1:0|0:3,0:0:0:0:
216,270,70608,1,4,0:3:0:0:
20,166,70800,2,0,P|103:179|170:217,1,121.000003692627,2|0,1:3|0:0,0:0:0:0:
89,280,71089,1,0,1:0:0:0:
71,263,71185,1,4,0:0:0:0:
186,373,71371,5,2,0:3:0:0:
208,363,71464,1,2,0:3:0:0:
254,374,71557,2,0,L|322:354,1,60.5000018463135,2|0,0:3|0:0,0:0:0:0:
379,74,71744,1,8,0:3:0:0:
375,104,71837,1,8,0:3:0:0:
396,161,71930,1,8,0:3:0:0:
468,103,72124,1,8,0:3:0:0:
254,216,72319,1,4,0:3:0:0:
62,69,72514,5,0,1:2:0:0:
467,327,72903,6,0,L|434:433,1,60.5000018463135,4|0,0:0|0:0,0:0:0:0:
497,293,73293,2,0,L|447:89,1,165.000006294251,4|0,0:0|0:0,0:0:0:0:
256,4,73683,5,8,3:0:0:0:
250,28,73780,1,2,3:0:0:0:
270,76,73877,1,2,3:0:0:0:
244,153,73972,1,2,3:0:0:0:
268,226,74067,1,2,3:0:0:0:
259,258,74163,1,2,3:0:0:0:
257,340,74258,2,0,L|322:382,1,41.2500015735627,4|0,0:3|0:0,0:0:0:0:
330,364,74642,6,0,L|183:335,1,110,2|0,0:3|0:0,0:0:0:0:
410,319,75027,1,2,0:3:0:0:
417,302,75075,1,0,0:0:0:0:
307,383,75219,1,0,0:0:0:0:
157,384,75411,2,0,P|112:342|59:328,1,110,2|0,0:3|0:0,0:0:0:0:
211,29,75796,5,2,0:3:0:0:
156,111,75988,1,0,0:0:0:0:
58,129,76181,1,2,0:3:0:0:
18,227,76373,2,0,P|109:219|218:289,1,220,4|0,1:2|0:0,0:0:0:0:
408,337,76950,2,0,P|359:339|286:374,1,110,2|2,0:3|0:2,0:0:0:0:
305,268,77238,1,2,2:0:0:0:
310,245,77334,6,0,L|293:181,1,55,2|0,0:3|0:0,0:0:0:0:
382,91,77527,2,0,L|367:144,1,55,2|0,0:0|0:0,0:0:0:0:
481,270,77719,2,0,L|470:217,1,55,2|0,0:3|0:0,0:0:0:0:
509,98,77911,1,2,0:0:0:0:
232,18,78104,2,0,P|283:-1|338:0,1,110,8|0,0:0|0:0,0:0:0:0:
150,121,78488,2,0,P|95:122|44:102,1,110,8|0,0:0|0:0,0:0:0:0:
219,195,78873,6,0,P|261:229|283:393,1,220,4|2,1:2|0:3,0:0:0:0:
384,364,79442,1,2,0:0:0:0:
189,297,79632,1,8,0:3:0:0:
197,323,79727,1,8,0:3:0:0:
150,352,79822,1,4,0:3:0:0:
133,299,79917,1,4,0:3:0:0:
84,275,80012,1,8,0:3:0:0:
76,301,80109,1,8,0:3:0:0:
20,299,80206,1,4,0:3:0:0:
37,246,80304,1,4,0:3:0:0:
1,167,80401,5,4,0:2:0:0:
1,167,80693,1,8,0:3:0:0:
2,134,80790,2,0,L|-11:67,1,55,4|0,0:3|0:0,0:0:0:0:
93,19,80985,2,0,L|82:72,1,55,2|0,0:3|0:0,0:0:0:0:
96,280,81180,1,4,0:3:0:0:
102,247,81277,1,8,0:3:0:0:
107,214,81375,1,2,0:2:0:0:
216,379,81569,6,0,L|230:300,1,55,4|0,0:3|0:0,0:0:0:0:
325,196,81764,2,0,L|334:249,1,55,4|0,0:3|0:0,0:0:0:0:
411,330,81959,2,0,L|536:279,1,110,4|0,1:3|0:0,0:0:0:0:
346,384,82247,1,8,0:3:0:0:
307,377,82343,2,0,L|218:358,1,55,4|0,0:3|0:0,0:0:0:0:
427,248,82535,2,0,L|413:322,1,55,2|0,0:3|0:0,0:0:0:0:
358,189,82728,1,4,0:3:0:0:
356,156,82824,1,8,0:3:0:0:
354,123,82920,1,2,0:2:0:0:
454,296,83112,5,4,0:3:0:0:
256,192,83305,1,4,0:3:0:0:
36,226,83497,1,4,1:3:0:0:
36,226,83785,1,8,0:3:0:0:
60,240,83882,2,0,L|122:230,1,55,4|0,0:3|0:0,0:0:0:0:
205,322,84074,2,0,L|150:313,1,55,2|0,0:3|0:0,0:0:0:0:
42,384,84266,1,4,0:3:0:0:
48,355,84362,1,8,0:3:0:0:
54,326,84459,1,2,0:2:0:0:
197,164,84651,2,0,L|217:215,1,55,4|0,0:3|0:0,0:0:0:0:
349,171,84843,2,0,L|355:116,1,55,4|0,0:3|0:0,0:0:0:0:
499,189,85035,6,0,L|447:286,1,110,4|0,1:3|0:0,0:0:0:0:
397,186,85324,1,8,0:3:0:0:
407,165,85420,1,4,0:3:0:0:
342,353,85612,2,0,L|273:402,1,55,2|0,0:3|0:0,0:0:0:0:
433,371,85805,1,4,0:3:0:0:
454,377,85901,1,8,0:3:0:0:
474,384,85997,1,2,0:2:0:0:
259,4,86189,2,0,L|287:91,1,55,4|0,0:3|0:0,0:0:0:0:
260,157,86382,2,0,L|244:210,1,55,4|0,0:3|0:0,0:0:0:0:
228,384,86574,6,0,P|194:329|216:253,1,110,4|0,1:3|0:0,0:0:0:0:
303,260,86862,1,8,3:0:0:0:
301,286,86959,1,4,0:3:0:0:
141,93,87151,2,0,P|188:112|264:94,1,110,2|4,0:3|2:3,0:0:0:0:
252,62,87439,1,8,0:3:0:0:
223,87,87535,1,2,0:2:0:0:
329,139,87728,2,0,P|363:145|420:182,1,55,4|0,0:3|0:0,0:0:0:0:
499,261,87920,2,0,P|471:265|446:274,1,55,4|0,0:3|0:0,0:0:0:0:
293,355,88112,5,4,1:3:0:0:
477,384,88305,1,0,3:0:0:0:
460,362,88401,1,8,2:3:0:0:
420,313,88497,2,0,L|434:185,1,110,4|2,0:3|0:3,0:0:0:0:
264,374,88882,1,4,0:3:0:0:
264,374,88978,1,8,0:3:0:0:
264,374,89074,1,2,0:2:0:0:
25,104,89266,2,0,L|103:132,1,55,4|0,0:3|0:0,0:0:0:0:
198,13,89459,2,0,L|146:31,1,55,4|0,0:3|0:0,0:0:0:0:
268,90,89651,5,4,1:3:0:0:
375,114,89843,1,0,3:0:0:0:
244,219,90035,1,0,1:0:0:0:
85,252,90228,1,2,0:3:0:0:
301,343,90420,1,4,0:3:0:0:
354,354,90516,1,8,0:3:0:0:
407,365,90612,1,8,0:3:0:0:
450,320,90709,1,8,0:3:0:0:
411,327,90805,1,8,0:3:0:0:
373,334,90901,1,8,0:3:0:0:
335,293,90997,1,8,0:3:0:0:
358,298,91093,1,8,0:3:0:0:
414,239,91189,6,0,L|401:175,1,55,0|0,1:0|0:0,0:0:0:0:
297,372,91382,1,8,3:0:0:0:
212,120,91574,2,0,L|230:-27,1,121.000003692627,0|0,1:0|0:0,0:0:0:0:
39,148,91862,1,2,0:3:0:0:
61,171,91959,1,2,0:3:0:0:
112,151,92055,1,2,0:3:0:0:
121,97,92151,1,2,0:3:0:0:
170,73,92247,1,2,0:3:0:0:
185,46,92343,1,2,0:3:0:0:
239,52,92439,1,2,0:3:0:0:
262,102,92535,1,2,0:3:0:0:
274,85,92632,1,2,0:3:0:0:
295,11,92728,6,0,L|320:129,1,121.000003692627,4|0,0:2|0:0,0:0:0:0:
409,178,93016,1,0,0:0:0:0:
415,149,93112,1,2,0:3:0:0:
222,379,93401,5,2,0:3:0:0:
218,351,93497,1,8,0:3:0:0:
287,340,93593,1,8,0:3:0:0:
293,297,93689,1,4,0:3:0:0:
110,121,93880,2,0,L|92:240,1,121.000003692627,2|0,1:3|0:0,0:0:0:0:
20,138,94152,1,8,0:3:0:0:
14,119,94243,6,0,L|34:-13,1,121.000003692627,4|8,1:2|0:3,0:0:0:0:
396,123,94627,1,8,0:3:0:0:
388,79,94723,1,2,0:3:0:0:
249,344,94916,1,2,0:3:0:0:
282,384,95012,1,8,0:3:0:0:
304,365,95108,1,8,0:3:0:0:
275,299,95204,1,4,0:3:0:0:
257,247,95300,1,4,0:3:0:0:
289,198,95396,1,8,0:3:0:0:
297,176,95493,1,8,0:3:0:0:
271,122,95589,1,4,0:3:0:0:
259,69,95685,1,4,0:3:0:0:
302,1,95781,6,0,L|421:46,1,121.000003692627,4|0,1:2|0:0,0:0:0:0:
196,173,96069,1,0,0:0:0:0:
175,141,96166,2,0,L|209:10,1,121.000003692627,2|0,0:3|0:0,0:0:0:0:
63,165,96454,1,2,0:3:0:0:
80,183,96550,2,0,L|90:106,1,60.5000018463135,2|2,0:2|0:3,0:0:0:0:
0,39,96743,2,0,L|9:102,1,60.5000018463135,4|0,0:3|0:0,0:0:0:0:
229,295,96935,2,0,P|120:274|46:327,1,181.500005538941,2|0,1:3|0:0,0:0:0:0:
23,379,97319,5,4,0:0:0:0:
290,220,97513,1,4,0:3:0:0:
297,197,97611,1,8,0:3:0:0:
339,169,97708,1,8,0:3:0:0:
360,225,97806,1,2,0:3:0:0:
414,250,97903,1,2,0:3:0:0:
427,229,98000,1,2,0:3:0:0:
470,189,98098,6,0,L|482:262,1,60.5000018463135,4|0,1:3|0:3,0:0:0:0:
493,295,98293,2,0,L|502:236,1,60.5000018463135,4|0,1:3|0:0,0:0:0:0:
70,373,98487,6,0,L|129:363,1,60.5000018463135,4|0,1:3|0:0,0:0:0:0:
272,291,98682,2,0,L|213:282,1,60.5000018463135,4|0,1:3|0:0,0:0:0:0:
0,146,98877,6,0,L|178:118,1,126.500002412796,4|4,1:2|3:0,0:0:0:0:
91,21,99163,1,0,3:0:0:0:
81,51,99259,1,2,0:3:0:0:
201,167,99450,1,0,3:0:0:0:
322,39,99641,2,0,P|378:11|439:24,1,126.500002412796,8|4,1:3|0:3,0:0:0:0:
475,144,99927,1,0,0:0:0:0:
432,122,100023,1,2,3:0:0:0:
472,22,100214,1,4,3:0:0:0:
492,244,100405,5,0,1:0:0:0:
367,267,100596,1,4,3:0:0:0:
303,376,100787,1,2,3:0:0:0:
139,383,100978,2,0,P|109:293|48:209,1,189.750003619194,0|8,1:0|0:3,0:0:0:0:
170,138,101361,2,0,L|150:233,1,63.250001206398,4|0,0:3|0:0,0:0:0:0:
26,338,101552,1,2,0:3:0:0:
261,307,101743,1,0,1:0:0:0:
275,330,101838,1,8,3:0:0:0:
262,383,101934,6,0,L|170:303,1,63.250001206398,4|0,1:2|0:0,0:0:0:0:
446,340,102126,1,2,0:0:0:0:
475,235,102318,2,0,L|441:73,1,126.500002412796,2|0,0:3|0:0,0:0:0:0:
250,1,102703,6,0,L|342:81,1,63.250001206398,4|0,1:2|0:0,0:0:0:0:
66,44,102895,1,2,0:0:0:0:
16,144,103087,1,2,0:3:0:0:
69,253,103280,1,4,0:3:0:0:
69,253,103376,1,8,0:3:0:0:
69,253,103472,5,2,0:2:0:0:
163,384,103666,2,0,L|188:231,1,126.500002412796,4|2,1:3|0:3,0:0:0:0:
74,360,104056,1,4,0:3:0:0:
334,270,104251,2,0,L|290:37,1,189.750003619194,8|0,1:3|0:0,0:0:0:0:
408,0,104640,2,0,L|395:72,1,63.250001206398,2|0,0:3|0:0,0:0:0:0:
214,165,104835,1,8,1:3:0:0:
195,134,104933,1,8,1:3:0:0:
207,74,105030,5,4,1:2:0:0:
286,207,105219,1,4,0:3:0:0:
205,341,105409,2,0,L|61:394,1,126.500002412796,2|0,0:3|0:0,0:0:0:0:
37,265,105694,1,8,0:3:0:0:
77,280,105789,1,2,2:0:0:0:
301,384,105979,2,0,L|311:306,1,63.250001206398,4|0,0:3|0:0,0:0:0:0:
375,220,106169,2,0,L|387:281,1,63.250001206398,2|0,0:3|0:0,0:0:0:0:
479,384,106359,2,0,L|506:119,1,253.000004825592,8|4,1:3|0:3,0:0:0:0:
278,77,106935,5,2,0:3:0:0:
177,132,107126,2,0,L|148:-9,1,126.500002412796,0|4,1:0|0:3,0:0:0:0:
145,244,107510,1,4,0:3:0:0:
305,384,107702,2,0,L|153:314,1,126.500002412796,2|2,1:3|0:0,0:0:0:0:
78,343,107990,1,8,0:3:0:0:
101,368,108086,5,4,1:2:0:0:
298,270,108278,1,2,0:3:0:0:
311,220,108374,1,2,0:3:0:0:
266,181,108471,1,2,0:3:0:0:
232,194,108567,1,2,0:3:0:0:
189,155,108663,1,2,0:3:0:0:
202,105,108759,1,2,0:3:0:0:
173,66,108855,1,2,0:3:0:0:
163,38,108951,1,2,0:3:0:0:
104,23,109048,1,6,0:3:0:0:
88,17,109144,1,2,0:3:0:0:
11,4,109240,5,6,0:3:0:0:
69,279,109432,2,0,L|41:77,1,165.000006294251,4|0,1:2|0:0,0:0:0:0:
392,323,109817,2,0,L|410:158,1,165.000006294251,4|0,1:2|0:0,0:0:0:0:
74,375,110201,2,0,L|15:173,1,165.000006294251,4|0,1:2|0:0,0:0:0:0:
421,302,110586,1,2,3:0:0:0:
433,331,110682,1,2,3:0:0:0:
404,367,110778,1,2,3:0:0:0:
353,339,110874,1,2,3:0:0:0:
344,288,110971,1,2,3:0:0:0:
356,259,111067,1,2,3:0:0:0:
335,188,111163,6,0,L|359:27,1,126.500002412796,4|0,1:2|0:0,0:0:0:0:
222,117,111451,1,0,3:0:0:0:
231,152,111548,1,2,3:0:0:0:
96,212,111740,1,0,3:0:0:0:
40,146,111932,2,0,L|5:-14,1,126.500002412796,8|4,1:3|0:3,0:0:0:0:
169,258,112317,2,0,L|143:408,1,126.500002412796,2|4,0:3|0:3,0:0:0:0:
48,294,112605,1,8,0:3:0:0:
40,274,112701,5,2,0:0:0:0:
188,275,112894,1,8,0:3:0:0:
288,384,113086,1,2,0:3:0:0:
476,311,113278,2,0,L|444:161,1,126.500002412796,0|8,1:0|0:3,0:0:0:0:
374,382,113663,2,0,L|403:309,1,63.250001206398,4|0,0:3|0:0,0:0:0:0:
270,241,113855,2,0,L|262:303,1,63.250001206398,2|0,0:3|0:0,0:0:0:0:
132,384,114048,1,2,0:0:0:0:
123,349,114144,1,8,0:3:0:0:
72,313,114240,6,0,L|58:207,1,63.250001206398,4|0,1:2|0:0,0:0:0:0:
123,151,114432,1,2,0:0:0:0:
123,151,114624,2,0,L|141:6,1,126.500002412796,2|4,0:3|0:3,0:0:0:0:
440,313,115009,2,0,L|454:207,1,63.250001206398,4|0,1:2|0:0,0:0:0:0:
389,151,115201,1,2,0:0:0:0:
389,151,115394,2,0,L|371:6,1,126.500002412796,2|4,0:3|0:3,0:0:0:0:
479,37,115682,1,0,3:0:0:0:
476,63,115778,5,2,0:0:0:0:
238,141,115972,2,0,P|169:130|138:43,1,126.500002412796,4|2,1:3|0:3,0:0:0:0:
117,0,116362,1,0,3:0:0:0:
287,243,116557,2,0,P|311:308|252:378,1,126.500002412796,4|4,0:3|0:3,0:0:0:0:
195,343,116849,1,0,3:0:0:0:
213,326,116946,1,2,3:0:0:0:
365,384,117141,1,0,1:0:0:0:
495,315,117336,6,0,P|440:248|467:108,1,189.750003619194,4|0,1:2|0:0,0:0:0:0:
372,104,117720,2,0,P|368:32|313:0,1,126.500002412796,2|0,3:0|0:0,0:0:0:0:
255,87,118009,1,8,0:3:0:0:
280,101,118105,1,2,0:0:0:0:
149,50,118292,1,4,3:0:0:0:
26,116,118480,1,2,3:0:0:0:
188,384,118667,6,0,P|199:312|87:162,1,253.000004825592,4|4,1:3|0:3,0:0:0:0:
39,292,119243,1,2,0:3:0:0:
64,367,119434,1,0,0:0:0:0:
257,202,119626,1,4,3:0:0:0:
354,318,119818,1,4,3:0:0:0:
504,316,120009,2,0,P|440:274|402:210,1,126.500002412796,2|0,0:3|0:0,0:0:0:0:
423,355,120297,1,8,3:0:0:0:
432,384,120393,5,4,0:2:0:0:
494,191,120585,1,8,0:3:0:0:
502,171,120681,1,8,0:3:0:0:
480,126,120778,1,8,0:3:0:0:
477,108,120874,1,8,0:3:0:0:
428,67,120970,1,2,0:3:0:0:
376,102,121066,1,2,0:3:0:0:
353,91,121162,1,2,0:3:0:0:
291,74,121260,1,2,0:3:0:0:
236,106,121358,1,2,0:3:0:0:
175,85,121457,1,2,0:3:0:0:
115,63,121555,1,2,0:3:0:0:
305,265,121752,6,0,L|444:204,1,126.500002412796,0|0,1:0|0:0,0:0:0:0:
138,376,122127,2,0,L|22:325,1,126.500002412796,0|0,1:0|0:0,0:0:0:0:
305,265,122519,2,0,P|326:194|257:98,1,189.750003619194,0|0,1:0|0:0,0:0:0:0:
189,64,122919,1,2,3:0:0:0:
233,73,123015,1,2,3:0:0:0:
255,35,123112,1,4,3:0:0:0:
225,2,123209,1,4,3:0:0:0:
184,20,123306,1,2,3:0:0:0:
124,40,123402,1,2,3:0:0:0:
54,2,123499,5,4,1:2:0:0:
0,117,123688,2,0,P|88:123|156:184,1,126.500002412796,0|2,1:0|3:0,0:0:0:0:
470,330,124068,1,0,3:0:0:0:
374,241,124258,2,0,P|356:175|387:101,1,126.500002412796,4|4,3:0|3:0,0:0:0:0:
296,345,124638,2,0,P|235:361|175:343,1,126.500002412796,2|0,0:3|0:0,0:0:0:0:
110,282,124923,1,8,3:0:0:0:
104,259,125017,5,4,0:3:0:0:
289,303,125210,1,4,3:0:0:0:
435,182,125404,1,2,3:0:0:0:
330,3,125597,1,0,1:0:0:0:
264,106,125791,1,2,3:0:0:0:
276,127,125887,1,2,3:0:0:0:
321,170,125984,1,2,3:0:0:0:
333,149,126081,1,2,3:0:0:0:
320,82,126178,1,2,3:0:0:0:
162,220,126367,6,0,L|193:388,1,126.500002412796,0|0,1:0|1:0,0:0:0:0:
84,300,126744,1,2,2:0:0:0:
84,300,126932,1,2,0:0:0:0:
84,300,128907,2,0,L|127:228,1,63.250001206398,0|0,1:2|0:0,0:0:0:0:
19,92,129086,2,0,L|88:121,1,63.250001206398,8|8,0:3|0:3,0:0:0:0:
229,160,129266,1,2,3:0:0:0:
250,146,129356,1,2,3:0:0:0:
295,180,129445,1,8,3:0:0:0:
246,214,129535,1,8,3:0:0:0:
184,168,129625,6,0,L|208:13,1,126.500002412796,4|0,1:2|0:0,0:0:0:0:
385,259,130009,2,0,L|404:384,1,126.500002412796,2|0,0:3|0:0,0:0:0:0:
480,335,130298,1,0,3:0:0:0:
483,307,130394,1,4,3:0:0:0:
321,382,130586,1,4,3:0:0:0:
121,273,130778,2,0,L|200:241,1,63.250001206398,2|0,0:3|0:0,0:0:0:0:
30,235,130971,5,8,3:0:0:0:
23,195,131068,1,8,0:3:0:0:
266,279,131263,1,8,0:3:0:0:
259,318,131360,1,4,0:3:0:0:
433,382,131555,1,2,0:3:0:0:
482,293,131753,1,0,3:0:0:0:
304,380,131952,1,4,0:3:0:0:
178,319,132141,1,4,0:3:0:0:
42,350,132331,2,0,P|31:297|-6:212,1,126.500002412796,2|0,1:3|0:0,0:0:0:0:
69,142,132616,1,8,3:0:0:0:
84,109,132711,6,0,L|94:12,1,63.250001206398,4|0,1:2|0:0,0:0:0:0:
193,35,132900,1,8,3:0:0:0:
202,61,132995,1,8,3:0:0:0:
254,85,133090,1,8,3:0:0:0:
245,111,133185,1,2,3:0:0:0:
281,165,133280,1,2,3:0:0:0:
201,368,133470,1,2,3:0:0:0:
191,338,133568,1,2,3:0:0:0:
217,295,133667,1,2,3:0:0:0:
227,265,133766,1,2,3:0:0:0:
193,200,133864,2,0,L|183:270,1,63.250001206398,2|0,3:0|0:0,0:0:0:0:
421,238,134062,5,2,1:3:0:0:
463,250,134160,1,2,0:3:0:0:
463,303,134259,1,2,0:3:0:0:
443,311,134352,1,2,0:3:0:0:
395,375,134446,1,2,1:3:0:0:
369,370,134540,1,2,0:3:0:0:
332,338,134634,1,2,0:3:0:0:
295,353,134727,1,2,0:3:0:0:
221,318,134821,1,2,1:3:0:0:
197,337,134915,1,2,0:3:0:0:
208,383,135009,1,2,0:3:0:0:
219,364,135107,1,2,0:3:0:0:
181,295,135205,1,2,0:3:0:0:
105,198,135401,5,2,3:0:0:0:
133,155,135499,1,2,3:0:0:0:
109,101,135597,1,2,3:0:0:0:
97,77,135695,1,2,3:0:0:0:
114,19,135793,6,0,L|164:157,1,126.500002412796,4|0,1:2|0:0,0:0:0:0:
273,251,136079,1,0,3:0:0:0:
303,224,136175,2,0,L|328:76,1,126.500002412796,2|0,0:3|2:0,0:0:0:0:
277,12,136461,1,0,0:0:0:0:
277,35,136557,1,4,1:3:0:0:
424,157,136748,1,4,0:3:0:0:
446,252,136939,2,0,L|408:409,1,126.500002412796,2|4,1:3|0:3,0:0:0:0:
280,370,137226,1,8,3:0:0:0:
273,345,137321,5,2,0:0:0:0:
386,340,137512,1,8,3:0:0:0:
491,383,137703,1,2,0:3:0:0:
349,256,137894,2,0,P|287:265|248:139,1,189.750003619194,0|0,1:0|0:0,0:0:0:0:
264,86,138277,1,8,3:0:0:0:
137,201,138468,2,0,L|120:110,1,63.250001206398,2|0,3:0|0:0,0:0:0:0:
36,56,138659,1,2,0:0:0:0:
78,93,138754,1,4,3:0:0:0:
151,66,138850,5,4,1:2:0:0:
53,211,139047,1,2,0:0:0:0:
53,211,139244,2,0,L|83:346,1,126.500002412796,2|4,3:0|3:0,0:0:0:0:
154,373,139540,1,0,0:0:0:0:
162,349,139639,2,0,L|151:286,1,63.250001206398,4|0,1:2|0:0,0:0:0:0:
231,218,139826,2,0,L|236:281,1,63.250001206398,0|0,1:0|0:0,0:0:0:0:
337,384,140014,2,0,L|337:320,1,63.250001206398,2|0,0:3|0:0,0:0:0:0:
433,181,140201,1,4,1:3:0:0:
419,215,140296,1,8,0:3:0:0:
454,255,140392,1,2,1:2:0:0:
483,231,140487,1,8,1:3:0:0:
478,167,140583,1,4,1:3:0:0:
293,17,140774,2,0,L|313:153,1,126.500002412796,2|0,1:3|0:0,0:0:0:0:
191,115,141067,1,8,0:3:0:0:
171,82,141165,6,0,L|200:0,1,63.250001206398,4|0,0:3|0:0,0:0:0:0:
74,104,141360,2,0,L|80:17,1,63.250001206398,4|0,0:3|0:0,0:0:0:0:
310,229,141556,2,0,L|281:147,1,63.250001206398,2|0,1:3|0:0,0:0:0:0:
407,251,141751,2,0,L|400:164,1,63.250001206398,4|0,0:3|0:0,0:0:0:0:
188,344,141947,6,0,P|130:362|68:242,1,189.750003619194,4|0,1:2|0:0,0:0:0:0:
278,328,142337,2,0,P|349:313|408:391,1,126.500002412796,2|0,0:3|0:0,0:0:0:0:
487,342,142629,1,8,0:3:0:0:
498,323,142726,1,8,3:0:0:0:
392,195,142918,2,0,L|411:261,1,63.250001206398,4|0,3:0|0:0,0:0:0:0:
489,136,143110,2,0,L|505:32,1,63.250001206398,2|0,3:0|0:0,0:0:0:0:
180,184,143302,5,4,3:0:0:0:
172,159,143399,1,8,0:3:0:0:
325,246,143591,1,8,0:3:0:0:
317,271,143687,1,4,0:3:0:0:
256,375,143879,1,2,0:3:0:0:
74,362,144071,2,0,P|145:343|215:300,1,126.500002412796,0|0,1:0|0:0,0:0:0:0:
303,175,144456,1,4,3:0:0:0:
228,0,144648,2,0,P|213:52|258:145,1,126.500002412796,2|0,1:3|0:0,0:0:0:0:
353,108,144937,1,8,0:3:0:0:
362,91,145033,6,0,L|327:39,1,63.250001206398,4|0,0:2|0:0,0:0:0:0:
469,130,145225,2,0,L|487:201,1,63.250001206398,4|0,0:3|0:0,0:0:0:0:
502,7,145418,1,2,0:3:0:0:
398,176,145610,1,0,1:0:0:0:
136,96,145802,1,8,3:0:0:0:
128,54,145898,1,8,3:0:0:0:
73,19,145995,1,4,3:0:0:0:
65,61,146091,1,4,3:0:0:0:
13,114,146187,1,2,3:0:0:0:
137,238,146379,6,0,L|247:287,1,82.5000031471254,4|0,1:2|0:0,0:0:0:0:
335,381,147488,2,0,L|354:255,1,121.000003692627,2|0,0:0|0:0,0:0:0:0:
389,384,147757,2,0,L|376:324,1,60.5000018463135,2|0,3:0|0:0,0:0:0:0:
253,330,147968,2,0,L|291:261,1,60.5000018463135,0|0,1:0|0:0,0:0:0:0:
478,297,148143,6,0,L|384:79,1,214.49999018097,4|0,1:2|0:0,0:0:0:0:
299,142,148506,2,0,L|133:36,1,142.99999345398,2|0,0:3|0:0,0:0:0:0:
264,2,148789,1,8,0:3:0:0:
273,25,148883,1,4,0:3:0:0:
190,178,149071,1,4,0:3:0:0:
355,370,149260,1,2,0:3:0:0:
338,279,149449,1,4,0:3:0:0:
338,279,149543,1,8,0:3:0:0:
338,279,149637,5,2,0:0:0:0:
229,348,149829,1,4,0:3:0:0:
102,325,150021,1,2,0:3:0:0:
37,212,150213,1,8,3:0:0:0:
51,172,150310,1,8,0:3:0:0:
42,110,150406,2,0,L|7:17,1,71.4999967269899,4|0,0:3|0:0,0:0:0:0:
158,0,150598,2,0,L|146:76,1,71.4999967269899,4|0,0:3|0:0,0:0:0:0:
289,192,150790,2,0,L|238:106,1,71.4999967269899,6|0,0:3|0:0,0:0:0:0:
398,0,150983,2,0,L|360:67,1,71.4999967269899,4|0,0:3|0:0,0:0:0:0:
462,147,151175,5,4,1:2:0:0:
369,304,151364,1,2,0:0:0:0:
404,384,151554,1,2,0:3:0:0:
216,201,151744,1,8,0:3:0:0:
249,239,151839,1,8,0:3:0:0:
293,226,151934,1,4,1:2:0:0:
108,384,152124,1,2,0:0:0:0:
143,304,152314,1,2,0:3:0:0:
75,187,152504,1,8,0:3:0:0:
75,187,152599,1,8,0:3:0:0:
75,187,152693,6,0,L|180:160,1,71.4999967269899,4|0,0:3|0:0,0:0:0:0:
23,131,152889,2,0,L|92:148,1,71.4999967269899,4|0,0:3|0:0,0:0:0:0:
42,293,153085,2,0,L|88:208,1,71.4999967269899,2|0,0:3|0:0,0:0:0:0:
21,9,153281,2,0,L|171:45,1,142.99999345398,2|0,1:3|0:0,0:0:0:0:
344,124,153575,1,8,0:3:0:0:
336,75,153673,2,0,L|320:2,1,71.4999967269899,4|0,0:3|0:0,0:0:0:0:
436,155,153869,2,0,L|405:337,1,142.99999345398,2|0,1:3|0:0,0:0:0:0:
398,384,154163,1,8,0:3:0:0:
398,384,154261,5,4,1:2:0:0:
277,338,154453,1,8,1:3:0:0:
153,374,154645,1,2,0:3:0:0:
0,287,154837,2,0,P|102:296|160:170,1,214.49999018097,0|0,1:0|0:0,0:0:0:0:
181,65,155222,1,4,0:3:0:0:
172,108,155318,1,8,0:3:0:0:
217,146,155414,2,0,L|264:66,1,71.4999967269899,2|0,1:3|0:0,0:0:0:0:
61,36,155607,2,0,L|84:122,1,71.4999967269899,0|0,1:0|0:0,0:0:0:0:
319,202,155799,2,0,L|496:169,1,142.99999345398,4|0,1:3|0:0,0:0:0:0:
498,74,156083,1,4,0:3:0:0:
477,83,156178,1,2,0:3:0:0:
267,384,156368,2,0,L|327:57,1,285.99998690796,0|4,1:3|0:3,0:0:0:0:
168,279,156938,1,2,0:3:0:0:
320,384,157128,6,0,L|270:146,1,214.49999018097,8|8,1:3|0:3,0:0:0:0:
250,66,157513,1,8,0:3:0:0:
79,211,157709,1,2,0:3:0:0:
5,186,157905,1,2,1:3:0:0:
147,166,158101,1,8,0:3:0:0:
147,166,158199,1,8,0:3:0:0:
147,166,158297,1,4,0:3:0:0:
180,384,158493,2,0,L|164:282,1,71.4999967269899,2|0,1:3|0:0,0:0:0:0:
299,345,158689,6,0,L|198:216,1,142.99999345398,4|0,1:2|0:0,0:0:0:0:
448,249,159077,2,0,L|296:187,1,142.99999345398,0|0,1:0|0:0,0:0:0:0:
512,77,159461,2,0,L|349:99,1,142.99999345398,0|2,1:0|3:0,0:0:0:0:
268,66,159747,1,2,3:0:0:0:
210,69,159841,1,4,3:0:0:0:
163,32,159935,1,4,3:0:0:0:
120,21,160029,1,8,3:0:0:0:
73,63,160122,1,8,3:0:0:0:
85,92,160216,1,4,3:0:0:0:
131,128,160310,1,4,3:0:0:0:
138,100,160404,5,4,1:2:0:0:
62,0,160601,1,4,0:3:0:0:
8,242,160798,2,0,L|157:211,1,142.99999345398,2|0,0:3|0:0,0:0:0:0:
280,278,161094,1,8,0:3:0:0:
241,264,161193,2,0,L|263:184,1,71.4999967269899,0|0,1:0|0:3,0:0:0:0:
285,108,161382,2,0,L|268:38,1,71.4999967269899,4|0,0:3|0:0,0:0:0:0:
187,83,161572,2,0,P|244:64|378:126,1,214.49999018097,4|0,1:3|0:0,0:0:0:0:
484,9,161952,6,0,P|439:49|414:217,1,214.49999018097,4|4,1:2|0:3,0:0:0:0:
459,275,162327,1,2,0:3:0:0:
262,316,162514,1,4,0:3:0:0:
253,278,162608,1,2,3:0:0:0:
409,346,162798,1,8,0:3:0:0:
400,384,162895,1,4,0:3:0:0:
154,314,163089,2,0,L|3:335,1,142.99999345398,2|0,1:3|0:0,0:0:0:0:
23,249,163379,1,8,0:3:0:0:
50,236,163476,6,0,L|137:225,1,71.4999967269899,4|0,0:3|0:0,0:0:0:0:
250,59,163669,1,0,1:0:0:0:
16,29,163863,2,0,L|207:54,1,142.99999345398,2|0,1:3|0:0,0:0:0:0:
261,161,164250,1,0,1:0:0:0:
501,133,164443,2,0,L|310:158,1,142.99999345398,4|2,1:3|0:3,0:0:0:0:
159,323,164830,1,0,1:0:0:0:
51,145,165024,6,0,L|85:321,1,142.99999345398,4|0,1:3|0:0,0:0:0:0:
7,383,165308,1,4,0:3:0:0:
13,351,165403,1,2,0:3:0:0:
192,309,165603,1,8,3:0:0:0:
203,354,165703,1,2,0:3:0:0:
347,218,165896,1,8,3:0:0:0:
313,192,165990,1,4,3:0:0:0:
432,243,166178,2,0,L|410:384,1,142.99999345398,2|0,1:3|0:0,0:0:0:0:
286,320,166460,1,8,3:0:0:0:
280,276,166553,6,0,L|256:110,1,142.99999345398,4|0,1:3|0:0,0:0:0:0:
407,61,166945,2,0,L|385:171,1,71.4999967269899,2|0,0:3|0:0,0:0:0:0:
458,211,167141,2,0,L|480:321,1,71.4999967269899,2|0,0:3|0:0,0:0:0:0:
395,372,167337,1,8,0:3:0:0:
395,372,167432,1,8,0:3:0:0:
395,372,167528,1,4,3:0:0:0:
193,384,167719,6,0,L|161:201,1,142.99999345398,2|0,0:3|0:0,0:0:0:0:
222,132,168005,1,8,0:3:0:0:
225,95,168101,2,0,L|87:12,1,142.99999345398,4|0,1:3|0:0,0:0:0:0:
314,37,168476,2,0,L|447:5,1,71.4999967269899,2|0,0:3|0:0,0:0:0:0:
512,149,168663,2,0,L|352:101,1,142.99999345398,2|8,0:3|3:0,0:0:0:0:
95,215,169042,1,8,0:3:0:0:
64,246,169137,2,0,L|44:87,1,142.99999345398,0|0,1:0|0:0,0:0:0:0:
157,138,169424,2,0,L|143:238,1,71.4999967269899,4|0,3:0|0:0,0:0:0:0:
287,197,169615,6,0,L|254:22,1,142.99999345398,8|0,1:3|0:0,0:0:0:0:
354,135,169909,2,0,L|327:275,1,142.99999345398,4|0,1:3|0:0,0:0:0:0:
317,361,170203,1,0,1:0:0:0:
173,135,170399,1,2,0:3:0:0:
191,99,170492,1,2,0:3:0:0:
172,39,170585,1,4,0:3:0:0:
5,207,170771,1,2,0:3:0:0:
34,247,170868,1,2,0:3:0:0:
18,295,170963,2,0,L|-9:407,1,71.4999967269899,4|0,1:2|0:0,0:0:0:0:
95,354,171153,5,2,0:3:0:0:
95,354,171252,1,2,0:3:0:0:
95,354,171347,1,4,1:2:0:0:
403,288,171537,1,2,0:3:0:0:
403,288,171632,1,2,0:3:0:0:
403,288,171727,1,4,1:2:0:0:
218,243,171917,1,2,0:3:0:0:
284,222,172014,1,2,0:3:0:0:
303,173,172111,1,4,0:3:0:0:
247,155,172209,1,4,0:3:0:0:
209,112,172306,1,8,0:3:0:0:
254,97,172404,1,8,0:3:0:0:
274,58,172501,1,4,0:3:0:0:
236,45,172598,1,4,0:3:0:0:
176,0,172696,5,4,1:2:0:0:
302,73,172892,2,0,P|315:35|357:-22,1,71.4999967269899,4|0,0:3|0:0,0:0:0:0:
408,228,173088,2,0,P|446:155|512:96,1,142.99999345398,0|0,1:0|0:0,0:0:0:0:
324,99,173382,1,8,0:3:0:0:
344,121,173480,1,4,1:2:0:0:
186,216,173676,2,0,P|173:178|131:121,1,71.4999967269899,4|0,0:3|0:0,0:0:0:0:
80,371,173872,2,0,P|42:298|-24:239,1,142.99999345398,2|0,1:3|0:0,0:0:0:0:
162,247,174166,1,8,0:3:0:0:
137,261,174264,5,4,1:2:0:0:
309,384,174456,2,0,L|421:354,1,71.4999967269899,8|0,1:3|0:0,0:0:0:0:
512,356,174648,1,2,0:3:0:0:
236,182,174840,2,0,L|476:243,1,214.49999018097,2|0,1:3|0:0,0:0:0:0:
512,178,175225,2,0,L|460:98,1,71.4999967269899,4|0,1:2|0:0,0:0:0:0:
324,116,175417,2,0,L|419:-17,1,142.99999345398,2|0,1:3|0:0,0:0:0:0:
216,80,175706,1,8,0:3:0:0:
198,51,175802,6,0,P|103:3|1:11,1,142.99999345398,8|0,1:3|0:0,0:0:0:0:
0,51,176187,1,0,1:0:0:0:
179,384,176379,2,0,P|195:259|101:105,1,307.999990600586,4|0,1:3|0:3,0:0:0:0:
111,244,176860,1,8,3:0:0:0:
126,281,176956,2,0,P|227:340|371:303,1,230.99999295044,4|0,1:3|0:0,0:0:0:0:
411,253,177340,1,4,1:3:0:0:
270,384,177533,2,0,P|303:198|434:107,1,307.999990600586,4|4,1:3|0:3,0:0:0:0:
457,344,178110,1,2,0:3:0:0:
438,306,178206,1,2,0:3:0:0:
488,337,178302,1,2,0:3:0:0:
463,384,178398,1,2,0:3:0:0:
408,375,178494,1,2,0:3:0:0:
392,346,178590,1,2,0:3:0:0:
338,343,178687,1,2,0:3:0:0:
301,325,178783,1,2,0:3:0:0:
232,354,178879,6,0,L|89:365,1,76.9999976501466,4|0,1:2|0:0,0:0:0:0:
99,284,179067,2,0,L|6:258,1,76.9999976501466,0|0,1:0|0:0,0:0:0:0:
66,171,179256,2,0,P|36:88|30:33,1,142.99999345398,2|0,1:3|0:0,0:0:0:0:
323,179,179633,2,0,P|236:186|240:91,1,142.99999345398,4|0,0:3|0:0,0:0:0:0:
374,276,179916,2,0,P|437:251|522:254,1,142.99999345398,4|0,3:0|0:0,0:0:0:0:
290,384,180199,2,0,P|235:276|287:147,1,214.49999018097,4|0,3:0|0:0,0:0:0:0:
307,117,180580,6,0,P|303:55|221:31,1,142.99999345398,8|0,3:0|0:0,0:0:0:0:
163,195,180868,2,0,P|230:187|253:123,1,142.99999345398,8|0,0:3|0:0,0:0:0:0:
145,6,181157,2,0,P|52:60|131:242,1,285.99998690796,8|0,3:0|0:0,0:0:0:0:
144,377,181734,2,0,P|173:351|223:339,1,71.4999967269899,0|0,1:0|0:0,0:0:0:0:
343,335,181926,1,4,1:2:0:0:
370,353,182024,1,0,1:0:0:0:
333,384,182123,1,2,3:0:0:0:
310,348,182222,1,2,3:0:0:0:
330,287,182320,1,2,3:0:0:0:
322,223,182419,1,2,3:0:0:0:
356,168,182518,1,2,3:0:0:0:
328,114,182616,1,2,3:0:0:0:
341,68,182715,2,0,L|318:-10,1,71.4999967269899,4|8,0:3|0:3,0:0:0:0:
443,125,182912,2,0,L|459:55,1,71.4999967269899,4|8,0:3|0:3,0:0:0:0:
236,153,183110,5,2,0:3:0:0:
181,161,183203,1,2,0:3:0:0:
122,110,183296,1,4,1:2:0:0:
243,342,183482,1,2,0:3:0:0:
265,346,183578,1,2,0:3:0:0:
321,384,183674,1,2,1:3:0:0:
126,242,183866,1,2,0:3:0:0:
106,286,183962,1,2,0:3:0:0:
40,317,184058,2,0,B|61:278|61:278|44:229|44:229|71:167,1,142.99999345398,4|0,1:2|0:3,0:3:0:0:
362,384,184443,2,0,L|340:315,1,71.4999967269899,0|0,1:0|0:0,0:0:0:0:
460,339,184635,2,0,L|495:132,1,142.99999345398,0|2,1:0|0:3,0:0:0:0:
415,136,184924,1,2,0:3:0:0:
404,98,185020,6,0,L|385:5,1,71.4999967269899,4|0,1:2|0:0,0:0:0:0:
303,162,185212,2,0,L|288:232,1,71.4999967269899,4|0,0:3|0:0,0:0:0:0:
66,143,185405,2,0,L|28:-40,1,142.99999345398,2|0,0:3|0:0,0:0:0:0:
153,48,185693,1,8,0:3:0:0:
171,81,185789,2,0,L|156:174,1,71.4999967269899,4|0,0:3|0:0,0:0:0:0:
93,295,185982,2,0,L|72:182,1,71.4999967269899,4|0,0:3|0:0,0:0:0:0:
335,384,186174,2,0,L|190:326,1,142.99999345398,2|0,1:3|0:0,0:0:0:0:
306,250,186462,1,2,0:3:0:0:
321,289,186558,1,4,0:3:0:0:
382,316,186652,1,2,0:3:0:0:
402,256,186747,1,4,0:3:0:0:
266,97,186937,6,0,L|233:-15,1,71.4999967269899,2|0,1:3|0:0,0:0:0:0:
356,0,187127,2,0,L|336:104,1,71.4999967269899,0|0,1:0|0:0,0:0:0:0:
94,284,187317,2,0,L|49:132,1,142.99999345398,0|0,1:0|0:0,0:0:0:0:
186,91,187602,2,0,L|154:272,1,142.99999345398,0|0,1:0|0:0,0:0:0:0:
75,329,187894,6,0,L|32:68,1,214.49999018097,0|0,1:0|0:0,0:0:0:0:
105,10,188282,1,0,1:3:0:0:
105,10,188377,1,8,1:3:0:0:
105,10,188473,2,0,L|134:170,1,142.99999345398,2|0,0:3|0:0,0:0:0:0:
327,265,188855,2,0,L|347:200,1,68.75,0|0,1:0|0:0,0:0:0:0:
231,209,189046,2,0,L|260:365,1,137.5,0|0,1:0|0:0,0:0:0:0:
467,335,189433,2,0,L|481:232,1,68.75
386,355,189629,5,2,0:3:0:0:
346,372,189727,1,2,0:3:0:0:
302,327,189826,1,4,0:3:0:0:
272,319,189925,1,4,0:3:0:0:
229,344,190023,1,2,0:3:0:0:
189,361,190122,1,2,0:3:0:0:
145,316,190221,1,4,0:3:0:0:
115,308,190319,1,4,0:3:0:0:
43,274,190418,2,0,L|20:209,1,68.75,2|0,0:3|0:0,0:0:0:0:
114,226,190615,2,0,L|136:161,1,68.75,4|0,0:3|0:0,0:0:0:0:
233,154,190813,2,0,L|195:1,1,137.5,4|0,1:2|0:0,0:0:0:0:
338,5,191109,1,0,3:0:0:0:
311,39,191207,6,0,L|466:79,1,131.99999597168,0|0,1:0|0:0,0:0:0:0:
512,171,191493,1,8,3:0:0:0:
512,171,191589,2,0,L|377:201,1,131.99999597168,2|0,0:3|0:0,0:0:0:0:
275,286,191875,1,8,0:3:0:0:
275,286,191971,2,0,L|410:316,1,131.99999597168,0|0,1:3|0:0,0:0:0:0:
199,349,192353,1,2,3:0:0:0:
177,377,192449,1,8,3:0:0:0:
128,382,192544,6,0,L|96:178,1,181.500005538941,0|0,1:3|0:0,0:0:0:0:
187,187,192922,2,0,L|200:41,1,121.000003692627,0|0,1:0|0:0,0:0:0:0:
265,0,193203,2,0,L|228:109,1,110,0|0,1:0|0:0,0:0:0:0:
272,173,193485,2,0,L|361:102,1,110,0|0,1:0|0:0,0:0:0:0:
482,212,193860,2,0,L|364:201,1,98.9999969787599,2|0,1:3|0:0,0:0:0:0:
327,338,194235,6,0,L|386:309,1,49.4999984893799,0|0,1:0|0:0,0:0:0:0:
388,349,194429,2,0,L|460:376,1,49.4999984893799,0|0,1:0|0:0,0:0:0:0:
508,314,194624,2,0,L|436:341,3,49.4999984893799,0|2|0|2,1:0|0:3|1:0|0:3,0:0:0:0:
285,369,195014,1,2,0:3:0:0:
282,351,195111,1,2,0:3:0:0:
288,323,195209,1,2,0:3:0:0:
291,305,195306,1,2,0:3:0:0:
271,262,195403,1,2,0:3:0:0:
323,160,195595,6,0,L|343:69,1,49.4999984893799,4|0,1:2|0:0,0:0:0:0:
207,61,195979,2,0,L|188:-2,1,49.4999984893799,4|0,1:2|0:0,0:0:0:0:
400,220,196363,2,0,L|447:58,1,148.49999546814,4|0,1:2|0:0,0:0:0:0:
377,9,196748,2,0,L|396:86,1,49.4999984893799,2|2,3:0|0:3,0:0:0:0:
349,108,196940,2,0,L|356:57,3,49.4999984893799,2|2|4|4,0:3|0:3|0:3|0:3,0:0:0:0:
289,11,197325,1,4,0:3:0:0:
256,192,197421,12,0,202325,0:0:0:0:
