osu file format v14

[General]
AudioFilename: audio.mp3
AudioLeadIn: 0
PreviewTime: 61283
Countdown: 0
SampleSet: Soft
StackLeniency: 0.2
Mode: 0
LetterboxInBreaks: 0
WidescreenStoryboard: 0

[Editor]
DistanceSpacing: 1
BeatDivisor: 4
GridSize: 32
TimelineZoom: 2.100005

[Metadata]
Title:Sounan
TitleUnicode:遭難
Artist:Tokyo Jihen
ArtistUnicode:東京事変
Creator:Uberzolik
Version:AIR's Insane
Source:
Tags:椎名林檎 incidents sheena shiina ringo loneight l1106188 syameimaru-aya axaptice AIR
BeatmapID:2033671
BeatmapSetID:967321

[Difficulty]
HPDrainRate:5
CircleSize:4
OverallDifficulty:8
ApproachRate:9
SliderMultiplier:1.8
SliderTickRate:1

[Events]
//Background and Video events
0,0,"p70132032.jpg",0,0
//Break Periods
2,74458,79032
//Storyboard Layer 0 (Background)
//Storyboard Layer 1 (Fail)
//Storyboard Layer 2 (Pass)
//Storyboard Layer 3 (Foreground)
//Storyboard Layer 4 (Overlay)
//Storyboard Sound Samples

[TimingPoints]
424,377.358490566038,4,2,1,80,1,0
1178,389.61038961039,4,2,1,80,1,0
2736,384.615384615385,4,2,1,80,1,0
5819,387.096774193548,4,2,1,70,1,0
5819,-100,4,2,1,70,0,0
6593,375,4,2,1,100,1,0
7343,384.615384615385,4,2,1,100,1,0
8112,379.746835443038,4,2,1,100,1,0
10390,389.61038961039,4,2,1,100,1,0
11169,384.615384615385,4,2,1,100,1,0
12707,394.736842105263,4,2,1,100,1,0
13496,375,4,2,1,100,1,0
14246,384.615384615385,4,2,1,100,1,0
16553,379.746835443038,4,2,1,100,1,0
17312,379.746835443038,4,2,1,100,1,0
18071,389.61038961039,4,2,1,100,1,0
18850,389.61038961039,4,2,1,100,1,0
19239,-166.666666666667,4,2,2,70,0,0
20408,384.615384615385,4,2,2,70,1,0
20984,-166.666666666667,4,2,2,70,0,0
21946,382.165605095541,4,2,2,70,1,0
22328,-166.666666666667,4,2,2,70,0,0
23474,389.61038961039,4,2,2,70,1,0
24058,-166.666666666667,4,2,2,70,0,0
24642,370.37037037037,4,2,2,70,1,0
25012,387.096774193548,4,2,2,70,1,0
25786,-166.666666666667,4,2,2,70,0,0
26560,382.165605095541,4,2,2,70,1,0
26751,-166.666666666667,4,2,2,70,0,0
28088,392.156862745098,4,2,2,70,1,0
28872,372.670807453416,4,2,2,70,1,0
29617,402.684563758389,4,2,2,70,1,0
29617,-166.666666666667,4,2,2,70,0,0
30019,-166.666666666667,4,2,2,70,0,0
30422,373.831775700935,4,2,2,100,1,0
30795,392.156862745098,4,2,2,100,1,0
30795,-166.666666666667,4,2,2,100,0,0
31187,397.350993377483,4,2,2,80,1,0
31187,-100,4,2,2,80,0,0
31584,372.670807453416,4,2,2,80,1,0
32329,394.736842105263,4,2,2,80,1,0
32723,387.096774193548,4,2,2,80,1,0
33497,377.358490566038,4,2,2,80,1,0
34251,384.615384615385,4,2,2,80,1,0
35789,392.156862745098,4,2,2,80,1,0
36573,382.165605095541,4,2,2,80,1,0
36764,-100,4,2,1,80,0,0
36955,-100,4,2,2,80,0,0
37337,382.165605095541,4,2,2,80,1,0
38865,408.163265306122,4,2,2,80,1,0
39273,368.098159509202,4,2,2,80,1,0
39643,377.358490566038,4,2,2,80,1,0
40397,389.61038961039,4,2,2,80,1,0
40591,-100,4,2,1,80,0,0
40786,-100,4,2,2,80,0,0
41955,382.165605095541,4,2,2,80,1,0
42337,-125,4,2,2,80,0,0
43101,412.371134020619,4,2,2,90,1,0
43101,-125,4,2,2,90,0,0
43513,379.746835443038,4,2,1,80,1,0
43513,-125,4,2,1,80,0,0
44272,375,4,2,2,80,1,0
44272,-125,4,2,2,80,0,0
45022,379.746835443038,4,2,2,80,1,0
45781,389.61038961039,4,2,1,85,1,0
45781,-125,4,2,1,85,0,0
45878,-125,4,2,2,85,0,0
46073,-125,4,2,1,85,0,0
46560,379.746835443038,4,2,2,80,1,0
46560,-125,4,2,2,80,0,0
48078,400,4,2,2,100,1,0
48278,-125,4,2,1,100,0,0
48878,384.615384615385,4,2,2,80,1,0
48878,-125,4,2,2,80,0,0
49070,-125,4,2,2,70,0,0
49647,384.615384615385,4,2,2,100,1,1
49647,-100,4,2,2,100,0,1
71185,372.670807453416,4,2,2,100,1,1
71930,389.61038961039,4,2,2,100,1,1
72709,389.61038961039,4,2,2,100,1,1
73877,381.558028616852,4,2,2,100,1,1
74258,384.615384615385,4,2,2,100,1,0
74258,-100,4,2,2,100,0,0
78873,379.746835443038,4,2,1,100,1,0
79632,-100,4,2,2,100,0,0
80012,389.61038961039,4,2,2,100,1,0
80401,389.61038961039,4,2,2,100,1,0
81375,-100,4,2,1,80,0,0
81569,-100,4,2,2,80,0,0
81959,384.615384615385,4,2,2,80,1,0
82920,-100,4,2,1,80,0,0
83112,-100,4,2,2,80,0,0
84459,-100,4,2,1,80,0,0
84651,-100,4,2,2,80,0,0
85997,-100,4,2,1,80,0,0
86189,-100,4,2,2,90,0,0
87535,-100,4,2,1,90,0,0
87728,-100,4,2,2,90,0,0
89074,-100,4,2,1,90,0,0
89266,-100,4,2,2,90,0,0
90420,-100,4,2,2,100,0,0
91959,-100,4,2,2,80,0,0
92728,-100,4,2,2,100,0,0
93497,-100,4,2,1,100,0,0
93593,-100,4,2,2,100,0,0
93880,363.636363636364,4,2,2,100,1,0
94243,384.615384615385,4,2,2,90,1,0
95012,-100,4,2,2,80,0,0
95781,-100,4,2,2,100,0,0
96550,-100,4,2,1,100,0,0
96646,-100,4,2,2,100,0,0
97319,389.61038961039,4,2,2,100,1,0
98877,382.165605095541,4,2,2,100,1,1
98877,-100,4,2,2,100,0,1
101934,384.615384615385,4,2,2,100,1,1
103472,389.61038961039,4,2,1,100,1,1
103472,-100,4,2,1,100,0,1
103666,-100,4,2,2,100,0,1
105030,379.746835443038,4,2,2,100,1,1
105789,-100,4,2,1,100,0,1
105979,-100,4,2,2,100,0,1
106359,384.615384615385,4,2,2,100,1,1
106935,383.754397185801,4,2,2,100,1,1
107990,-100,4,2,2,100,0,1
108086,384.615384615385,4,2,2,100,1,1
108278,-100,4,2,2,80,0,1
109240,-100,4,2,2,100,0,1
112701,-100,4,2,1,100,0,1
112894,-100,4,2,2,100,0,1
114048,-100,4,2,1,100,0,1
114144,-100,4,2,2,100,0,1
115778,389.61038961039,4,2,1,100,1,1
115778,-100,4,2,1,100,0,1
115973,-100,4,2,2,100,0,1
117336,384.615384615385,4,2,2,100,1,1
118105,375,4,2,1,100,1,1
118105,-100,4,2,1,100,0,1
118292,-100,4,2,2,100,0,1
118667,384.615384615385,4,2,2,100,1,1
119243,383.386581469649,4,2,2,100,1,1
120393,384.615384615385,4,2,2,100,1,1
121162,393.44262295082,4,2,2,100,1,1
121752,375,4,2,2,100,1,1
122127,392.156862745098,4,2,2,100,1,1
122519,400,4,2,2,100,1,1
122919,387.096774193548,4,2,2,100,1,1
123499,379.746835443038,4,2,2,100,1,1
125017,387.096774193548,4,2,2,100,1,1
126178,379.746835443038,4,2,2,100,1,1
126557,375,4,2,2,100,1,0
126557,-166.666666666667,4,2,2,100,0,0
126932,405.405405405405,4,2,2,100,1,0
127337,-166.666666666667,4,2,1,100,0,0
128148,379.746835443038,4,2,1,100,1,0
128148,-166.666666666667,4,2,1,100,0,0
128907,359.281437125748,4,2,2,100,1,1
128907,-100,4,2,2,100,0,1
129625,384.615384615385,4,2,2,100,1,1
130971,389.61038961039,4,2,2,100,1,1
131555,397.350993377483,4,2,2,100,1,1
131952,379.746835443038,4,2,2,100,1,1
132711,379.746835443038,4,2,2,100,1,1
133186,-100,4,2,2,60,0,1
133282,-100,4,2,2,70,0,1
133470,394.736842105263,4,2,2,50,1,1
133470,-100,4,2,2,50,0,1
133568,-100,4,2,2,60,0,1
133667,-100,4,2,2,70,0,1
133763,-100,4,2,2,80,0,1
133859,-100,4,2,2,90,0,1
134062,-98.0392156862745,4,2,2,100,0,1
134259,375,4,2,2,100,1,1
134821,-102.564102564103,4,2,2,90,0,1
135009,392.156862745098,4,2,2,100,1,1
135793,382.165605095541,4,2,2,100,1,1
135793,-100,4,2,2,100,0,1
137321,-100,4,2,1,100,0,1
137512,-100,4,2,2,100,0,1
138659,-100,4,2,1,100,0,1
138850,394.736842105263,4,2,2,100,1,1
138850,-100,4,2,2,100,0,1
139639,375,4,2,2,100,1,1
140201,382.165605095541,4,2,2,100,1,1
140389,-100,4,2,1,100,0,1
140486,-100,4,2,2,100,0,1
140774,391.134289439374,4,2,2,100,1,1
141947,389.61038961039,4,2,2,100,1,1
142726,384.615384615385,4,2,2,100,1,1
143495,384.615384615385,4,2,2,100,1,1
146571,-100,4,2,2,100,0,0
146764,413.793103448276,4,2,2,100,1,0
147488,359.281437125748,4,2,2,100,1,0
147577,-100,4,2,1,100,0,0
147667,-100,4,2,2,100,0,0
147757,422.535211267606,4,2,2,100,1,0
147968,350.877192982456,4,2,2,100,1,0
148143,363.636363636364,4,2,2,100,1,0
148506,377.358490566038,4,2,2,100,1,0
148883,377.358490566038,4,2,2,100,1,0
149637,384.615384615385,4,2,2,100,1,0
151175,379.746835443038,4,2,2,100,1,0
152693,392.156862745098,4,2,2,100,1,0
154261,384.615384615385,4,2,2,100,1,0
155799,379.746835443038,4,2,2,100,1,0
157317,392.156862745098,4,2,2,100,1,0
158885,384.615384615385,4,2,2,100,1,0
159654,375,4,2,2,100,1,0
160404,394.736842105263,4,2,2,100,1,0
161193,379.746835443038,4,2,2,100,1,0
161952,375,4,2,2,100,1,0
162702,387.096774193548,4,2,2,100,1,0
163476,387.096774193548,4,2,2,100,1,0
165024,379.746835443038,4,2,2,100,1,0
165403,400,4,2,2,100,1,0
165803,375,4,2,2,100,1,0
166553,392.156862745098,4,2,2,100,1,0
167337,382.165605095541,4,2,2,100,1,0
168101,375,4,2,2,100,1,0
168851,382.165605095541,4,2,2,100,1,0
169615,392.156862745098,4,2,2,100,1,0
170399,372.670807453416,4,2,2,100,1,0
170774,379.746835443038,4,2,2,100,1,0
171158,379.746835443038,4,2,2,100,1,0
171917,389.61038961039,4,2,2,100,1,0
172696,392.156862745098,4,2,2,100,1,0
174264,384.615384615385,4,2,2,100,1,0
178879,377.358490566038,4,2,2,100,1,0
180199,-101.010101010101,4,2,2,100,0,0
180388,384.615384615385,4,2,2,100,1,0
181926,394.736842105263,4,2,2,100,1,0
183110,372.670807453416,4,2,2,100,1,0
183482,384.615384615385,4,2,2,100,1,0
186558,379.746835443038,4,2,2,100,1,0
187317,-100,4,2,2,90,0,0
187697,394.736842105263,4,2,2,80,1,0
187894,-100,4,2,2,70,0,0
188091,382.165605095541,4,2,2,70,1,0
188282,-100,4,2,2,65,0,0
188855,-100,4,2,2,60,0,0
189237,392.156862745098,4,2,2,60,1,0
189629,394.736842105263,4,2,2,60,1,0
191207,382.165605095541,4,2,2,50,1,0
191207,-100,4,2,2,50,0,0
192353,-100,4,2,2,40,0,0
192544,-100,4,2,2,35,0,0
192735,375,4,2,2,35,1,0
193860,-100,4,2,2,30,0,0
194235,389.61038961039,4,2,2,25,1,0
194235,-100,4,2,2,25,0,0
195403,384.615384615385,4,2,2,20,1,0
195787,384.615384615385,4,2,2,20,1,0

[Colours]
Combo1 : 255,192,255
Combo2 : 192,255,255
Combo3 : 192,255,192

[HitObjects]
232,214,5819,6,0,L|160:217,3,45,2|2|2|2,2:3|2:3|2:3|2:3,0:0:0:0:
287,213,6206,1,2,2:3:0:0:
331,211,6302,1,2,2:3:0:0:
375,210,6399,1,2,2:3:0:0:
420,209,6496,1,2,2:3:0:0:
464,208,6593,5,12,1:2:0:0:
3,146,6968,1,10,0:2:0:0:
506,88,7343,1,8,0:0:0:0:
423,291,7535,1,0,1:0:0:0:
432,116,7727,1,8,1:2:0:0:
505,284,7919,2,0,L|484:371,1,90,0|8,0:0|1:2,0:0:0:0:
351,254,8301,2,0,L|330:341,1,90,0|8,0:0|0:0,0:0:0:0:
179,317,8681,2,0,P|169:268|163:331,1,180,4|0,0:0|1:0,0:0:0:0:
219,174,9251,2,0,P|237:115|216:94,1,90,10|0,0:0|1:2,0:0:0:0:
270,11,9630,5,14,0:0:0:0:
285,372,10010,1,8,0:0:0:0:
159,19,10390,1,10,0:0:0:0:
390,49,10584,1,0,1:2:0:0:
204,89,10779,1,10,0:0:0:0:
419,120,10974,2,0,L|306:133,1,90,0|12,1:0|0:0,0:0:0:0:
270,11,11361,2,0,L|359:0,2,90,0|10|0,0:0|0:0|1:2,0:0:0:0:
255,178,11938,5,10,2:3:0:0:
300,179,12034,1,2,2:3:0:0:
344,181,12130,1,2,2:3:0:0:
255,178,12322,5,10,2:3:0:0:
300,179,12419,1,2,2:3:0:0:
344,181,12515,1,2,2:3:0:0:
388,183,12611,1,2,2:3:0:0:
433,185,12707,5,14,1:2:0:0:
433,185,12904,1,2,0:0:0:0:
177,173,13101,1,10,0:0:0:0:
177,173,13299,1,2,0:0:0:0:
88,249,13496,1,10,0:0:0:0:
114,104,13683,1,0,1:2:0:0:
88,249,13871,1,10,0:2:0:0:
114,104,14058,1,0,1:2:0:0:
168,259,14246,6,0,L|187:360,1,90,8|0,1:2|0:0,0:0:0:0:
88,249,14630,1,8,0:0:0:0:
114,104,14822,2,0,P|139:66|84:98,1,180,4|0,1:2|1:2,0:0:0:0:
308,7,15399,2,0,L|199:25,1,90,10|0,0:0|1:0,0:0:0:0:
8,23,15784,5,14,1:2:0:0:
40,173,15976,1,2,0:0:0:0:
40,173,16169,1,10,0:0:0:0:
210,135,16361,1,2,1:2:0:0:
210,135,16553,1,8,0:0:0:0:
346,229,16742,1,0,1:2:0:0:
346,229,16932,1,8,0:2:0:0:
311,139,17122,2,0,L|400:130,1,90,0|12,1:0|1:2,0:0:0:0:
270,278,17501,2,0,L|180:286,2,90,0|8|0,1:0|0:0|1:0,0:0:0:0:
132,167,18071,5,2,0:3:0:0:
87,161,18168,1,2,0:3:0:0:
42,154,18265,1,2,0:3:0:0:
42,154,18460,5,2,3:0:0:0:
87,161,18558,1,2,0:3:0:0:
132,167,18655,1,2,0:3:0:0:
175,173,18752,1,2,3:0:0:0:
220,180,18850,5,12,1:2:0:0:
32,372,19239,2,0,L|98:353,1,53.9999983520508,0|0,3:0|0:0,0:0:0:0:
85,247,19629,1,0,3:0:0:0:
33,261,19824,2,0,L|99:242,1,53.9999983520508,0|0,3:0|0:0,0:0:0:0:
0,91,20213,1,0,3:0:0:0:
485,189,20600,1,0,3:0:0:0:
322,49,20984,2,0,L|202:35,1,107.999996704102,0|0,3:0|3:0,0:0:0:0:
337,136,21561,1,0,3:2:0:0:
403,86,21754,1,0,3:0:0:0:
403,86,21850,1,0,3:0:0:0:
403,86,21946,5,0,1:2:0:0:
345,354,22328,2,0,L|275:347,1,53.9999983520508,0|0,3:0|0:0,0:0:0:0:
465,286,22710,1,0,3:2:0:0:
465,286,22901,2,0,L|395:279,1,53.9999983520508,0|0,3:2|3:2,0:0:0:0:
506,197,23283,1,0,3:2:0:0:
14,255,23668,1,0,3:0:0:0:
202,171,24058,2,0,L|332:154,1,107.999996704102,0|0,3:0|3:0,0:0:0:0:
139,113,24642,1,0,3:2:0:0:
123,196,24827,1,0,3:0:0:0:
123,196,24919,1,0,3:0:0:0:
123,196,25012,5,0,1:2:0:0:
392,146,25399,1,0,3:2:0:0:
139,113,25786,2,0,L|75:109,1,53.9999983520508,0|0,3:2|3:2,0:0:0:0:
207,54,26173,1,0,3:2:0:0:
248,123,26366,1,0,3:2:0:0:
248,123,26463,1,0,3:0:0:0:
248,123,26560,5,0,1:2:0:0:
250,198,26751,2,0,L|325:205,1,53.9999983520508,0|0,3:0|0:0,0:0:0:0:
255,278,27133,2,0,L|139:294,1,107.999996704102,0|0,3:0|3:0,0:0:0:0:
269,355,27706,1,0,3:2:0:0:
346,318,27897,1,0,3:2:0:0:
346,318,27993,1,0,3:0:0:0:
346,318,28088,5,0,1:2:0:0:
81,223,28480,1,0,3:2:0:0:
436,177,28872,1,0,3:2:0:0:
363,137,29058,1,0,3:2:0:0:
479,116,29244,1,0,3:2:0:0:
467,248,29431,1,0,3:2:0:0:
366,224,29617,6,0,L|297:235,1,53.9999983520508,0|0,1:2|0:0,0:0:0:0:
158,65,30019,2,0,L|228:55,1,53.9999983520508,2|0,1:3|0:0,0:0:0:0:
84,131,30422,1,4,0:3:0:0:
74,105,30515,1,4,0:3:0:0:
64,79,30608,1,4,0:3:0:0:
88,224,30795,2,0,L|75:282,1,53.9999983520508,4|0,0:3|0:0,0:0:0:0:
181,176,31187,5,4,0:3:0:0:
181,176,31584,2,0,L|283:190,1,90,4|2,0:3|0:3,0:0:0:0:
392,91,31956,1,4,0:3:0:0:
314,33,32143,1,0,0:0:0:0:
396,169,32329,1,4,0:3:0:0:
392,91,32526,2,0,L|279:116,1,90,4|8,0:3|0:3,0:0:0:0:
503,244,32916,2,0,L|390:269,1,90,4|0,0:3|0:0,0:0:0:0:
495,124,33303,1,2,0:3:0:0:
336,235,33497,1,4,0:3:0:0:
229,74,33685,2,0,L|116:99,1,90,4|4,3:0|0:3,0:0:0:0:
299,20,34063,1,8,0:3:0:0:
299,20,34157,1,8,3:0:0:0:
299,20,34251,5,4,1:3:0:0:
215,160,34443,1,0,1:3:0:0:
280,315,34635,1,4,0:3:0:0:
137,185,34827,1,2,0:3:0:0:
297,240,35020,1,4,0:3:0:0:
55,184,35212,1,4,3:0:0:0:
215,160,35404,1,4,0:3:0:0:
100,262,35597,2,0,L|195:280,1,90,4|0,0:3|0:3,0:0:0:0:
55,184,35985,2,0,L|150:202,1,90,4|4,3:0|0:3,0:0:0:0:
323,278,36377,2,0,L|412:262,1,90,2|0,0:3|0:0,0:0:0:0:
505,177,36764,1,4,0:3:0:0:
359,361,36955,1,4,0:3:0:0:
276,203,37146,1,4,0:3:0:0:
276,203,37241,1,4,0:3:0:0:
276,203,37337,5,4,1:3:0:0:
192,143,37528,2,0,L|182:37,1,90,0|0,1:3|0:0,0:0:0:0:
349,97,37910,2,0,L|357:186,1,90,2|0,1:3|0:3,0:0:0:0:
112,152,38292,1,0,0:0:0:0:
266,84,38483,1,4,0:3:0:0:
58,97,38674,1,4,0:3:0:0:
58,97,38770,1,4,0:3:0:0:
58,97,38865,5,4,0:3:0:0:
112,152,39069,2,0,L|93:251,1,90,0|0,1:3|0:3,0:0:0:0:
255,244,39457,2,0,L|255:343,1,90,2|0,0:3|0:3,0:0:0:0:
400,152,39831,2,0,L|419:251,1,90,4|0,3:0|0:0,0:0:0:0:
290,138,40209,1,4,0:3:0:0:
504,37,40397,5,4,0:3:0:0:
490,118,40591,1,2,3:2:0:0:
345,82,40786,1,8,0:3:0:0:
425,72,40981,1,2,0:3:0:0:
221,44,41176,1,8,0:3:0:0:
141,52,41371,1,8,0:3:0:0:
141,52,41468,1,8,0:3:0:0:
141,52,41565,1,4,0:3:0:0:
310,12,41760,1,4,0:3:0:0:
221,44,41955,2,0,L|206:144,1,90,4|0,0:2|0:0,0:0:0:0:
113,240,42337,6,0,P|56:254|118:207,1,216,0|0,3:0|0:0,0:0:0:0:
123,194,43005,1,2,0:0:0:0:
134,196,43101,2,0,L|32:210,1,72,2|0,0:0|0:0,0:0:0:0:
248,249,43513,6,0,L|414:268,1,144,4|2,0:0|0:0,0:0:0:0:
391,265,44082,1,0,0:0:0:0:
395,348,44272,2,0,P|343:352|362:297,1,108,0|0,3:0|0:0,0:0:0:0:
391,265,44647,2,0,B|420:252|414:226|414:226|438:210|433:175|433:175|456:164|463:138,1,144,2|4,0:0|0:0,0:0:0:0:
458,150,45211,1,0,0:0:0:0:
495,250,45401,1,4,0:0:0:0:
326,204,45591,1,0,0:0:0:0:
365,68,45781,2,0,L|312:74,3,36,2|4|4|2,0:3|0:3|0:3|0:0,0:0:0:0:
271,77,46170,1,2,0:3:0:0:
235,79,46268,1,2,0:3:0:0:
199,81,46365,1,2,0:3:0:0:
162,84,46462,1,2,0:3:0:0:
126,87,46560,5,4,0:2:0:0:
125,324,46939,1,0,3:0:0:0:
144,204,47129,1,0,3:0:0:0:
126,87,47319,2,0,P|85:135|114:184,1,108,0|0,3:0|0:0,0:0:0:0:
144,204,47699,2,0,P|159:244|74:237,1,144,2|0,1:2|0:0,0:0:0:0:
82,262,48278,1,2,0:3:0:0:
205,149,48478,2,0,L|259:142,1,36,2|2,0:3|0:3,0:0:0:0:
313,305,48878,2,0,L|357:298,1,36,2|2,0:3|0:3,0:0:0:0:
393,219,49070,2,0,L|357:224,1,36,4|4,0:3|0:3,0:0:0:0:
276,140,49262,1,4,0:3:0:0:
311,137,49358,1,4,0:3:0:0:
346,134,49454,1,4,0:3:0:0:
382,131,49551,1,4,0:3:0:0:
426,128,49647,5,0,0:0:0:0:
426,128,49839,1,4,0:3:0:0:
227,64,50031,1,2,0:3:0:0:
227,64,50223,1,8,3:0:0:0:
182,62,50320,1,8,3:0:0:0:
137,60,50416,1,8,1:3:0:0:
310,29,50608,1,0,0:0:0:0:
227,64,50800,2,0,P|203:24|235:6,1,90,2|4,0:3|0:3,0:0:0:0:
175,197,51185,5,0,1:0:0:0:
175,197,51377,1,4,0:3:0:0:
220,200,51473,1,8,3:0:0:0:
264,203,51570,1,2,0:3:0:0:
106,155,51762,2,0,L|8:171,2,90,0|8|4,1:0|0:3|0:3,0:0:0:0:
199,297,52339,2,0,L|287:282,1,90,2|0,0:3|1:0,0:0:0:0:
345,317,52627,1,8,0:3:0:0:
359,309,52723,6,0,B|407:299|407:299|325:262,1,135,4|0,0:2|0:0,0:0:0:0:
332,202,53108,2,0,L|346:109,1,90,2|4,0:3|0:3,0:0:0:0:
266,36,53493,1,4,0:0:0:0:
83,89,53685,1,2,0:3:0:0:
128,94,53781,1,8,3:0:0:0:
173,100,53877,1,0,3:2:0:0:
266,36,54070,1,4,0:3:0:0:
83,89,54262,5,4,0:2:0:0:
64,182,54454,2,0,L|163:169,2,90,0|0|8,1:0|0:0|3:0,0:0:0:0:
0,189,54935,1,8,0:3:0:0:
33,247,55031,1,4,0:3:0:0:
96,244,55127,1,8,0:3:0:0:
132,197,55223,1,4,0:3:0:0:
112,137,55320,1,8,0:3:0:0:
64,182,55416,1,2,0:3:0:0:
255,253,55608,1,0,1:0:0:0:
448,182,55800,5,4,1:2:0:0:
448,182,55993,1,4,0:3:0:0:
255,128,56185,1,2,0:3:0:0:
378,229,56377,1,8,3:0:0:0:
360,186,56473,1,8,0:3:0:0:
369,142,56570,1,8,0:3:0:0:
402,111,56666,1,8,0:3:0:0:
446,104,56762,1,8,0:3:0:0:
448,182,56954,1,2,0:3:0:0:
255,128,57147,6,0,L|165:138,2,90,0|0|4,1:0|0:0|0:3,0:0:0:0:
306,27,57723,1,2,0:3:0:0:
105,28,57916,2,0,L|221:49,1,90,0|8,3:0|0:3,0:0:0:0:
130,212,58300,1,8,0:3:0:0:
230,204,58493,2,0,L|346:225,1,90,2|8,0:3|0:3,0:0:0:0:
373,181,58781,1,8,0:3:0:0:
381,187,58877,6,0,B|428:172|428:172|410:211,1,90,4|0,0:0|3:0,0:0:0:0:
130,212,59262,2,0,L|110:121,1,90,2|4,0:3|0:3,0:0:0:0:
3,105,59647,1,4,0:2:0:0:
67,266,59839,1,8,0:3:0:0:
42,303,59935,1,8,0:3:0:0:
18,341,60031,1,2,0:3:0:0:
45,187,60223,2,0,L|201:211,1,135,4|0,1:2|0:0,0:0:0:0:
110,207,60608,2,0,L|266:231,1,135,4|0,1:2|0:0,0:0:0:0:
289,188,60993,2,0,L|103:207,1,180,4|2,1:2|3:0,0:0:0:0:
118,278,61473,5,2,3:0:0:0:
180,318,61570,1,2,3:0:0:0:
252,315,61666,1,2,3:0:0:0:
314,277,61762,1,2,3:0:0:0:
330,209,61858,1,2,3:0:0:0:
301,142,61954,6,0,P|260:93|341:90,2,180,4|2|4,0:0|0:3|0:3,0:0:0:0:
397,144,62916,1,4,0:3:0:0:
397,144,63012,1,0,0:0:0:0:
397,144,63108,1,2,0:3:0:0:
476,184,63300,1,4,0:3:0:0:
508,106,63493,5,0,1:0:0:0:
476,184,63685,2,0,L|468:278,1,90,4|2,0:3|0:3,0:0:0:0:
255,255,64070,2,0,L|256:155,1,90,8|0,0:3|0:0,0:0:0:0:
138,106,64454,1,4,0:3:0:0:
36,184,64647,2,0,L|44:278,1,90,2|0,0:3|1:0,0:0:0:0:
21,333,64935,1,8,3:0:0:0:
12,344,65031,6,0,B|75:364|75:364|152:331,1,135,4|0,0:2|0:0,0:0:0:0:
192,307,65416,2,0,B|237:317|237:317|184:329,1,90,2|4,0:3|0:3,0:0:0:0:
91,123,65800,2,0,L|195:109,1,90,4|0,0:0|0:0,0:0:0:0:
19,69,66185,1,2,0:3:0:0:
182,134,66377,1,4,0:3:0:0:
136,128,66473,1,8,3:0:0:0:
91,123,66570,5,4,0:3:0:0:
19,69,66762,2,0,P|46:31|0:35,1,90,0|2,1:0|0:3,0:0:0:0:
27,180,67147,1,8,0:3:0:0:
91,123,67339,2,0,L|243:138,1,135,4|0,0:3|0:0,0:0:0:0:
284,142,67723,1,2,0:3:0:0:
264,291,67916,1,4,0:3:0:0:
97,297,68108,5,4,0:0:0:0:
97,297,68300,1,0,0:0:0:0:
325,225,68493,1,2,0:3:0:0:
240,371,68685,1,8,0:3:0:0:
200,350,68781,1,8,0:3:0:0:
181,308,68877,1,8,1:3:0:0:
185,262,68973,1,8,0:3:0:0:
212,226,69070,1,8,0:3:0:0:
264,291,69262,1,0,0:0:0:0:
268,122,69454,6,0,P|221:85|234:24,2,90,0|0|4,1:0|0:0|0:3,0:0:0:0:
129,46,70031,1,2,0:3:0:0:
301,53,70223,2,0,L|394:47,1,90,0|8,1:0|0:3,0:0:0:0:
323,173,70608,1,4,0:3:0:0:
233,178,70800,2,0,L|326:172,1,90,2|0,1:3|0:0,0:0:0:0:
146,241,71185,5,4,0:0:0:0:
54,146,71371,1,2,0:3:0:0:
54,146,71464,1,2,0:3:0:0:
54,146,71557,1,2,0:3:0:0:
146,241,71744,2,0,L|239:235,1,90,8|8,0:3|0:3,0:0:0:0:
40,313,72124,2,0,L|133:307,1,90,8|4,0:3|0:3,0:0:0:0:
5,189,72514,5,0,1:2:0:0:
256,381,72903,1,4,0:0:0:0:
507,189,73293,1,4,0:0:0:0:
198,59,73683,5,8,3:0:0:0:
262,72,73780,1,2,3:0:0:0:
325,85,73877,1,2,3:0:0:0:
267,120,73972,1,2,3:0:0:0:
209,152,74067,1,2,3:0:0:0:
255,190,74163,1,2,3:0:0:0:
256,251,74258,1,4,0:3:0:0:
165,188,79632,6,0,P|176:191|162:169,3,45,8|8|4|4,0:3|0:3|0:3|0:3,0:0:0:0:
139,149,80012,1,8,0:3:0:0:
96,163,80109,1,8,0:3:0:0:
75,203,80206,1,4,0:3:0:0:
86,246,80304,1,4,0:3:0:0:
125,267,80401,5,4,0:2:0:0:
475,9,80790,1,4,0:3:0:0:
198,65,80985,1,2,0:3:0:0:
323,120,81180,1,4,0:3:0:0:
412,126,81375,2,0,L|293:118,1,90,2|4,0:2|0:3,0:0:0:0:
465,217,81764,2,0,P|511:213|476:180,1,90,4|4,0:3|1:3,0:0:0:0:
285,201,82151,2,0,P|313:152|324:89,1,90,0|4,0:0|0:3,0:0:0:0:
285,201,82535,1,2,0:3:0:0:
322,278,82728,2,0,P|295:209|260:190,1,90,4|2,0:3|0:2,0:0:0:0:
243,335,83112,1,4,0:3:0:0:
317,362,83305,1,4,0:3:0:0:
317,362,83401,1,0,0:0:0:0:
317,362,83497,5,4,1:3:0:0:
5,43,83882,1,4,0:3:0:0:
143,95,84074,1,2,0:3:0:0:
20,127,84266,1,4,0:3:0:0:
143,95,84459,2,0,L|57:64,1,90,2|4,0:2|0:3,0:0:0:0:
220,44,84843,2,0,L|331:15,1,90,4|4,0:3|1:3,0:0:0:0:
220,133,85228,2,0,L|200:238,1,90,0|4,0:0|0:3,0:0:0:0:
43,296,85612,2,0,P|19:281|65:257,1,90,2|4,0:3|0:3,0:0:0:0:
135,377,85997,1,2,0:2:0:0:
115,208,86189,1,4,0:3:0:0:
179,304,86382,1,4,0:3:0:0:
179,304,86478,1,0,0:0:0:0:
179,304,86574,5,4,1:3:0:0:
272,255,86766,2,0,L|388:270,1,90,0|4,0:0|0:3,0:0:0:0:
448,221,87151,2,0,L|266:256,1,180,2|2,0:3|0:2,0:0:0:0:
361,266,87728,1,4,0:3:0:0:
399,360,87920,1,4,0:3:0:0:
399,360,88016,1,0,0:0:0:0:
399,360,88112,1,4,1:3:0:0:
486,262,88305,2,0,P|486:220|440:231,1,90,0|4,3:0|0:3,0:0:0:0:
286,147,88689,2,0,P|227:120|306:104,1,180,2|2,0:3|0:2,0:0:0:0:
377,162,89266,1,4,0:3:0:0:
135,162,89459,1,4,0:3:0:0:
257,227,89651,5,4,1:3:0:0:
257,21,89843,1,0,3:0:0:0:
169,254,90035,1,0,1:0:0:0:
343,254,90228,1,2,0:3:0:0:
217,149,90420,1,4,0:3:0:0:
295,149,90612,1,8,0:3:0:0:
295,149,90709,1,8,0:3:0:0:
295,149,90805,1,8,0:3:0:0:
195,335,90997,1,8,0:3:0:0:
317,335,91189,6,0,L|421:349,1,90,0|0,1:0|0:0,0:0:0:0:
254,242,91574,2,0,L|146:262,1,90,0|0,1:0|0:0,0:0:0:0:
33,156,91959,1,2,0:3:0:0:
63,124,92055,1,2,0:3:0:0:
104,127,92151,1,2,0:3:0:0:
133,165,92247,1,2,0:3:0:0:
118,207,92343,1,2,0:3:0:0:
119,263,92439,1,2,0:3:0:0:
169,297,92535,1,2,0:3:0:0:
226,294,92632,1,2,0:3:0:0:
254,242,92728,5,4,0:2:0:0:
0,232,93112,1,2,0:3:0:0:
392,378,93497,2,0,P|379:333|421:370,1,135,8|0,0:3|0:0,0:0:0:0:
366,339,93880,2,0,P|332:309|324:242,1,90,2|0,1:3|0:0,0:0:0:0:
370,178,94243,1,4,1:2:0:0:
370,178,94435,2,0,L|249:194,1,90,8|8,0:3|0:3,0:0:0:0:
114,141,94819,1,8,0:3:0:0:
114,141,95012,5,8,0:3:0:0:
149,98,95108,1,8,0:3:0:0:
206,109,95204,1,4,0:3:0:0:
219,163,95300,1,4,0:3:0:0:
181,210,95396,5,8,0:3:0:0:
191,269,95493,1,8,0:3:0:0:
253,281,95589,1,4,0:3:0:0:
297,241,95685,1,4,0:3:0:0:
280,189,95781,5,4,1:2:0:0:
254,366,95973,1,0,0:0:0:0:
173,278,96166,2,0,P|153:291|186:285,1,90,2|0,0:3|0:0,0:0:0:0:
115,248,96454,1,2,0:3:0:0:
97,256,96550,2,0,L|1:278,1,90,2|4,0:2|0:3,0:0:0:0:
10,77,96935,2,0,L|112:80,1,90,2|0,1:3|0:0,0:0:0:0:
36,192,97319,6,0,P|10:176|16:89,1,90,4|4,0:0|0:3,0:0:0:0:
160,37,97708,2,0,P|186:53|180:140,1,90,8|2,0:3|0:3,0:0:0:0:
360,163,98098,1,4,1:3:0:0:
382,216,98195,1,2,0:3:0:0:
440,224,98293,1,2,1:3:0:0:
477,178,98390,1,2,0:3:0:0:
455,123,98487,1,2,1:3:0:0:
417,167,98585,1,2,0:3:0:0:
382,216,98682,1,2,1:3:0:0:
345,261,98780,1,2,0:3:0:0:
308,306,98877,5,4,1:2:0:0:
308,306,99068,1,4,3:0:0:0:
82,174,99259,1,2,0:3:0:0:
230,207,99450,1,8,3:0:0:0:
188,225,99545,1,8,3:0:0:0:
146,243,99641,1,8,1:3:0:0:
82,174,99832,1,4,0:3:0:0:
139,73,100023,2,0,L|39:65,1,90,2|4,3:0|3:0,0:0:0:0:
234,111,100405,5,0,1:0:0:0:
308,27,100596,1,4,3:0:0:0:
352,28,100692,1,8,3:0:0:0:
397,29,100787,1,2,3:0:0:0:
444,131,100978,2,0,P|383:177|343:91,1,180,0|4,1:0|0:3,0:0:0:0:
503,80,101552,1,2,0:3:0:0:
463,243,101743,1,0,1:0:0:0:
463,243,101838,1,8,3:0:0:0:
463,243,101934,6,0,P|478:222|403:126,1,135,4|0,1:2|0:0,0:0:0:0:
394,150,102318,2,0,P|362:152|351:81,1,90,2|0,0:3|0:0,0:0:0:0:
267,245,102703,2,0,L|280:360,1,90,4|0,1:2|0:0,0:0:0:0:
138,203,103087,1,2,0:3:0:0:
346,237,103280,1,4,0:3:0:0:
181,277,103472,1,2,0:2:0:0:
181,277,103666,2,0,L|194:392,1,90,4|2,1:3|0:3,0:0:0:0:
54,264,104056,1,4,0:3:0:0:
26,228,104153,1,4,3:0:0:0:
43,186,104251,1,8,1:3:0:0:
43,186,104446,1,4,3:0:0:0:
0,29,104640,1,2,0:3:0:0:
132,98,104835,1,8,1:3:0:0:
176,100,104933,1,8,1:3:0:0:
220,103,105030,6,0,L|345:109,1,90,4|4,1:2|0:3,0:0:0:0:
200,183,105409,2,0,L|75:189,1,90,2|0,0:3|0:0,0:0:0:0:
269,241,105789,2,0,L|394:247,1,90,2|4,2:0|0:3,0:0:0:0:
221,316,106169,1,2,0:3:0:0:
286,371,106359,1,8,1:3:0:0:
286,371,106454,1,8,3:0:0:0:
286,371,106551,5,0,0:0:0:0:
164,260,106743,2,0,P|138:305|164:361,1,90,4|2,0:3|0:3,0:0:0:0:
269,241,107126,2,0,L|259:35,1,180,0|4,1:0|0:3,0:0:0:0:
366,28,107702,1,2,1:3:0:0:
437,107,107894,1,8,0:3:0:0:
480,96,107990,1,8,0:3:0:0:
490,52,108086,5,4,1:2:0:0:
353,132,108278,1,2,0:3:0:0:
366,28,108470,1,2,0:3:0:0:
177,22,108662,1,2,0:3:0:0:
171,66,108759,1,2,0:3:0:0:
191,105,108855,1,2,0:3:0:0:
232,122,108951,1,2,0:3:0:0:
276,113,109047,1,6,0:3:0:0:
52,47,109239,1,6,0:3:0:0:
186,242,109432,6,0,L|26:268,1,135,4|0,1:2|0:0,0:0:0:0:
110,215,109817,2,0,L|268:254,1,135,4|0,1:2|0:0,0:0:0:0:
178,207,110201,2,0,L|-17:239,1,180,4|2,1:2|3:0,0:0:0:0:
46,177,110682,1,2,3:0:0:0:
77,108,110778,1,2,3:0:0:0:
91,32,110874,1,2,3:0:0:0:
69,101,110971,1,2,3:0:0:0:
70,174,111067,1,2,3:0:0:0:
118,233,111163,6,0,L|308:274,2,180,4|2|8,1:2|3:0|1:3,0:0:0:0:
207,338,112124,1,4,0:3:0:0:
207,338,112221,1,8,3:0:0:0:
207,338,112317,1,2,0:3:0:0:
121,369,112509,1,4,0:3:0:0:
199,136,112701,1,2,0:0:0:0:
280,166,112894,2,0,L|390:203,1,90,8|2,0:3|0:3,0:0:0:0:
512,92,113278,2,0,L|399:111,1,90,0|8,1:0|0:3,0:0:0:0:
199,136,113663,1,4,0:3:0:0:
280,166,113855,1,2,0:3:0:0:
192,35,114048,1,2,0:0:0:0:
147,39,114144,1,8,0:3:0:0:
102,43,114240,5,4,1:2:0:0:
102,43,114432,1,2,0:0:0:0:
302,77,114624,1,2,0:3:0:0:
236,202,114817,1,4,0:3:0:0:
280,205,114913,1,8,3:0:0:0:
324,208,115009,1,4,1:2:0:0:
324,208,115201,1,2,0:0:0:0:
132,280,115394,1,2,0:3:0:0:
278,315,115586,1,4,0:3:0:0:
278,315,115682,1,0,3:0:0:0:
278,315,115778,5,2,0:0:0:0:
132,280,115972,2,0,L|26:303,1,90,4|2,1:3|0:3,0:0:0:0:
8,161,116362,1,4,3:0:0:0:
42,131,116459,1,4,3:0:0:0:
85,120,116557,1,4,0:3:0:0:
129,125,116654,1,4,0:3:0:0:
168,146,116752,1,4,0:3:0:0:
84,213,116946,1,2,3:0:0:0:
21,60,117141,1,0,1:0:0:0:
21,60,117239,1,0,0:0:0:0:
21,60,117336,5,4,1:2:0:0:
491,151,117720,1,2,3:0:0:0:
99,365,118105,1,2,0:0:0:0:
197,348,118292,2,0,L|217:248,1,90,4|2,3:0|3:0,0:0:0:0:
306,183,118667,2,0,L|411:178,2,90,4|0|4,1:3|0:0|0:3,0:0:0:0:
341,271,119243,1,2,0:3:0:0:
215,135,119434,1,8,3:0:0:0:
169,131,119530,1,8,3:0:0:0:
124,127,119626,1,4,3:0:0:0:
79,124,119722,1,8,3:0:0:0:
34,121,119818,1,4,3:0:0:0:
201,47,120009,2,0,L|304:38,1,90,2|0,0:3|0:0,0:0:0:0:
370,128,120393,5,12,0:3:0:0:
382,171,120489,1,8,0:3:0:0:
375,215,120585,1,8,0:3:0:0:
348,251,120681,1,8,0:3:0:0:
305,267,120778,1,8,0:3:0:0:
260,259,120874,1,8,0:3:0:0:
226,228,120970,1,2,0:3:0:0:
210,185,121066,1,2,0:3:0:0:
254,193,121162,1,2,0:3:0:0:
298,186,121260,1,2,0:3:0:0:
336,163,121358,5,2,0:3:0:0:
132,242,121555,1,2,0:3:0:0:
338,368,121753,5,0,1:0:0:0:
25,135,122127,1,0,1:0:0:0:
390,0,122519,1,0,1:0:0:0:
197,300,122919,5,2,3:0:0:0:
262,282,123015,1,2,3:0:0:0:
329,262,123112,1,4,3:0:0:0:
274,229,123209,1,4,3:0:0:0:
216,197,123306,1,2,3:0:0:0:
258,146,123402,1,2,3:0:0:0:
263,80,123499,6,0,L|155:75,1,90,4|0,1:2|1:0,0:0:0:0:
342,174,123878,2,0,L|448:157,1,90,2|0,3:0|3:0,0:0:0:0:
216,197,124258,2,0,L|108:192,1,90,4|4,3:0|3:0,0:0:0:0:
253,335,124638,2,0,P|280:357|264:320,1,90,2|0,0:3|0:0,0:0:0:0:
161,341,125017,1,4,0:3:0:0:
280,319,125210,2,0,L|386:302,1,90,4|2,3:0|3:0,0:0:0:0:
200,239,125597,1,0,1:0:0:0:
200,239,125791,1,2,3:0:0:0:
174,201,125887,1,2,3:0:0:0:
132,184,125984,1,2,3:0:0:0:
87,185,126081,1,2,3:0:0:0:
47,207,126178,1,2,3:0:0:0:
114,288,126367,1,0,1:0:0:0:
181,100,126557,6,0,L|252:92,1,53.9999983520508,0|2,1:0|2:0,0:0:0:0:
234,93,126932,1,2,0:0:0:0:
97,36,127134,1,0,0:0:0:0:
150,29,127337,2,0,L|96:35,1,53.9999983520508,2|0,0:0|0:0,0:0:0:0:
274,125,127742,2,0,L|345:117,1,53.9999983520508,2|0,0:0|0:0,0:0:0:0:
248,245,128148,1,2,0:0:0:0:
248,245,128337,2,0,L|119:260,1,107.999996704102,2|0,0:0|0:0,0:0:0:0:
332,308,128907,5,0,1:2:0:0:
373,327,128996,1,0,0:0:0:0:
417,330,129086,1,8,0:3:0:0:
456,309,129176,1,8,0:3:0:0:
474,268,129266,1,2,3:0:0:0:
467,223,129356,1,2,3:0:0:0:
430,196,129445,1,8,3:0:0:0:
384,200,129535,1,8,3:0:0:0:
350,230,129625,6,0,P|402:200|475:67,1,180,4|2,1:2|0:3,0:0:0:0:
404,42,130201,1,0,0:0:0:0:
404,42,130298,1,8,3:0:0:0:
404,42,130394,1,4,3:0:0:0:
168,11,130586,1,4,3:0:0:0:
350,102,130778,1,2,0:3:0:0:
181,85,130971,2,0,L|49:102,2,90,8|0|4,3:0|0:0|0:3,0:0:0:0:
9,58,131555,1,2,0:3:0:0:
110,173,131753,1,0,3:0:0:0:
154,181,131853,1,8,3:0:0:0:
198,189,131952,1,4,0:3:0:0:
181,85,132141,1,4,0:3:0:0:
119,255,132331,2,0,L|272:288,1,135,2|0,1:3|0:0,0:0:0:0:
296,330,132711,6,0,P|329:297|299:246,1,90,4|8,1:2|3:0,0:0:0:0:
73,173,133090,1,8,3:0:0:0:
30,187,133185,1,2,3:0:0:0:
10,227,133280,1,2,3:0:0:0:
16,271,133375,1,2,0:3:0:0:
51,298,133470,2,0,L|115:290,1,45,2|2,3:0|3:0,0:0:0:0:
169,197,133667,2,0,L|235:190,1,45,2|2,3:0|3:0,0:0:0:0:
302,104,133864,1,2,3:0:0:0:
226,22,134062,6,0,L|390:37,1,135,2|0,1:3|0:3,0:0:0:0:
302,104,134446,2,0,L|477:121,1,135,2|0,1:3|0:3,0:0:0:0:
490,188,134821,2,0,L|302:224,1,180,2|0,1:3|0:3,0:0:0:0:
241,231,135303,1,4,0:3:0:0:
306,257,135401,1,2,3:0:0:0:
375,287,135499,1,2,3:0:0:0:
446,312,135597,1,2,3:0:0:0:
374,340,135695,1,2,3:0:0:0:
303,362,135793,6,0,P|356:292|288:214,2,180,4|2|4,1:2|0:3|1:3,0:0:0:0:
207,192,136748,1,4,0:3:0:0:
207,192,136843,1,8,3:0:0:0:
207,192,136939,1,2,1:3:0:0:
318,138,137130,1,4,0:3:0:0:
126,104,137321,1,2,0:0:0:0:
155,262,137512,2,0,L|54:271,1,90,8|2,3:0|0:3,0:0:0:0:
10,151,137894,2,0,L|111:182,2,90,0|0|8,1:0|0:0|3:0,0:0:0:0:
66,127,138372,1,8,3:0:0:0:
126,104,138468,1,2,3:0:0:0:
39,18,138659,1,2,0:0:0:0:
210,88,138850,6,0,P|288:124|359:92,1,135,4|0,1:2|0:0,0:0:0:0:
372,79,139244,2,0,P|405:48|466:53,1,90,2|4,3:0|3:0,0:0:0:0:
358,224,139639,1,4,1:2:0:0:
332,112,139826,2,0,P|273:91|242:51,1,90,0|2,1:0|0:3,0:0:0:0:
358,224,140201,2,0,L|344:327,2,90,4|2|4,1:3|1:2|1:3,0:0:0:0:
154,224,140774,2,0,L|168:327,1,90,2|0,1:3|0:0,0:0:0:0:
12,186,141165,1,4,0:3:0:0:
215,166,141360,1,4,0:3:0:0:
215,166,141458,1,8,3:0:0:0:
215,166,141556,1,2,1:3:0:0:
55,126,141751,1,4,0:3:0:0:
255,102,141947,6,0,P|298:131|292:257,1,180,4|2,1:2|0:3,0:0:0:0:
417,162,142531,1,4,0:3:0:0:
412,117,142629,1,8,0:3:0:0:
407,71,142726,1,0,3:0:0:0:
505,184,142918,2,0,L|492:274,1,90,4|2,3:0|3:0,0:0:0:0:
370,372,143302,2,0,L|385:265,1,90,4|0,3:0|0:0,0:0:0:0:
210,226,143687,2,0,L|97:246,1,90,4|2,0:3|0:3,0:0:0:0:
25,345,144071,1,8,1:3:0:0:
69,347,144168,1,8,0:3:0:0:
113,349,144264,1,8,0:3:0:0:
157,351,144360,1,8,0:3:0:0:
201,354,144456,1,4,3:0:0:0:
109,172,144648,2,0,L|14:185,1,90,2|0,1:3|0:0,0:0:0:0:
199,277,145033,5,4,0:2:0:0:
306,49,145225,1,4,0:3:0:0:
165,95,145418,1,2,0:3:0:0:
208,105,145514,1,8,0:3:0:0:
251,116,145610,1,8,1:3:0:0:
294,127,145706,1,8,0:3:0:0:
338,138,145802,1,8,3:0:0:0:
338,138,145995,1,4,3:0:0:0:
90,119,146187,1,2,3:0:0:0:
306,49,146379,1,4,1:2:0:0:
243,373,146764,6,0,P|218:338|268:364,1,135
245,272,147177,2,0,P|210:235|237:152,1,135
225,143,147577,2,0,L|108:160,1,90,2|0,0:0|0:0,0:0:0:0:
135,155,148143,6,0,L|333:183,1,180,4|2,1:2|0:3,0:0:0:0:
367,110,148694,1,4,0:3:0:0:
367,110,148883,1,4,0:3:0:0:
293,46,149071,1,8,0:3:0:0:
337,43,149166,1,8,0:3:0:0:
381,41,149260,1,2,0:3:0:0:
443,198,149449,1,4,0:3:0:0:
367,110,149637,2,0,L|475:122,1,90,0|4,1:2|0:3,0:0:0:0:
252,234,150021,2,0,L|360:246,1,90,2|0,0:3|3:0,0:0:0:0:
388,295,150310,1,8,0:3:0:0:
376,304,150406,2,0,L|281:318,1,90,4|4,0:3|0:3,0:0:0:0:
178,175,150790,2,0,L|83:189,1,90,6|4,0:3|0:3,0:0:0:0:
5,155,151175,5,4,1:2:0:0:
5,155,151364,1,2,0:0:0:0:
136,339,151554,1,2,0:3:0:0:
15,263,151744,1,8,0:3:0:0:
59,267,151839,1,8,0:3:0:0:
103,271,151934,1,4,1:2:0:0:
9,369,152124,1,2,0:0:0:0:
136,339,152314,2,0,L|235:327,1,90,2|8,0:3|0:3,0:0:0:0:
307,153,152693,5,4,0:3:0:0:
136,45,152889,2,0,L|235:57,1,90,4|2,0:3|0:3,0:0:0:0:
307,153,153281,1,2,1:3:0:0:
262,160,153379,1,8,0:3:0:0:
217,168,153477,1,8,0:3:0:0:
172,176,153575,1,8,0:3:0:0:
127,184,153673,1,4,0:3:0:0:
127,184,153869,1,2,1:3:0:0:
299,246,154065,1,8,0:3:0:0:
343,246,154163,1,8,0:3:0:0:
387,247,154261,5,4,1:2:0:0:
477,172,154453,2,0,L|499:74,1,90,8|2,1:3|0:3,0:0:0:0:
303,29,154837,1,8,3:0:0:0:
260,14,154934,1,8,0:3:0:0:
216,24,155030,1,8,0:3:0:0:
187,58,155126,1,8,0:3:0:0:
183,103,155222,1,4,0:3:0:0:
389,116,155414,2,0,L|411:18,1,90,2|0,1:3|1:0,0:0:0:0:
389,268,155799,6,0,L|411:366,1,90,4|0,1:3|0:0,0:0:0:0:
276,169,156178,1,2,0:3:0:0:
182,216,156368,1,8,0:3:0:0:
140,234,156463,1,8,0:3:0:0:
95,231,156558,1,8,0:3:0:0:
57,205,156653,1,8,0:3:0:0:
43,162,156748,1,4,0:3:0:0:
123,268,156938,2,0,L|101:366,1,90,2|8,0:3|0:3,0:0:0:0:
43,162,157317,6,0,P|84:201|174:189,1,135,0|0,1:0|0:0,0:0:0:0:
206,150,157709,1,2,0:3:0:0:
308,258,157905,1,8,0:3:0:0:
319,214,158003,1,8,0:3:0:0:
330,170,158101,1,8,0:3:0:0:
342,126,158199,1,8,0:3:0:0:
354,82,158297,1,12,0:3:0:0:
421,212,158493,2,0,L|513:212,1,90,2|0,1:3|0:2,0:0:0:0:
354,82,158885,5,0,1:0:0:0:
276,104,159077,1,0,1:0:0:0:
308,258,159269,5,0,1:0:0:0:
386,236,159461,1,0,1:0:0:0:
208,60,159654,1,2,3:0:0:0:
164,72,159747,1,2,3:0:0:0:
120,84,159841,1,4,3:0:0:0:
144,121,159935,1,4,3:0:0:0:
168,158,160029,1,8,3:0:0:0:
150,199,160122,1,8,3:0:0:0:
133,241,160216,1,4,3:0:0:0:
173,261,160310,1,4,3:0:0:0:
213,281,160404,5,4,1:2:0:0:
213,281,160601,1,4,0:3:0:0:
49,162,160798,1,2,0:3:0:0:
205,154,160996,1,8,0:3:0:0:
249,153,161094,1,8,0:3:0:0:
293,152,161193,1,8,0:3:0:0:
337,151,161287,1,8,0:3:0:0:
381,151,161382,1,4,0:3:0:0:
299,40,161572,2,0,L|176:36,1,90,4|0,1:3|0:0,0:0:0:0:
305,234,161952,5,4,1:2:0:0:
217,218,162139,1,8,0:3:0:0:
261,226,162233,1,8,0:3:0:0:
305,234,162327,1,2,0:3:0:0:
135,243,162514,1,4,3:0:0:0:
306,219,162702,1,4,3:0:0:0:
239,378,162895,1,4,0:3:0:0:
355,347,163089,2,0,P|407:311|465:315,1,90,2|0,1:3|0:0,0:0:0:0:
236,157,163476,6,0,P|163:146|121:112,1,90,4|0,1:3|0:0,0:0:0:0:
372,58,163863,1,2,1:3:0:0:
351,139,164056,1,0,0:0:0:0:
351,139,164153,1,8,3:0:0:0:
351,139,164250,1,0,1:0:0:0:
368,213,164443,1,4,1:3:0:0:
288,68,164637,1,2,0:3:0:0:
436,161,164830,1,0,1:0:0:0:
436,161,164927,1,8,3:0:0:0:
436,161,165024,5,4,1:3:0:0:
295,194,165213,1,0,0:0:0:0:
372,58,165403,1,2,0:3:0:0:
149,138,165603,2,0,L|44:151,1,90,0|0,1:0|0:0,0:0:0:0:
295,194,165990,1,4,3:0:0:0:
149,138,166178,2,0,L|44:151,1,90,2|0,1:3|0:0,0:0:0:0:
228,265,166553,6,0,L|334:291,1,90,4|0,1:3|0:0,0:0:0:0:
117,318,166945,1,2,0:3:0:0:
181,193,167141,1,2,0:3:0:0:
220,171,167239,1,8,0:3:0:0:
228,126,167337,1,8,0:3:0:0:
194,95,167432,1,8,0:3:0:0:
149,102,167528,1,4,3:0:0:0:
312,187,167719,1,2,0:3:0:0:
337,78,167910,2,0,L|431:53,1,90,4|0,0:3|0:0,0:0:0:0:
190,23,168288,6,0,L|86:14,1,90,0|0,1:0|0:0,0:0:0:0:
277,146,168663,1,2,0:3:0:0:
321,154,168757,1,8,0:3:0:0:
365,162,168851,1,8,3:0:0:0:
409,171,168946,1,8,0:3:0:0:
453,180,169042,1,8,0:3:0:0:
439,324,169233,2,0,L|347:340,1,90,2|4,1:3|3:0,0:0:0:0:
208,294,169615,6,0,B|105:243|134:368|2:299,1,180,4|0,1:2|0:0,0:0:0:0:
1,160,170203,1,8,0:3:0:0:
43,146,170301,1,8,3:0:0:0:
82,166,170399,1,2,0:3:0:0:
95,208,170492,1,2,0:3:0:0:
72,247,170585,1,4,0:3:0:0:
12,53,170774,2,0,L|119:59,1,90,2|0,0:3|0:0,0:0:0:0:
295,29,171153,5,2,0:3:0:0:
250,35,171252,1,2,0:3:0:0:
205,41,171347,1,2,0:3:0:0:
320,137,171537,1,2,0:3:0:0:
364,142,171632,1,2,0:3:0:0:
408,147,171727,1,2,0:3:0:0:
316,242,171917,1,2,0:3:0:0:
270,247,172014,1,2,0:3:0:0:
225,253,172111,1,4,0:3:0:0:
180,259,172209,1,4,0:3:0:0:
135,265,172306,1,8,0:3:0:0:
179,273,172404,1,8,0:3:0:0:
223,281,172501,1,4,0:3:0:0:
267,289,172598,1,4,0:3:0:0:
311,297,172696,5,4,0:0:0:0:
57,22,173088,1,0,1:0:0:0:
188,98,173284,1,8,0:3:0:0:
188,98,173382,1,8,0:3:0:0:
188,98,173480,1,4,1:2:0:0:
74,107,173676,1,4,0:3:0:0:
243,44,173872,2,0,L|372:69,1,90,2|0,1:3|0:0,0:0:0:0:
417,129,174264,6,0,L|361:138,3,45,4|8|8|0,1:2|0:3|0:3|0:3,0:0:0:0:
307,145,174648,2,0,L|379:164,1,45,2|0,0:3|0:0,0:0:0:0:
455,221,174840,2,0,L|370:238,1,45,2|0,1:3|0:0,0:0:0:0:
352,320,175033,2,0,L|454:359,1,90,0|0,1:0|0:0,0:0:0:0:
246,252,175417,1,2,1:3:0:0:
246,252,175610,1,8,0:3:0:0:
201,254,175706,1,8,0:3:0:0:
155,256,175802,5,8,1:3:0:0:
110,258,175898,1,4,0:3:0:0:
65,261,175994,1,4,0:3:0:0:
165,351,176187,1,0,1:0:0:0:
255,324,176379,1,4,1:3:0:0:
255,324,176475,1,8,0:3:0:0:
255,324,176571,1,8,0:3:0:0:
150,173,176764,1,0,0:3:0:0:
52,173,176956,2,0,L|-7:175,2,45,4|8|8,1:3|3:0|0:3,0:0:0:0:
150,173,177340,1,4,1:3:0:0:
148,80,177533,2,0,L|148:19,2,45,4|8|8,1:3|0:3|0:3,0:0:0:0:
150,173,177917,1,4,0:3:0:0:
250,170,178110,2,0,L|294:168,2,45,2|2|2,0:3|0:3|0:3,0:0:0:0:
150,173,178494,5,2,0:3:0:0:
123,244,178590,1,2,0:3:0:0:
160,308,178687,1,2,0:3:0:0:
232,326,178783,1,2,0:3:0:0:
296,291,178879,1,4,1:2:0:0:
442,200,179067,2,0,P|474:167|518:185,1,90,0|0,1:0|0:3,0:0:0:0:
305,127,179445,1,4,3:0:0:0:
305,127,179633,2,0,P|226:144|208:115,1,90,4|4,0:3|3:0,0:0:0:0:
162,144,179916,2,0,L|171:257,1,90,4|0,3:0|0:0,0:0:0:0:
171,263,180199,6,0,P|225:208|332:222,1,180,4|8,3:0|3:0,0:0:0:0:
162,144,180772,1,2,3:0:0:0:
321,214,180964,1,8,0:3:0:0:
306,171,181061,1,8,0:3:0:0:
292,128,181157,1,8,0:3:0:0:
277,85,181253,1,8,0:3:0:0:
264,41,181349,1,8,0:3:0:0:
394,83,181541,5,2,0:3:0:0:
178,56,181734,1,0,1:0:0:0:
178,56,181830,1,0,1:3:0:0:
178,56,181926,1,4,1:2:0:0:
264,41,182123,2,0,L|323:54,1,45,2|2,3:0|3:0,0:0:0:0:
292,128,182320,2,0,L|351:141,1,45,2|2,3:0|3:0,0:0:0:0:
277,85,182518,2,0,L|336:98,1,45,2|2,3:0|3:0,0:0:0:0:
306,171,182715,2,0,L|365:184,1,45,4|8,0:3|0:3,0:0:0:0:
234,244,182912,1,4,0:3:0:0:
190,254,183011,1,8,0:3:0:0:
146,264,183110,1,2,0:3:0:0:
102,275,183203,1,2,0:3:0:0:
58,286,183296,1,4,1:2:0:0:
36,176,183482,6,0,L|151:188,1,90,2|0,1:3|0:0,0:0:0:0:
133,352,183866,2,0,L|248:364,1,90,2|0,1:3|0:0,0:0:0:0:
343,308,184251,2,0,L|458:320,1,90,2|0,1:3|0:0,0:0:0:0:
333,131,184635,2,0,P|274:166|205:116,1,135,0|2,1:2|0:3,0:0:0:0:
183,93,185020,2,0,L|194:0,1,90,4|4,1:2|0:3,0:0:0:0:
273,89,185405,2,0,L|262:-4,1,90,2|0,0:3|0:0,0:0:0:0:
96,48,185789,2,0,L|108:138,1,90,4|0,0:3|0:0,0:0:0:0:
96,335,186174,2,0,L|108:246,1,90,2|0,1:3|0:0,0:0:0:0:
257,192,186558,2,0,L|365:191,1,90,4|0,0:3|0:0,0:0:0:0:
108,137,186937,2,0,L|214:139,1,90,2|0,1:3|0:0,0:0:0:0:
96,335,187317,2,0,L|202:333,1,90,0|0,1:0|0:0,0:0:0:0:
175,199,187697,5,4,3:0:0:0:
245,257,187894,1,0,1:0:0:0:
85,169,188091,1,4,3:0:0:0:
248,115,188282,1,8,1:3:0:0:
289,131,188377,1,8,1:3:0:0:
333,132,188473,1,8,0:3:0:0:
370,107,188568,1,8,0:3:0:0:
368,62,188664,1,8,0:3:0:0:
328,40,188759,1,8,0:3:0:0:
292,57,188855,5,0,1:0:0:0:
454,162,189046,1,0,1:0:0:0:
400,247,189237,2,0,L|405:300,1,45,4|0,1:3|0:0,0:0:0:0:
332,325,189433,2,0,L|335:382,1,45,4|0,1:3|0:0,0:0:0:0:
236,300,189629,5,2,0:3:0:0:
199,274,189727,1,2,0:3:0:0:
154,265,189826,1,4,0:3:0:0:
110,274,189925,1,4,0:3:0:0:
45,244,190023,1,2,0:3:0:0:
66,204,190122,1,2,0:3:0:0:
103,178,190221,1,4,0:3:0:0:
146,168,190319,1,4,0:3:0:0:
214,135,190418,1,2,0:3:0:0:
180,105,190517,1,4,0:3:0:0:
137,90,190615,1,4,0:3:0:0:
92,93,190714,1,4,0:3:0:0:
21,51,190813,6,0,P|57:18|110:0,1,90,4|0,1:2|0:0,0:0:0:0:
287,86,191207,2,0,P|251:119|198:137,1,90,0|0,1:0|0:0,0:0:0:0:
18,141,191589,2,0,P|54:108|107:90,1,90,0|0,1:0|0:0,0:0:0:0:
231,208,191971,2,0,P|195:241|142:259,1,90,0|0,1:3|0:0,0:0:0:0:
137,90,192353,1,2,3:0:0:0:
299,164,192544,2,0,L|403:175,1,90,0|0,1:3|0:0,0:0:0:0:
250,320,192922,2,0,L|354:331,1,90,0|0,1:0|0:0,0:0:0:0:
231,208,193297,1,0,1:0:0:0:
288,72,193485,2,0,L|84:92,1,180,0|2,1:0|1:3,0:0:0:0:
286,151,194047,1,4,0:3:0:0:
286,151,194141,1,4,3:0:0:0:
286,151,194235,1,0,1:0:0:0:
