osu file format v14

[General]
AudioFilename: audio.ogg
AudioLeadIn: 0
PreviewTime: 56662
Countdown: 0
SampleSet: Soft
StackLeniency: 0.7
Mode: 0
LetterboxInBreaks: 0
WidescreenStoryboard: 1

[Editor]
Bookmarks: 22780,58074,111721,154074,176662,196427
DistanceSpacing: 0.5
BeatDivisor: 4
GridSize: 4
TimelineZoom: 1.7

[Metadata]
Title:Kinjirareta Asobi
TitleUnicode:禁じられた遊び
Artist:Tokyo Jihen
ArtistUnicode:東京事変
Creator:-Mikan
Version:Collab Extra // Syph x Mikan
Source:
Tags:Jeux Interdits Sheena Ringo Yumiko Shiina Shina Tokyo Incidents japanese rock jrock j-rock 椎名 裕美子 林檎 大発見 Daihakken Discovery Bazz_B Bazz B Syph Xunni Cami ReiSevia Pache Knowledge Roda Totsuki
BeatmapID:3871651
BeatmapSetID:1614880

[Difficulty]
HPDrainRate:5
CircleSize:4
OverallDifficulty:8.3
ApproachRate:9
SliderMultiplier:1.8
SliderTickRate:1

[Events]
//Background and Video events
0,0,"bao-songyuan-.jpg",0,0
//Break Periods
2,154291,163902
//Storyboard Layer 0 (Background)
//Storyboard Layer 1 (Fail)
//Storyboard Layer 2 (Pass)
//Storyboard Layer 3 (Foreground)
//Storyboard Layer 4 (Overlay)
//Storyboard Sound Samples

[TimingPoints]
192,352.941176470588,4,2,1,50,1,0
22780,-100,4,2,2,60,0,0
25603,-125,4,2,2,60,0,0
26662,-333.333333333333,4,2,2,60,0,0
27015,-100,4,2,2,60,0,0
28427,-125,4,2,2,60,0,0
29839,-100,4,2,2,60,0,0
30544,-333.333333333333,4,2,2,60,0,0
31250,-125,4,2,2,60,0,0
32839,-100,4,2,2,60,0,0
34074,-125,4,2,2,60,0,0
35662,-100,4,2,2,60,0,0
56133,-100,4,2,2,70,0,0
56662,-100,4,2,2,50,0,0
57721,-333.333333333333,4,2,2,70,0,0
57985,-333.333333333333,4,2,2,5,0,0
58074,355.029585798817,4,2,1,80,1,0
58074,-86.9565217391304,4,2,1,80,0,0
60559,-181.818181818181,4,2,1,80,0,0
60914,-74.0740740740741,4,2,1,80,0,0
62156,-133.333333333333,4,2,1,80,0,0
62334,348.837209302326,4,2,1,80,1,0
62334,-68.9655172413793,4,2,1,80,0,0
62682,-86.9565217391304,4,2,1,80,0,0
63380,-181.818181818181,4,2,1,80,0,0
63729,-74.074074074074,4,2,1,80,0,0
64775,-86.9565217391304,4,2,1,80,0,0
65124,352.941176470588,4,2,1,80,1,0
65124,-68.9655172413793,4,2,1,80,0,0
65829,-133.333333333333,4,2,1,80,0,0
66182,-58.8235294117647,4,2,1,80,0,0
67241,-83.3333333333333,4,2,1,80,0,0
67947,-100,4,2,1,80,0,0
69359,-86.9565217391304,4,2,1,80,0,0
71829,-181.818181818181,4,2,1,80,0,0
72182,-76.9230769230769,4,2,1,80,0,0
73418,-100,4,2,1,80,0,0
73594,-66.6666666666667,4,2,1,80,0,0
73947,-100,4,2,1,80,0,0
74653,-181.818181818181,4,2,1,80,0,0
75006,-100,4,2,1,80,0,0
75359,-66.6666666666667,4,2,1,80,0,0
75712,-100,4,2,1,80,0,0
77476,-50,4,2,1,80,0,0
77834,352.941176470588,4,2,1,80,1,0
79069,-133.333333333333,4,2,1,80,0,0
80481,-133.333333333333,4,2,1,70,0,0
87539,-1000,4,2,1,70,0,0
88422,-1000,4,2,1,5,0,0
88780,352.941176470588,4,2,1,70,1,0
88780,-1000,4,2,1,70,0,0
89132,352.941176470588,4,2,1,60,1,0
89132,-100,4,2,1,60,0,0
99721,-76.9230769230769,4,2,1,60,0,0
100780,-100,4,2,1,60,0,0
109427,-83.3333333333333,4,2,1,60,0,0
110131,-285.714285714284,4,2,1,60,0,0
111102,-285.714285714284,4,2,1,5,0,0
111191,-285.714285714284,4,2,1,70,0,0
111367,-66.6666666666667,4,2,1,70,0,0
111631,-66.6666666666667,4,2,1,5,0,0
111720,-86.9565217391304,4,2,1,80,0,0
114190,-222.222222222222,4,2,1,80,0,0
114543,-86.9565217391304,4,2,1,80,0,0
117014,-222.222222222222,4,2,1,80,0,0
117368,-86.9565217391304,4,2,1,80,0,0
120190,348.837209302326,4,2,1,80,1,0
120887,-86.9565217391304,4,2,1,80,0,0
122283,359.281437125748,4,2,1,80,1,0
123015,352.941176470588,4,2,1,80,1,0
123015,-86.9565217391304,4,2,1,80,0,0
125485,-222.222222222222,4,2,1,80,0,0
125839,-86.9565217391304,4,2,1,80,0,0
128309,-222.222222222222,4,2,1,80,0,0
129015,-86.9565217391304,4,2,1,80,0,0
131486,-86.9565217391304,4,2,1,70,0,0
131750,-86.9565217391304,4,2,1,5,0,0
131839,-86.9565217391304,4,2,1,70,0,0
132456,-86.9565217391304,4,2,1,5,0,0
132544,-86.9565217391304,4,2,1,70,0,0
132897,348.837209302326,4,2,1,70,1,0
132897,-86.9565217391304,4,2,1,70,0,0
133158,-86.9565217391304,4,2,1,5,0,0
133245,-86.9565217391304,4,2,1,70,0,0
133856,-86.9565217391304,4,2,1,5,0,0
133943,-86.9565217391304,4,2,1,70,0,0
134292,352.941176470588,4,2,1,70,1,0
134292,-86.9565217391304,4,2,1,70,0,0
134556,-86.9565217391304,4,2,1,5,0,0
134644,-86.9565217391304,4,2,1,70,0,0
135262,-86.9565217391304,4,2,1,5,0,0
135350,-86.9565217391304,4,2,1,70,0,0
135968,-86.9565217391304,4,2,1,5,0,0
136056,-86.9565217391304,4,2,1,70,0,0
136674,-86.9565217391304,4,2,1,5,0,0
136762,-86.9565217391304,4,2,1,70,0,0
137380,-86.9565217391304,4,2,1,5,0,0
137468,-86.9565217391304,4,2,1,70,0,0
138086,-86.9565217391304,4,2,1,5,0,0
138174,-86.9565217391304,4,2,1,70,0,0
138792,-86.9565217391304,4,2,1,5,0,0
138880,-86.9565217391304,4,2,1,70,0,0
139497,-86.9565217391304,4,2,1,5,0,0
139586,-86.9565217391304,4,2,1,70,0,0
140203,-86.9565217391304,4,2,1,5,0,0
140292,-86.9565217391304,4,2,1,70,0,0
140556,-86.9565217391304,4,2,1,5,0,0
140644,-86.9565217391304,4,2,1,70,0,0
141350,357.142857142857,4,2,1,70,1,0
141350,-86.9565217391304,4,2,1,70,0,0
141617,-86.9565217391304,4,2,1,5,0,0
141707,-86.9565217391304,4,2,1,70,0,0
142778,348.837209302326,4,2,1,70,1,0
142778,-86.9565217391304,4,2,1,70,0,0
143039,-86.9565217391304,4,2,1,5,0,0
143126,-86.9565217391304,4,2,1,70,0,0
143737,-86.9565217391304,4,2,1,5,0,0
143824,-86.9565217391304,4,2,1,70,0,0
144434,-86.9565217391304,4,2,1,5,0,0
144522,-86.9565217391304,4,2,1,70,0,0
145132,-86.9565217391304,4,2,1,5,0,0
145219,-86.9565217391304,4,2,1,70,0,0
145568,357.142857142857,4,2,1,70,1,0
145568,-86.9565217391304,4,2,1,70,0,0
145835,-86.9565217391304,4,2,1,5,0,0
145925,-86.9565217391304,4,2,1,70,0,0
146550,-86.9565217391304,4,2,1,5,0,0
146639,-86.9565217391304,4,2,1,70,0,0
146996,352.941176470588,4,2,1,70,1,0
146996,-86.9565217391304,4,2,1,70,0,0
147260,-86.9565217391304,4,2,1,5,0,0
147348,-86.9565217391304,4,2,1,70,0,0
147966,-86.9565217391304,4,2,1,5,0,0
148054,-86.9565217391304,4,2,1,70,0,0
148407,355.029585798817,4,2,1,70,1,0
148407,-86.9565217391304,4,2,1,70,0,0
148673,-86.9565217391304,4,2,1,5,0,0
148762,-86.9565217391304,4,2,1,70,0,0
149383,-86.9565217391304,4,2,1,5,0,0
149472,-86.9565217391304,4,2,1,70,0,0
150093,-86.9565217391304,4,2,1,5,0,0
150182,-86.9565217391304,4,2,1,70,0,0
150803,-86.9565217391304,4,2,1,5,0,0
150892,-86.9565217391304,4,2,1,70,0,0
151247,348.837209302326,4,2,1,70,1,0
151247,-86.9565217391304,4,2,1,70,0,0
151508,-86.9565217391304,4,2,1,5,0,0
151595,-86.9565217391304,4,2,1,70,0,0
152206,-86.9565217391304,4,2,1,5,0,0
152293,361.44578313253,4,2,1,70,1,0
152293,-86.9565217391304,4,2,1,70,0,0
152654,352.941176470588,4,2,1,70,1,0
152654,-86.9565217391304,4,2,1,70,0,0
152918,-86.9565217391304,4,2,1,5,0,0
153006,-86.9565217391304,4,2,1,70,0,0
153271,-86.9565217391304,4,2,1,5,0,0
153359,361.44578313253,4,2,1,70,1,0
154091,352.941176470588,4,2,1,70,1,0
164486,-133.333333333333,4,2,1,55,0,0
165279,-133.333333333333,4,2,1,5,0,0
165374,355.029585798817,4,2,1,55,1,0
165374,-133.333333333333,4,2,1,55,0,0
166794,348.837209302326,4,2,1,55,1,0
166794,-133.333333333333,4,2,1,55,0,0
167840,-100,4,2,1,55,0,0
168192,352.941176470588,4,2,1,55,1,0
168192,-133.333333333333,4,2,1,55,0,0
173486,-66.6666666666667,4,2,1,65,0,0
173839,346.820809248555,4,2,1,65,1,0
173839,-100,4,2,1,65,0,0
174532,352.941176470588,4,2,1,65,1,0
175237,363.636363636364,4,2,1,65,1,0
176146,342.857142857143,4,2,1,40,1,0
176146,-333.333333333333,4,2,1,40,0,0
176574,-333.333333333333,4,2,1,5,0,0
176663,352.941176470588,4,2,1,90,1,0
176663,-86.9565217391304,4,2,1,90,0,0
179133,-222.222222222222,4,2,1,90,0,0
179486,-86.9565217391304,4,2,1,90,0,0
181604,348.837209302326,4,2,1,90,1,0
182301,350.877192982456,4,2,1,90,1,0
182301,-86.9565217391304,4,2,1,90,0,0
187915,363.636363636364,4,2,1,90,1,0
187915,-86.9565217391304,4,2,1,90,0,0
189369,352.941176470588,4,2,1,90,1,0
189369,-86.9565217391304,4,2,1,90,0,0
190427,-222.222222222222,4,2,1,90,0,0
190780,-86.9565217391304,4,2,1,90,0,0
193604,346.820809248555,4,2,1,90,1,0
193604,-86.9565217391304,4,2,1,90,0,0
196427,-86.9565217391304,4,2,1,70,0,0
196428,352.941176470588,4,2,1,70,1,0
197133,-100,4,2,1,70,0,0
199251,350.877192982456,4,2,1,70,1,0
206268,352.941176470588,4,2,1,70,1,0
207349,352.941176470588,4,2,1,70,1,0
207701,352.941176470588,4,2,1,70,1,0
211936,350.877192982456,4,2,1,70,1,0
215444,359.281437125748,4,2,1,70,1,0
216162,355.029585798817,4,2,1,70,1,0
216339,-83.3333333333333,4,2,1,70,0,0
216517,-133.333333333333,4,2,1,70,0,0
216872,-83.3333333333333,4,2,1,70,0,0
217049,-133.333333333333,4,2,1,70,0,0
217582,361.44578313253,4,2,1,70,1,0
217582,-66.6666666666667,4,2,1,70,0,0
218124,-100,4,2,1,70,0,0
219027,352.941176470588,4,2,1,70,1,0

[Colours]
Combo1 : 241,188,209
Combo2 : 190,225,243

[HitObjects]
98,71,22780,6,0,L|117:178,1,90,10|0,0:0|3:0,2:0:0:0:
172,212,23044,1,2,0:3:0:0:
175,227,23133,2,0,L|194:334,1,90,10|0,0:0|3:0,2:0:0:0:
236,157,23397,1,2,0:3:0:0:
241,148,23486,2,0,L|285:137,1,45,10|0,0:0|0:0,2:0:0:0:
100,278,23662,2,0,L|56:289,1,45,8|0,0:0|0:0,2:0:0:0:
2,233,23839,1,8,0:0:0:0:
181,42,24191,5,2,3:2:0:0:
181,42,24280,1,8,0:1:0:0:
181,42,24368,2,0,L|195:112,1,45,10|0,0:0|2:0,2:0:0:0:
329,0,24544,2,0,L|337:44,1,45,2|0,3:2|2:0,2:0:0:0:
276,118,24721,1,2,0:3:0:0:
441,32,24897,1,0,3:0:0:0:
441,32,25250,1,0,3:0:0:0:
482,158,25603,6,0,L|466:251,1,72,2|0,3:2|2:0,2:0:0:0:
501,372,25956,2,0,L|516:278,1,72,0|2,3:0|0:0,2:0:0:0:
512,300,26221,1,8,3:1:0:0:
512,300,26309,1,8,3:2:0:0:
385,224,26486,1,2,0:0:0:0:
320,265,26662,2,0,L|312:309,1,40.5,4|0,3:2|0:0,2:0:0:0:
312,304,27015,6,0,L|365:294,1,45,6|0,3:2|3:0,2:0:0:0:
242,218,27191,2,0,L|198:227,1,45,10|0,0:0|0:0,2:0:0:0:
138,278,27368,1,0,3:0:0:0:
138,278,27544,1,2,0:3:0:0:
46,147,27721,1,0,3:0:0:0:
46,147,28074,1,0,3:0:0:0:
34,326,28427,6,0,L|17:247,1,72,2|0,3:2|2:0,2:0:0:0:
125,103,28780,2,0,L|140:173,1,72,0|2,3:0|0:0,2:0:0:0:
140,173,29044,1,8,0:1:0:0:
140,173,29133,1,8,3:2:0:0:
220,112,29309,2,0,L|262:97,1,36,2|8,0:0|0:1,0:0:0:0:
185,36,29486,1,8,0:0:0:0:
384,20,29662,1,2,0:0:0:0:
384,20,29750,1,8,0:1:0:0:
384,20,29839,6,0,L|361:86,1,45,6|8,3:2|0:1,2:0:0:0:
398,178,30015,2,0,L|421:112,1,45,8|0,0:0|2:1,2:0:0:0:
412,135,30191,1,0,3:0:0:0:
495,244,30368,1,4,0:0:0:0:
439,299,30544,2,0,L|391:282,1,40.4999987640381,0|0,3:0|2:1,2:0:0:0:
389,298,30897,1,0,3:0:0:0:
208,244,31250,6,0,L|194:327,1,72,2|0,3:2|2:0,2:0:0:0:
56,270,31603,2,0,L|42:353,1,72,0|2,3:2|0:0,2:0:0:0:
44,341,31868,1,8,3:1:0:0:
44,341,31956,2,0,P|83:349|112:324,1,72,10|2,0:2|0:0,0:0:0:0:
131,260,32221,1,8,0:1:0:0:
131,260,32309,1,8,0:0:0:0:
71,48,32662,5,2,3:0:0:0:
71,48,32750,1,8,0:1:0:0:
71,48,32839,2,0,L|87:125,1,45,8|0,0:0|2:0,2:0:0:0:
165,158,33015,2,0,L|148:80,1,45,2|0,3:2|2:0,2:0:0:0:
211,60,33191,1,2,0:3:0:0:
245,245,33368,1,2,3:2:0:0:
245,245,33721,1,0,3:2:0:0:
388,122,34074,6,0,L|399:193,1,72,2|0,3:2|2:0,2:0:0:0:
358,356,34427,2,0,L|346:284,1,72,0|2,3:2|0:0,2:0:0:0:
346,284,34691,1,8,0:0:0:0:
346,284,34780,1,10,3:2:0:0:
312,82,34956,1,8,0:0:0:0:
254,161,35133,1,2,3:2:0:0:
477,212,35309,1,8,0:0:0:0:
248,332,35486,5,2,3:1:0:0:
236,328,35574,1,8,0:1:0:0:
226,323,35662,2,0,L|217:273,1,45,8|0,0:0|2:0,2:0:0:0:
269,203,35839,2,0,L|260:153,1,45,0|0,3:0|2:0,2:0:0:0:
207,103,36015,1,2,0:0:0:0:
49,155,36191,1,0,3:0:0:0:
126,192,36368,1,2,0:0:0:0:
126,192,36544,1,0,3:0:0:0:
126,192,36897,6,0,P|187:183|247:282,2,180,2|0|2,3:2|3:0|3:2,2:0:0:0:
173,366,37868,1,8,0:1:0:0:
178,357,37956,2,0,L|161:265,1,90,8|2,0:0|0:0,2:0:0:0:
111,37,38309,5,2,3:1:0:0:
105,48,38397,1,8,0:1:0:0:
100,59,38486,2,0,P|100:84|116:112,1,45,8|0,0:0|2:0,2:0:0:0:
162,162,38662,2,0,P|183:174|215:174,1,45,0|0,3:0|2:0,2:0:0:0:
281,157,38839,1,2,0:0:0:0:
221,88,39015,1,2,3:2:0:0:
219,102,39191,2,0,L|412:131,1,180,2|2,0:0|0:0,2:0:0:0:
490,181,39721,6,0,P|507:224|475:283,1,90,2|0,3:2|2:0,2:0:0:0:
407,306,40074,2,0,P|395:263|412:223,1,90,0|2,3:0|0:0,2:0:0:0:
334,361,40427,2,0,L|244:347,1,90,2|2,3:2|0:0,2:0:0:0:
190,290,40691,1,8,0:1:0:0:
194,278,40780,1,8,0:0:0:0:
91,63,41133,6,0,L|14:74,1,45,2|0,3:1|3:0,2:0:0:0:
233,115,41309,2,0,L|309:126,1,45,10|0,0:0|2:0,2:0:0:0:
126,142,41486,2,0,L|49:153,1,45,0|0,3:0|2:0,2:0:0:0:
195,199,41662,1,2,0:0:0:0:
51,279,41839,1,2,3:2:0:0:
53,266,42015,2,0,L|246:295,1,180,2|2,0:0|0:0,2:0:0:0:
311,360,42544,6,0,P|348:324|303:242,1,135,2|0,3:2|2:0,2:0:0:0:
309,237,42897,1,0,3:0:0:0:
486,70,43250,2,0,L|466:200,1,90,2|2,3:2|0:0,2:0:0:0:
461,236,43515,1,8,0:1:0:0:
459,251,43603,1,8,0:0:0:0:
334,15,43956,5,2,3:1:0:0:
326,20,44044,1,8,0:1:0:0:
318,27,44133,2,0,L|242:38,1,45,10|0,0:0|2:0,2:0:0:0:
204,0,44309,2,0,L|175:71,1,45,0|0,3:0|2:0,2:0:0:0:
123,85,44486,1,6,3:2:0:0:
266,181,44662,1,0,3:0:0:0:
262,170,45015,1,0,3:0:0:0:
142,342,45280,1,8,0:1:0:0:
135,349,45368,6,0,L|151:261,1,90,10|2,3:2|0:0,2:0:0:0:
271,251,45633,1,8,0:1:0:0:
278,258,45721,2,0,L|262:170,1,90,10|0,0:0|0:0,2:0:0:0:
362,97,45986,1,8,0:1:0:0:
365,86,46074,1,8,0:0:0:0:
433,216,46250,1,8,0:0:0:0:
492,39,46427,1,10,0:0:0:0:
398,348,46780,5,6,3:2:0:0:
389,343,46868,1,0,2:0:0:0:
380,338,46956,2,0,L|304:349,1,45,8|0,0:0|2:0,2:0:0:0:
277,293,47133,2,0,L|201:282,1,45,2|0,3:2|2:0,2:0:0:0:
96,352,47309,1,2,0:3:0:0:
148,273,47486,1,2,3:2:0:0:
148,273,47662,1,2,0:0:0:0:
98,198,47839,1,2,3:2:0:0:
98,198,48015,1,2,0:0:0:0:
178,140,48191,6,0,L|0:166,1,180,2|0,3:2|3:0,2:0:0:0:
235,74,48809,1,8,0:1:0:0:
241,84,48897,2,0,P|264:127|249:187,1,90,8|2,0:0|0:0,2:0:0:0:
199,218,49162,1,8,0:1:0:0:
194,227,49250,2,0,P|191:271|213:309,1,90,10|2,3:2|0:0,2:0:0:0:
339,247,49603,5,2,3:1:0:0:
331,242,49691,1,8,0:1:0:0:
322,238,49780,2,0,P|292:242|275:253,1,45,10|0,0:0|2:0,2:0:0:0:
393,188,49956,2,0,P|374:164|356:154,1,45,0|0,3:0|2:0,2:0:0:0:
471,224,50133,1,2,0:3:0:0:
412,292,50309,1,2,3:2:0:0:
424,303,50486,2,0,L|450:125,1,180,2|2,0:0|0:0,2:0:0:0:
467,41,51015,6,0,P|416:32|376:116,1,135,2|0,3:2|2:0,2:0:0:0:
368,114,51368,1,0,3:0:0:0:
169,31,51633,1,8,0:1:0:0:
160,26,51721,2,0,L|68:43,1,90,10|2,0:0|0:0,2:0:0:0:
7,89,51986,1,8,0:1:0:0:
15,98,52074,1,10,0:0:0:0:
156,328,52427,5,2,3:1:0:0:
159,319,52515,1,8,0:1:0:0:
162,310,52603,2,0,L|151:234,1,45,10|0,0:0|2:0,2:0:0:0:
231,149,52780,2,0,L|224:193,1,45,0|0,3:0|2:0,2:0:0:0:
301,327,52956,1,2,0:3:0:0:
382,267,53133,1,2,3:2:0:0:
373,255,53309,2,0,L|399:77,1,180,2|2,0:0|0:0,2:0:0:0:
464,299,53839,6,0,L|286:273,1,180,2|0,3:2|3:0,2:0:0:0:
52,217,54456,1,8,0:1:0:0:
62,226,54544,2,0,L|152:213,1,90,10|2,0:0|0:0,2:0:0:0:
206,156,54809,1,8,0:1:0:0:
213,148,54897,2,0,P|231:103|175:24,1,135,10|0,0:0|2:0,2:0:0:0:
103,85,55250,5,2,3:1:0:0:
103,85,55339,1,8,0:1:0:0:
103,85,55427,2,0,P|124:98|153:100,1,45,10|0,0:0|2:0,2:0:0:0:
213,148,55603,2,0,P|234:136|250:112,1,45,2|0,3:2|2:0,2:0:0:0:
314,78,55780,1,10,0:0:0:0:
385,194,55956,5,0,3:0:0:0:
212,147,56133,1,10,0:0:0:0:
277,317,56309,1,10,3:2:0:0:
330,2,56486,1,14,0:0:0:0:
428,101,56662,5,2,3:2:0:0:
491,50,56839,2,0,L|302:79,1,180,2|0,0:0|2:0,2:0:0:0:
139,20,57368,1,2,3:2:0:0:
310,86,57544,1,2,3:2:0:0:
63,154,57721,6,0,L|72:203,1,40.5,10|0,0:0|0:0,2:0:0:0:
37,357,58074,6,0,P|0:305|27:252,1,103.5,6|0,1:2|0:0,2:0:0:0:
70,193,58340,1,0,2:0:0:0:
81,186,58429,2,0,B|89:181|89:181|181:203,1,103.5,0|0,1:0|0:0,2:0:0:0:
402,314,58784,5,0,1:0:0:0:
207,378,58961,1,0,3:0:0:0:
493,378,59139,5,0,1:0:0:0:
288,280,59316,1,0,3:0:0:0:
294,281,59405,1,0,2:0:0:0:
303,281,59494,6,0,B|313:198|313:198|318:194|318:194|328:110,1,155.25,2|0,1:2|0:0,2:0:0:0:
297,21,59849,2,0,B|274:12|258:0|258:0|214:8|206:62|226:92,1,155.25,2|0,1:2|2:0,2:0:0:0:
325,129,60204,5,2,1:2:0:0:
501,72,60381,1,0,3:0:0:0:
180,202,60559,6,0,L|101:187,1,74.2500000000003,2|0,1:2|2:0,2:0:0:0:
0,195,60914,6,0,B|47:208|96:163|71:151|114:109|174:129,1,182.25,2|0,1:2|0:0,2:0:0:0:
180,202,61269,1,2,1:2:0:0:
35,38,61446,1,0,3:0:0:0:
0,292,61624,5,2,1:2:0:0:
83,110,61801,1,0,3:0:0:0:
207,378,61979,5,0,1:0:0:0:
139,281,62156,2,0,L|181:288,1,33.7500000000001,0|0,3:0|2:0,2:0:0:0:
438,230,62334,6,0,B|402:198|402:198|322:191|284:262|311:309,1,195.75,2|0,1:2|2:0,2:0:0:0:
286,356,62682,2,0,B|302:365|302:365|402:346,1,103.5,2|0,1:2|3:0,2:0:0:0:
472,333,63031,5,2,1:2:0:0:
172,286,63206,1,0,3:0:0:0:
329,59,63380,6,0,B|338:69|338:69|323:137,1,74.2500000000003,0|0,1:0|2:0,2:0:0:0:
288,196,63729,6,0,L|264:-13,1,182.25,2|0,1:2|0:0,2:0:0:0:
266,5,64078,1,0,1:0:0:0:
465,77,64252,1,2,3:2:0:0:
157,125,64427,5,0,1:0:0:0:
401,21,64601,1,2,3:2:0:0:
172,286,64775,6,0,L|180:223,1,51.75,0|0,1:0|2:0,2:0:0:0:
120,9,64950,2,0,L|113:60,1,51.75,2|2,3:2|0:0,2:0:0:0:
157,125,65124,6,0,L|298:96,1,130.5,2|2,1:0|0:0,2:0:0:0:
0,379,65476,2,0,L|127:352,1,130.5,2|2,1:0|3:2,2:0:0:0:
172,286,65741,5,0,2:0:0:0:
160,274,65829,2,0,P|106:263|58:304,1,101.25,2|0,1:0|2:0,2:0:0:0:
220,384,66182,6,0,B|342:405|316:300|463:338,1,229.5,2|0,1:0|0:0,2:0:0:0:
506,380,66535,5,0,1:0:0:0:
365,281,66712,1,2,0:0:0:0:
369,265,66800,1,2,0:0:0:0:
374,249,66888,1,2,1:2:0:0:
323,184,67065,5,2,3:2:0:0:
435,332,67241,2,0,L|405:160,1,162,2|0,1:2|2:0,2:0:0:0:
487,58,67594,6,0,B|514:76|514:76|529:122|489:140,1,108,6|2,1:2|3:2,2:0:0:0:
407,172,67859,1,2,0:0:0:0:
399,162,67947,2,0,L|416:101,1,45,2|0,1:2|2:0,2:0:0:0:
342,32,68124,2,0,L|327:84,1,45,0|0,3:0|2:0,2:0:0:0:
253,125,68300,5,6,1:2:0:0:
166,120,68476,1,0,2:0:0:0:
114,55,68653,5,2,1:2:0:0:
183,252,68829,1,0,1:0:0:0:
178,0,69006,5,2,1:2:0:0:
124,311,69182,1,0,1:0:0:0:
220,384,69359,6,0,P|271:354|333:363,1,103.5,6|0,3:2|2:0,2:0:0:0:
434,380,69624,1,0,0:0:0:0:
426,384,69712,2,0,B|408:366|406:366|406:366|422:282,1,103.5,0|2,1:0|0:0,2:0:0:0:
490,139,70065,5,0,1:0:0:0:
281,217,70241,1,0,3:0:0:0:
470,224,70418,5,0,1:0:0:0:
400,33,70594,1,0,3:0:0:0:
410,30,70682,1,0,2:0:0:0:
420,28,70771,2,0,B|463:44|463:44|478:87|454:131|398:128,1,155.25,2|0,1:2|0:0,2:0:0:0:
329,75,71124,2,0,B|226:50|226:50|204:74|172:69,1,155.25,2|0,1:2|2:0,2:0:0:0:
112,28,71476,5,2,1:2:0:0:
183,252,71653,1,0,3:0:0:0:
32,179,71829,6,0,P|70:176|106:204,1,74.2500000000003,2|0,1:2|2:0,2:0:0:0:
183,252,72182,6,0,P|127:229|38:307,1,175.5,2|0,1:2|0:0,2:0:0:0:
31,380,72535,5,0,1:0:0:0:
99,194,72712,1,0,3:0:0:0:
125,319,72888,5,0,1:0:0:0:
16,102,73065,1,0,3:0:0:0:
112,28,73241,5,2,1:2:0:0:
26,178,73418,2,0,P|1:181|-28:194,1,45,2|0,3:2|2:0,2:0:0:0:
182,69,73594,6,0,B|192:60|193:40|193:40|239:8|327:43|307:118|274:144,1,202.5,2|0,1:2|2:0,2:0:0:0:
231,169,73947,2,0,B|240:210|240:210|238:217|238:217|248:269,1,90,2|0,1:2|3:0,2:0:0:0:
360,370,74300,5,2,1:2:0:0:
125,319,74476,1,0,3:0:0:0:
401,213,74653,6,0,B|438:205|438:205|474:227,1,74.2500000000003,2|0,1:2|2:0,2:0:0:0:
512,294,75006,6,0,L|465:302,1,45,2|0,1:2|2:0,2:0:0:0:
213,364,75182,1,2,3:2:0:0:
229,384,75271,1,2,0:0:0:0:
259,380,75359,2,0,B|262:372|271:373|271:373|254:304|241:236,1,135,6|2,1:2|0:0,2:0:0:0:
298,64,75624,5,0,3:0:0:0:
304,76,75712,2,0,P|291:123|288:142,1,45,0|0,1:0|0:0,2:0:0:0:
142,183,75888,6,0,L|73:200,1,45,4|0,0:3|2:0,2:0:0:0:
345,290,76065,6,0,P|375:295|414:313,1,45,2|0,1:2|2:0,2:0:0:0:
493,372,76241,5,4,3:1:0:0:
493,372,76594,1,8,0:3:0:0:
494,363,76682,1,8,0:3:0:0:
495,354,76771,1,8,0:3:0:0:
497,345,76859,1,8,0:3:0:0:
498,336,76947,1,8,0:3:0:0:
499,327,77035,1,8,0:3:0:0:
500,322,77124,1,8,0:3:0:0:
501,317,77212,1,8,0:3:0:0:
502,312,77300,1,8,0:3:0:0:
502,307,77388,1,8,0:3:0:0:
492,277,77476,6,2,B|429:261|353:305|391:340|331:402|224:374,1,270,2|0,1:0|0:0,2:1:0:0:
125,319,77834,5,6,0:0:0:0:
70,260,78098,5,0,2:0:0:0:
70,260,78186,1,0,3:0:0:0:
143,212,78451,5,2,0:3:0:0:
143,212,78539,1,0,3:0:0:0:
200,280,78804,5,0,2:0:0:0:
200,280,78892,1,2,3:2:0:0:
125,319,79069,6,0,L|118:365,1,33.7500000000001,2|0,0:0|0:0,2:0:0:0:
59,151,79245,1,2,3:2:0:0:
0,202,79422,5,2,0:3:0:0:
0,202,79510,1,2,0:3:0:0:
0,202,79598,1,2,3:3:0:0:
41,77,79775,5,2,3:2:0:0:
38,67,79863,1,2,3:2:0:0:
35,57,79951,1,2,3:2:0:0:
134,158,80128,5,10,3:0:0:0:
158,177,80216,1,8,3:0:0:0:
189,172,80304,1,10,0:0:0:0:
59,151,80481,5,6,3:2:0:0:
380,37,80657,5,2,0:0:0:0:
439,104,80922,5,0,2:0:0:0:
439,104,81010,1,2,3:2:0:0:
362,144,81275,5,2,0:3:0:0:
362,144,81363,1,0,3:0:0:0:
305,76,81628,5,0,2:0:0:0:
305,76,81716,1,2,3:2:0:0:
380,37,81892,6,0,L|387:-9,1,33.7500000000001,2|2,0:2|0:0,2:0:0:0:
498,190,82069,1,2,3:2:0:0:
444,250,82245,5,2,0:3:0:0:
444,250,82334,1,2,0:3:0:0:
444,250,82422,1,2,3:3:0:0:
472,322,82598,5,2,3:2:0:0:
481,324,82686,1,2,3:2:0:0:
490,326,82775,1,2,3:2:0:0:
379,353,82951,5,8,3:0:0:0:
348,382,83039,1,8,3:0:0:0:
304,372,83128,1,10,0:0:0:0:
498,190,83304,5,6,3:2:0:0:
237,306,83481,5,2,0:0:0:0:
233,227,83745,5,0,2:0:0:0:
233,227,83834,1,0,3:0:0:0:
229,144,84098,5,2,0:3:0:0:
229,144,84186,1,0,3:0:0:0:
225,64,84451,5,0,2:0:0:0:
225,64,84539,1,2,3:2:0:0:
237,306,84716,6,0,P|202:314|191:318,1,33.7500000000001,2|0,0:2|0:0,2:0:0:0:
27,375,84892,1,2,3:2:0:0:
90,327,85069,5,2,0:3:0:0:
90,327,85157,1,2,0:3:0:0:
90,327,85245,1,2,3:2:0:0:
9,262,85422,5,2,3:2:0:0:
6,252,85510,1,2,3:2:0:0:
3,242,85598,1,2,3:2:0:0:
131,161,85775,5,8,3:0:0:0:
95,125,85863,1,8,3:0:0:0:
42,131,85951,1,10,0:0:0:0:
27,375,86128,5,4,0:0:0:0:
233,227,86304,5,2,0:2:0:0:
311,217,86481,1,2,0:0:0:0:
374,266,86657,1,2,0:3:0:0:
378,278,86745,1,0,3:0:0:0:
402,313,86834,5,2,3:2:0:0:
399,322,86922,1,10,0:0:0:0:
396,331,87010,1,8,3:0:0:0:
505,205,87186,5,2,3:2:0:0:
499,191,87363,1,8,3:0:0:0:
380,37,87539,6,0,L|372:83,1,45,6|0,3:2|0:0,2:0:0:0:
372,81,88780,1,10,0:0:0:0:
27,375,89132,6,0,P|69:326|199:335,1,180,6|0,3:2|3:0,2:0:0:0:
236,376,89661,1,2,0:0:0:0:
310,218,89837,2,0,B|310:229|295:232|295:232|314:305,1,90,2|2,3:3|0:0,2:0:0:0:
313,298,90190,1,2,3:2:0:0:
505,364,90367,2,0,P|484:344|444:351,1,45,2|0,0:0|2:0,2:0:0:0:
467,331,90543,6,0,L|367:362,1,90,0|0,3:0|2:0,2:0:0:0:
121,280,90897,2,0,L|221:249,1,90,0|2,3:0|0:0,2:0:0:0:
240,183,91162,1,0,2:0:0:0:
249,178,91250,2,0,P|264:127|245:94,1,90,2|2,3:2|0:3,2:0:0:0:
57,68,91603,5,0,2:0:0:0:
109,11,91780,2,0,P|130:27|153:29,1,45,2|2,0:0|0:0,2:0:0:0:
164,40,91956,5,2,3:2:0:0:
240,15,92133,1,2,0:3:0:0:
154,168,92309,5,0,3:0:0:0:
80,152,92484,1,2,0:3:0:0:
247,96,92662,6,0,L|346:116,1,90,0|2,3:0|0:0,2:0:0:0:
491,59,93015,1,2,3:2:0:0:
435,4,93191,1,2,0:0:0:0:
421,132,93368,5,2,3:2:0:0:
418,119,93456,1,0,2:0:0:0:
415,106,93544,1,2,0:0:0:0:
493,191,93721,2,0,P|469:250|466:284,1,90,0|2,3:0|0:0,2:0:0:0:
359,384,94074,2,0,P|334:337|328:287,1,90,2|2,3:2|0:0,2:0:0:0:
332,292,94337,1,8,0:1:0:0:
331,220,94426,6,0,B|346:215|355:199|355:199|353:222|372:239,2,60,8|2|2,3:2|2:0|2:0,2:0:0:0:
243,271,94780,6,0,P|219:258|174:261,1,45,0|0,3:0|2:0,2:0:0:0:
144,205,94956,6,0,L|103:217,2,30,2|2|2,0:3|0:0|0:0,2:0:0:0:
59,275,95133,6,2,L|30:266,2,30,2|2|2,3:2|0:0|0:0,2:0:0:0:
124,330,95309,5,2,0:3:0:0:
36,192,95484,2,0,B|37:182|27:179|27:179|62:96,1,90,2|2,3:2|0:3,2:0:0:0:
157,22,95837,2,0,P|179:63|139:108,1,90,2|0,3:2|2:0,2:0:0:0:
55,112,96191,6,0,B|148:102|124:184|226:176,1,180,0|0,3:0|3:0,2:0:0:0:
278,128,96721,1,2,0:0:0:0:
488,225,96897,2,0,P|439:196|397:200,1,90,2|2,3:2|0:0,2:0:0:0:
386,210,97162,1,2,0:0:0:0:
386,210,97250,2,0,B|401:300|401:300|439:301|453:356,1,135,2|0,3:0|0:0,2:0:0:0:
287,384,97603,6,0,P|285:339|333:301,1,90,2|0,3:2|2:0,2:0:0:0:
496,364,97956,2,0,P|432:376|396:390,1,90,0|2,3:0|0:0,2:0:0:0:
201,207,98309,2,0,P|243:220|288:227,1,90,0|2,3:0|0:0,2:0:0:0:
404,113,98662,2,0,L|393:70,1,45,2|0,3:2|2:0,2:0:0:0:
453,17,98837,1,2,0:0:0:0:
471,29,98926,1,8,0:1:0:0:
471,65,99014,5,10,3:2:0:0:
308,125,99191,1,2,0:0:0:0:
287,131,99280,1,8,3:1:0:0:
255,105,99368,5,10,0:0:0:0:
449,249,99544,1,2,3:2:0:0:
470,255,99633,1,8,0:1:0:0:
488,225,99721,6,0,P|460:232|414:237,1,58.5,10|0,0:0|2:0,2:0:0:0:
313,307,99897,6,0,P|341:311|370:318,1,58.5,10|0,0:0|2:0,2:0:0:0:
237,248,100074,6,0,P|208:255|179:259,1,58.5,2|0,3:2|2:0,2:0:0:0:
46,350,100250,6,0,P|36:370|49:353,1,58.5,2|0,0:0|2:0,2:0:0:0:
97,288,100427,5,2,3:2:0:0:
99,280,100515,1,8,2:1:0:0:
101,272,100603,2,0,L|81:200,1,58.5,8|0,0:0|2:0,2:0:0:0:
148,110,100780,6,0,P|135:142|132:161,1,45,0|0,2:0|2:0,2:0:0:0:
49,131,100956,1,2,0:3:0:0:
35,136,101044,1,2,0:0:0:0:
48,142,101132,6,0,P|-8:157|-26:195,1,90,2|2,3:2|0:0,2:0:0:0:
197,44,101484,2,0,L|290:63,1,90,2|2,3:2|0:0,2:0:0:0:
342,114,101749,1,2,0:0:0:0:
348,121,101837,2,0,P|393:101|394:44,1,90,2|2,3:2|0:0,2:0:0:0:
353,1,102191,5,0,3:0:0:0:
262,150,102368,1,2,0:0:0:0:
265,163,102456,1,8,3:1:0:0:
297,189,102544,5,10,0:0:0:0:
162,83,102721,1,0,2:0:0:0:
165,70,102809,1,2,0:3:0:0:
197,44,102897,5,10,3:2:0:0:
85,215,103074,1,2,0:0:0:0:
42,147,103250,6,0,P|32:137|45:146,1,45,2|8,3:2|2:1,2:0:0:0:
199,237,103427,6,0,P|167:254|152:270,1,45,8|0,0:0|2:0,2:0:0:0:
31,303,103603,2,0,L|93:317,1,45,0|0,2:0|2:0,2:0:0:0:
150,374,103780,5,2,0:3:0:0:
150,374,103868,1,2,0:0:0:0:
150,374,103956,2,0,B|202:333|253:349|253:349|256:370|276:386,1,135,2|0,0:0|2:0,2:0:0:0:
336,384,104309,2,0,P|362:353|336:299,1,90,0|2,3:0|0:0,2:0:0:0:
493,199,104662,1,2,3:2:0:0:
441,118,104837,2,0,P|427:135|391:136,1,45,0|0,2:0|2:0,2:0:0:0:
389,136,105015,6,0,B|383:148|383:148|409:233,1,90,0|2,3:0|0:0,2:0:0:0:
462,277,105280,1,8,0:1:0:0:
454,299,105368,1,10,0:0:0:0:
279,223,105544,1,2,0:0:0:0:
296,218,105631,1,8,0:1:0:0:
330,230,105721,5,10,0:0:0:0:
226,315,105897,1,2,0:0:0:0:
210,305,105984,1,8,0:1:0:0:
192,300,106074,1,2,3:3:0:0:
174,301,106162,1,0,3:0:0:0:
139,326,106250,6,0,B|128:317|128:317|150:226,1,90,8|0,0:0|3:0,2:0:0:0:
17,114,106603,2,0,P|11:145|22:167,1,45,2|0,0:3|2:0,2:0:0:0:
27,163,106780,6,0,L|130:136,1,90,2|2,3:2|0:3,2:0:0:0:
264,51,107131,1,2,3:2:0:0:
264,51,107309,1,2,0:3:0:0:
205,0,107484,2,0,P|175:15|174:75,1,90,0|0,3:0|2:0,2:0:0:0:
279,223,107837,2,0,L|289:170,1,45,0|0,3:0|2:0,2:0:0:0:
222,137,108015,1,2,0:0:0:0:
204,141,108103,1,8,3:1:0:0:
188,171,108191,5,10,0:0:0:0:
352,91,108368,1,2,0:0:0:0:
367,97,108456,1,8,0:1:0:0:
385,124,108544,5,10,0:0:0:0:
264,51,108721,1,2,0:0:0:0:
325,3,108897,6,0,P|339:-5|328:5,1,45,2|8,3:1|3:1,2:0:0:0:
264,51,109074,2,0,P|233:40|200:40,1,45,8|2,0:0|0:0,2:0:0:0:
155,4,109250,2,0,L|112:17,1,45,0|2,3:0|0:0,2:0:0:0:
27,163,109427,6,0,B|62:121|131:143|131:143|136:184|181:192,1,162,10|2,0:0|0:0,2:0:0:0:
273,151,109780,6,0,P|229:140|211:132,1,54,8|0,0:0|0:0,2:0:0:0:
351,275,109956,2,0,P|395:286|413:294,1,54,8|0,0:0|0:0,2:0:0:0:
486,306,110131,6,0,P|439:300|349:383,1,173.250000000001,12|0,0:0|0:0,2:0:0:0:
350,377,111190,1,0,3:0:0:0:
509,147,111367,6,0,P|431:114|439:198,1,202.5,10|0,0:0|0:0,2:0:0:0:
471,361,111720,6,0,P|508:309|481:256,1,103.5,4|2,1:0|0:0,2:0:0:0:
438,197,111984,1,0,2:0:0:0:
427,190,112073,2,0,B|325:217,1,103.5,0|0,1:0|0:0,2:0:0:0:
158,310,112426,5,0,1:0:0:0:
341,353,112602,1,0,3:0:0:0:
144,212,112779,5,0,1:0:0:0:
234,381,112955,1,0,3:0:0:0:
285,136,113131,6,0,B|258:34,1,103.5,0|0,1:0|2:0,2:0:0:0:
67,276,113484,2,0,P|-3:262|0:191,1,155.25,0|0,1:0|2:0,2:0:0:0:
82,147,113837,5,0,1:0:0:0:
27,368,114014,1,0,3:0:0:0:
237,259,114190,6,0,B|311:239,1,60.7500000000001,0|0,1:0|2:0,2:0:0:0:
385,219,114543,2,0,B|200:170,1,155.25,0|0,1:0|0:0,2:0:0:0:
175,100,114896,5,0,1:0:0:0:
295,243,115073,1,0,3:0:0:0:
76,185,115250,5,0,1:0:0:0:
344,115,115426,1,0,3:0:0:0:
246,347,115602,6,0,B|153:322,1,51.75,0|0,1:0|2:0,2:0:0:0:
412,221,115779,2,0,B|504:196,1,51.75,0|0,3:0|2:0,2:0:0:0:
169,80,115955,6,0,B|49:111,1,103.5,0|2,1:0|0:0,2:0:0:0:
434,111,116308,2,0,P|437:40|367:27,1,155.25,0|0,1:0|2:0,2:0:0:0:
301,93,116661,5,0,1:0:0:0:
482,22,116837,1,0,3:0:0:0:
412,221,117015,6,0,B|426:275,1,40.5,0|0,1:0|3:0,2:0:0:0:
489,317,117279,1,0,2:0:0:0:
489,326,117368,6,0,B|304:277,1,155.25,4|0,1:2|0:0,2:0:0:0:
259,345,117720,5,0,1:0:0:0:
502,231,117896,1,2,3:2:0:0:
231,160,118073,5,0,1:0:0:0:
350,384,118249,1,2,3:2:0:0:
398,129,118426,6,0,B|373:36,1,51.75,0|0,1:0|2:0,2:0:0:0:
192,265,118602,2,0,B|167:357,1,51.75,2|2,3:2|0:0,2:0:0:0:
80,82,118779,5,2,1:0:0:0:
0,243,118955,1,2,0:0:0:0:
166,30,119131,5,2,1:0:0:0:
1,136,119308,1,2,3:2:0:0:
5,147,119396,1,0,3:0:0:0:
11,156,119484,6,0,B|196:107,1,155.25,2|0,1:0|2:0,2:0:0:0:
247,159,119837,2,0,B|407:116,1,155.25,2|0,1:0|0:0,2:0:0:0:
481,167,120190,5,0,1:0:0:0:
333,43,120364,1,2,0:0:0:0:
326,37,120451,1,2,0:0:0:0:
319,32,120538,1,0,1:0:0:0:
456,0,120713,1,2,3:2:0:0:
397,119,120887,6,0,B|354:279,1,155.25,0|0,1:0|2:0,2:0:0:0:
501,371,121236,2,0,P|475:312|416:308,1,103.5,0|2,1:0|3:2,2:0:0:0:
364,359,121498,1,2,0:0:0:0:
357,365,121585,6,0,B|254:337,1,103.5,0|0,1:0|3:0,2:0:0:0:
163,383,121846,1,0,2:0:0:0:
166,375,121934,6,0,B|141:285,1,51.75,4|0,1:2|2:0,2:0:0:0:
201,198,122108,2,0,B|226:288,1,51.75,0|0,2:0|0:0,2:0:0:0:
35,41,122283,5,0,1:0:0:0:
39,36,122372,1,8,1:0:0:0:
45,34,122462,1,0,1:0:0:0:
51,36,122552,1,0,1:0:0:0:
104,89,122642,5,8,0:3:0:0:
143,102,122732,1,8,0:3:0:0:
183,93,122821,1,8,0:3:0:0:
208,60,122911,1,8,0:3:0:0:
204,18,123015,6,0,P|255:18|297:46,1,103.5,4|0,0:1|2:0,2:0:0:0:
399,27,123279,1,0,0:0:0:0:
388,33,123367,2,0,B|362:133,1,103.5,0|0,1:0|0:0,2:0:0:0:
309,330,123720,5,0,1:0:0:0:
255,137,123897,1,0,3:0:0:0:
406,361,124073,5,0,1:0:0:0:
188,227,124250,1,0,3:0:0:0:
495,285,124426,6,0,P|498:214|428:201,1,155.25,0|0,1:0|2:0,2:0:0:0:
336,246,124779,2,0,B|260:258|276:194|186:217,1,155.25,0|0,1:0|2:0,2:0:0:0:
108,276,125132,5,0,1:0:0:0:
334,153,125309,1,0,3:0:0:0:
84,78,125485,6,0,B|14:59,1,60.7500000000001,0|0,1:0|2:0,2:0:0:0:
108,0,125839,2,0,B|148:155,1,155.25,0|0,1:0|0:0,2:0:0:0:
184,240,126191,5,0,1:0:0:0:
267,55,126368,1,0,3:0:0:0:
315,316,126544,5,0,1:0:0:0:
413,176,126721,1,0,3:0:0:0:
417,168,126809,1,2,0:0:0:0:
421,160,126897,6,0,B|396:70,1,51.75,0|0,1:0|2:0,2:0:0:0:
512,281,127074,2,0,B|498:330,1,51.75,0|0,3:0|2:0,2:0:0:0:
190,222,127250,6,0,B|319:188,1,103.5,0|0,1:0|0:0,2:0:0:0:
22,329,127603,2,0,B|69:145,1,155.25,0|0,1:0|2:0,2:0:0:0:
91,87,127956,5,0,1:0:0:0:
0,244,128133,1,0,3:0:0:0:
198,359,128309,6,0,B|262:342,1,60.7500000000001,0|0,1:0|2:0,2:0:0:0:
347,313,128662,5,0,1:0:0:0:
133,238,128839,1,0,3:0:0:0:
379,178,129015,6,0,B|509:211,1,103.5,4|2,1:2|3:2,2:0:0:0:
292,230,129280,5,0,3:0:0:0:
280,236,129368,1,0,1:0:0:0:
194,164,129544,1,4,3:0:0:0:
132,253,129721,1,0,1:0:0:0:
65,0,129897,6,0,B|80:99|-3:78|27:196,1,207,4|0,3:1|2:0,2:0:0:0:
256,97,130427,2,0,P|204:60|151:87,1,103.5,0|0,1:0|3:0,2:0:0:0:
111,142,130691,5,0,1:0:0:0:
108,154,130780,1,0,1:0:0:0:
232,17,130956,1,0,3:0:0:0:
165,234,131133,1,8,3:0:0:0:
244,7,131309,1,2,3:0:0:0:
265,278,131486,6,0,B|420:238,1,155.25,6|0,3:1|3:0,2:0:0:0:
465,153,131839,2,0,P|471:103|436:66,1,103.5,4|0,3:2|2:0,2:0:0:0:
182,335,132191,6,0,B|27:295,1,155.25,0|0,1:0|2:0,2:0:0:0:
0,200,132544,2,0,P|36:166|86:172,1,103.5,2|0,1:2|2:0,2:0:0:0:
281,296,132897,6,0,B|321:141,1,155.25,0|0,1:0|2:0,2:0:0:0:
273,57,133245,2,0,P|236:22|186:28,1,103.5,0|2,1:0|0:0,2:0:0:0:
197,379,133594,6,0,B|157:224,1,155.25,0|0,1:0|2:0,2:0:0:0:
0,200,133943,2,0,P|36:166|86:172,1,103.5,4|0,1:2|2:0,2:0:0:0:
285,320,134292,6,0,B|359:331|343:269|431:291,1,155.25,4|0,1:0|3:0,2:0:0:0:
510,233,134644,2,0,P|516:183|481:146,1,103.5,2|2,3:2|0:0,2:0:0:0:
233,201,134997,6,0,B|158:212|174:150|86:172,1,155.25,0|0,1:0|0:0,2:0:0:0:
8,114,135350,2,0,P|1:64|36:27,1,103.5,0|2,1:0|0:0,2:0:0:0:
342,0,135703,6,0,B|353:74|291:58|313:146,1,155.25,2|0,3:2|0:0,2:0:0:0:
399,187,136056,2,0,P|448:193|485:158,1,103.5,0|0,1:0|2:0,2:0:0:0:
284,384,136409,6,0,B|272:309|334:325|312:237,1,155.25,0|0,1:0|2:0,2:0:0:0:
227,196,136762,2,0,P|177:190|140:225,1,103.5,6|0,1:2|2:0,2:0:0:0:
371,358,137115,6,0,B|216:318,1,155.25,6|0,1:1|2:0,2:0:0:0:
131,364,137468,2,0,B|9:332,1,103.5,0|0,3:0|0:0,2:0:0:0:
140,225,137821,6,0,B|295:185,1,155.25,0|0,1:0|0:0,2:0:0:0:
380,231,138174,2,0,B|501:199,1,103.5,0|0,1:0|2:0,2:0:0:0:
371,92,138527,6,0,B|216:52,1,155.25,0|0,1:0|2:0,2:0:0:0:
131,98,138880,2,0,B|9:66,1,103.5,0|0,3:0|0:0,2:0:0:0:
139,344,139233,6,0,B|179:189,1,155.25,0|0,3:0|0:0,2:0:0:0:
133,104,139586,2,0,B|164:-17,1,103.5,4|0,1:2|2:0,2:0:0:0:
438,175,139939,6,0,P|441:104|371:91,1,155.25,4|0,1:0|2:0,2:0:0:0:
295,147,140292,2,0,B|140:107,1,155.25,0|0,1:0|2:0,2:0:0:0:
66,166,140644,2,0,B|38:58,1,103.5,0|2,1:0|0:0,2:0:0:0:
145,342,140997,2,0,B|172:234,1,103.5,0|2,1:0|0:0,2:0:0:0:
133,20,141350,6,0,B|288:60,1,155.25,6|0,3:2|2:0,2:0:0:0:
373,14,141707,2,0,B|494:45,1,103.5,4|2,1:0|0:0,2:0:0:0:
196,78,142064,5,4,1:2:0:0:
481,32,142242,1,0,3:0:0:0:
187,84,142421,1,2,3:2:0:0:
489,26,142600,1,8,3:0:0:0:
302,290,142778,6,0,P|299:219|369:206,1,155.25,6|0,3:1|0:0,2:0:0:0:
424,290,143126,2,0,P|473:296|510:261,1,103.5,4|0,1:2|2:0,2:0:0:0:
190,8,143475,6,0,P|187:79|257:92,1,155.25,0|2,1:0|0:0,2:0:0:0:
323,21,143824,1,6,1:2:0:0:
110,124,143998,1,2,0:0:0:0:
332,9,144173,6,0,B|487:49,1,155.25,4|0,1:0|2:0,2:0:0:0:
394,216,144522,2,0,P|428:179|422:130,1,103.5,0|0,1:0|2:0,2:0:0:0:
249,342,144871,6,0,B|94:302,1,155.25,0|0,1:0|2:0,2:0:0:0:
43,226,145219,1,4,1:2:0:0:
160,361,145394,1,2,3:0:0:0:
164,0,145568,6,0,B|176:75|114:59|136:147,1,155.25,6|0,1:1|2:0,2:0:0:0:
221,188,145925,2,0,P|271:194|308:159,1,103.5,0|0,1:0|0:0,2:0:0:0:
437,362,146282,6,0,B|425:287|487:303|465:215,1,155.25,0|0,1:0|2:0,2:0:0:0:
406,136,146639,1,4,1:2:0:0:
490,298,146818,1,2,0:0:0:0:
478,26,146996,6,0,B|323:66,1,155.25,0|0,1:0|0:0,2:0:0:0:
253,1,147348,2,0,P|203:-5|166:29,1,103.5,4|2,1:2|0:0,2:0:0:0:
11,183,147701,6,0,B|166:223,1,155.25,4|0,1:1|2:0,2:0:0:0:
236,157,148054,2,0,P|285:151|321:185,1,103.5,2|2,1:2|0:0,2:0:0:0:
293,384,148407,6,0,B|448:344,1,155.25,0|0,1:0|0:0,2:0:0:0:
493,259,148762,2,0,P|499:209|464:172,1,103.5,4|0,1:0|2:0,2:0:0:0:
226,309,149117,6,0,B|71:269,1,155.25,0|0,1:0|2:0,2:0:0:0:
44,174,149472,2,0,P|80:140|130:146,1,103.5,0|2,1:0|0:0,2:0:0:0:
331,299,149827,6,0,B|371:144,1,155.25,4|0,1:0|0:0,2:0:0:0:
323,60,150182,2,0,P|286:25|236:31,1,103.5,0|2,1:0|0:0,2:0:0:0:
241,353,150537,6,0,B|201:198,1,155.25,4|0,1:2|0:0,2:0:0:0:
44,174,150892,2,0,P|80:140|130:146,1,103.5,4|0,1:0|2:0,2:0:0:0:
445,60,151247,6,0,P|448:131|378:144,1,155.25,0|0,1:0|2:0,2:0:0:0:
323,60,151595,2,0,P|274:54|237:89,1,103.5,0|2,1:0|0:0,2:0:0:0:
396,270,151944,6,0,B|241:310,1,155.25,4|0,1:0|2:0,2:0:0:0:
156,264,152293,2,0,B|35:295,1,103.5,0|2,1:0|0:0,2:0:0:0:
380,0,152654,6,0,B|340:155,1,155.25,4|0,1:0|2:0,2:0:0:0:
293,374,153006,2,0,B|254:223,1,155.25,4|0,1:0|2:0,2:0:0:0:
218,103,153359,5,0,3:0:0:0:
263,230,153539,1,4,0:3:0:0:
351,149,153720,1,4,0:3:0:0:
46,44,154091,5,6,0:0:0:0:
92,188,164502,6,0,L|105:233,1,33.7500000000001,2|2,0:3|0:3,2:0:0:0:
53,279,164679,1,0,0:0:0:0:
43,283,164767,1,2,0:3:0:0:
34,277,164855,1,2,0:0:0:0:
140,334,165032,6,0,P|195:330|232:378,1,101.25,2|0,0:3|0:0,2:0:0:0:
226,359,165374,6,0,P|277:347|318:344,1,67.5000000000002,2|8,3:2|0:1,2:0:0:0:
482,298,165729,2,0,P|448:292|416:283,1,67.5000000000002,10|2,0:0|3:2,2:0:0:0:
332,207,166084,5,2,3:2:0:0:
293,141,166261,1,2,0:3:0:0:
318,71,166439,1,2,3:2:0:0:
197,163,166616,5,2,0:3:0:0:
100,219,166794,2,0,P|133:218|163:234,1,67.5000000000002,2|2,3:2|0:3,2:0:0:0:
318,71,167142,6,0,P|319:33|297:3,1,67.5000000000002,2|2,3:2|0:3,2:0:0:0:
223,25,167491,2,0,P|221:62|243:98,1,67.5000000000002,8|2,3:1|0:3,2:0:0:0:
293,142,167753,5,8,0:1:0:0:
293,142,167840,2,0,P|343:104|427:119,1,135,10|0,3:2|2:0,2:0:0:0:
469,163,168192,6,0,P|455:222|452:248,1,67.5000000000002,2|2,3:3|0:3,2:0:0:0:
489,358,168544,1,0,3:0:0:0:
495,349,168633,1,8,0:1:0:0:
495,338,168721,1,2,0:0:0:0:
493,328,168809,1,2,0:3:0:0:
471,322,168897,6,0,B|380:340|380:340|368:361,1,101.25,2|8,3:2|0:1,2:0:0:0:
375,347,169250,2,0,L|294:336,1,67.5000000000002,0|2,3:0|0:3,2:0:0:0:
96,376,169603,1,2,3:2:0:0:
96,376,169691,2,0,P|158:357|182:359,1,67.5000000000002,8|0,2:1|2:0,2:0:0:0:
201,291,169956,2,0,L|182:207,1,67.5000000000002,2|2,3:2|0:0,2:0:0:0:
234,162,170221,1,8,0:1:0:0:
236,150,170309,1,2,3:3:0:0:
86,84,170486,5,2,0:3:0:0:
98,86,170574,1,8,0:1:0:0:
94,98,170662,2,0,P|59:130|-5:124,1,101.25,10|8,3:2|0:1,2:0:0:0:
157,31,171015,6,0,L|234:51,1,67.5000000000002,0|2,3:2|0:3,2:0:0:0:
341,99,171368,1,0,3:2:0:0:
341,99,171456,1,8,0:1:0:0:
420,78,171633,1,0,2:0:0:0:
420,78,171721,2,0,B|427:90|427:90|409:152,1,67.5000000000002,0|2,3:3|0:0,2:0:0:0:
468,196,171986,5,8,0:1:0:0:
485,192,172074,1,2,3:0:0:0:
380,258,172250,2,0,L|329:245,1,33.7500000000001,8|0,0:1|0:0,2:0:0:0:
281,288,172427,5,0,3:2:0:0:
288,301,172515,1,8,0:1:0:0:
188,383,172691,1,8,0:1:0:0:
195,370,172780,1,0,3:2:0:0:
73,243,172956,2,0,L|89:292,1,33.7500000000001,2|8,0:3|0:1,2:0:0:0:
66,362,173133,6,0,L|-11:347,1,67.5000000000002,0|8,3:2|0:1,2:0:0:0:
0,349,173397,1,8,0:1:0:0:
0,349,173486,2,0,B|60:362|94:306|64:298|126:245|178:275,1,202.5,8|0,0:0|0:0,2:0:0:0:
242,314,173839,6,0,P|238:329|236:317,1,45,2|0,3:3|2:0,2:0:0:0:
149,154,174012,1,8,3:0:0:0:
155,132,174099,1,0,3:0:0:0:
161,110,174185,1,8,0:0:0:0:
232,53,174359,5,8,3:0:0:0:
232,53,174445,1,0,3:0:0:0:
232,53,174532,1,8,0:0:0:0:
76,195,174708,1,8,0:3:0:0:
0,63,174884,5,8,0:3:0:0:
73,88,175061,1,2,3:0:0:0:
381,6,175237,5,8,1:2:0:0:
381,6,176146,2,0,P|399:38|397:71,1,67.5000000000001,2|0,0:0|0:0,2:0:0:0:
273,220,176663,6,0,L|312:69,1,155.25,4|0,1:0|2:0,2:0:0:0:
284,240,177015,1,0,1:0:0:0:
242,24,177191,1,0,0:0:0:0:
388,245,177368,5,0,1:0:0:0:
187,95,177544,1,0,3:0:0:0:
451,167,177721,5,0,1:0:0:0:
461,164,177809,1,0,3:0:0:0:
468,158,177897,1,0,3:0:0:0:
326,332,178074,6,0,L|175:371,1,155.25,0|0,1:0|0:0,2:0:0:0:
43,231,178427,2,0,B|66:222|82:210|82:210|126:218|134:272|114:302,1,155.25,0|0,1:0|0:0,2:0:0:0:
82,383,178780,5,0,1:0:0:0:
19,153,178956,1,0,3:0:0:0:
180,384,179133,6,0,L|255:364,1,60.7500000000001,0|0,1:0|0:0,2:0:0:0:
373,308,179486,2,0,L|222:268,1,155.25,0|0,1:0|2:0,2:0:0:0:
378,330,179839,5,0,1:0:0:0:
173,197,180015,1,0,3:0:0:0:
415,139,180192,5,0,1:0:0:0:
228,285,180368,1,0,3:0:0:0:
462,249,180545,6,0,L|512:262,1,51.75,0|0,1:0|2:0,2:0:0:0:
324,177,180721,2,0,L|273:190,1,51.75,0|0,2:0|0:0,2:0:0:0:
1,108,180897,6,0,B|104:83|104:83|126:107|158:102,1,155.25,2|0,1:2|2:0,2:0:0:0:
270,0,181250,2,0,L|167:27,1,103.5,0|0,1:0|3:0,2:0:0:0:
78,135,181515,5,0,0:0:0:0:
74,143,181604,1,0,1:0:0:0:
156,197,181778,1,0,3:0:0:0:
45,0,181952,5,0,1:0:0:0:
1,266,182127,1,0,3:0:0:0:
162,384,182301,6,0,L|312:344,1,155.25,4|0,1:2|0:0,2:0:0:0:
436,297,182651,1,0,1:0:0:0:
247,232,182827,1,2,3:2:0:0:
406,377,183002,1,0,1:0:0:0:
307,167,183178,5,2,3:2:0:0:
301,156,183265,1,0,0:0:0:0:
297,146,183353,2,0,L|284:96,1,51.75,0|0,1:0|0:0,2:0:0:0:
463,257,183529,2,0,L|450:307,1,51.75,2|2,3:2|0:0,2:0:0:0:
196,71,183704,6,0,L|346:31,1,155.25,2|0,1:0|2:0,2:0:0:0:
427,108,184055,2,0,B|450:117|466:129|466:129|510:121|518:67|498:37,1,155.25,2|0,1:0|0:0,2:0:0:0:
420,0,184406,5,2,1:0:0:0:
392,186,184581,1,0,3:0:0:0:
182,60,184757,5,2,1:0:0:0:
436,99,184932,1,0,2:0:0:0:
165,234,185108,5,0,1:0:0:0:
292,136,185283,1,2,0:0:0:0:
296,120,185371,1,2,0:0:0:0:
301,104,185458,1,2,1:2:0:0:
263,26,185634,5,2,3:2:0:0:
213,146,185809,2,0,L|363:186,1,155.25,2|0,1:2|0:0,2:0:0:0:
458,280,186160,2,0,L|533:260,1,51.75,6|0,1:2|2:0,2:0:0:0:
455,98,186336,2,0,L|475:173,1,51.75,0|2,2:0|0:0,2:0:0:0:
323,306,186511,5,2,1:2:0:0:
318,302,186599,1,0,0:0:0:0:
316,296,186686,1,2,0:0:0:0:
215,135,186862,6,0,L|140:115,1,51.75,8|8,3:0|3:0,2:0:0:0:
72,216,187037,2,0,L|21:202,1,51.75,8|8,3:0|3:0,2:0:0:0:
263,66,187213,5,0,1:0:0:0:
268,70,187301,1,0,1:0:0:0:
270,76,187388,1,0,1:0:0:0:
268,82,187476,1,0,1:0:0:0:
215,135,187564,5,4,3:0:0:0:
202,174,187651,1,2,2:0:0:0:
211,214,187739,1,2,0:0:0:0:
244,239,187827,1,2,0:0:0:0:
286,235,187915,6,0,B|295:258|307:274|307:274|299:318|245:326|215:306,1,155.25,6|0,3:2|0:0,2:0:0:0:
372,210,188278,2,0,L|409:70,1,103.5,0|2,1:0|0:0,2:0:0:0:
321,3,188551,5,0,3:0:0:0:
315,0,188642,1,2,3:2:0:0:
393,297,188824,1,0,3:0:0:0:
503,94,189005,5,0,1:0:0:0:
279,151,189187,1,2,0:0:0:0:
511,261,189369,5,2,3:2:0:0:
235,330,189545,1,0,3:0:0:0:
398,109,189721,6,0,L|361:249,1,103.5,2|2,1:2|0:0,2:0:0:0:
415,329,189986,5,0,1:0:0:0:
412,335,190074,1,2,3:2:0:0:
211,233,190251,1,0,3:0:0:0:
93,355,190427,6,0,L|21:336,1,60.7500000000001,2|0,1:2|2:0,2:0:0:0:
186,307,190780,6,0,B|161:204|161:204|185:182|180:150,1,155.25,2|0,3:2|2:0,2:0:0:0:
121,42,191133,2,0,L|94:142,1,103.5,0|2,1:0|0:0,2:0:0:0:
252,34,191397,5,0,1:0:0:0:
258,31,191486,1,0,3:2:0:0:
117,229,191662,1,0,3:0:0:0:
345,99,191839,6,0,L|395:85,1,51.75,2|0,1:2|2:0,2:0:0:0:
94,142,192015,2,0,L|43:128,1,51.75,2|0,3:2|3:2,2:0:0:0:
347,269,192191,6,0,B|370:278|386:290|386:290|430:282|438:228|418:198,1,155.25,2|0,3:2|2:0,2:0:0:0:
312,357,192544,2,0,L|212:384,1,103.5,2|2,1:2|0:0,2:0:0:0:
70,305,192809,5,2,1:3:0:0:
60,299,192897,2,0,L|-13:318,1,51.75,2|0,3:2|2:0,2:0:0:0:
104,384,193074,1,0,3:0:0:0:
214,109,193250,5,2,1:2:0:0:
347,269,193427,1,0,2:0:0:0:
347,269,193515,1,0,0:0:0:0:
366,281,193604,6,0,L|506:244,1,103.5,2|2,3:2|0:2,2:0:0:0:
493,124,193950,2,0,L|420:143,1,51.75,6|0,1:2|2:0,2:0:0:0:
259,335,194124,5,2,3:2:0:0:
253,333,194210,1,8,3:0:0:0:
249,328,194297,2,0,P|212:276|239:223,1,103.5,0|2,1:0|3:2,2:0:0:0:
278,165,194557,1,2,1:2:0:0:
366,192,194644,1,2,1:2:0:0:
46,369,194817,5,4,3:1:0:0:
46,369,196428,5,6,3:2:0:0:
24,339,196515,1,0,0:0:0:0:
31,303,196603,1,2,0:0:0:0:
58,280,196691,1,0,0:0:0:0:
94,274,196780,1,0,1:0:0:0:
118,247,196868,1,0,0:0:0:0:
123,211,196956,1,2,0:0:0:0:
106,178,197044,1,2,0:0:0:0:
71,165,197133,6,0,P|61:189|38:205,3,45,0|2|0|2,1:0|0:0|3:0|0:0,2:0:0:0:
142,41,197486,2,0,P|156:59|161:81,3,45,0|2|0|2,1:0|0:0|3:0|0:0,2:0:0:0:
238,140,197839,5,0,1:0:0:0:
267,151,197927,1,0,2:0:0:0:
298,150,198015,1,0,2:0:0:0:
327,138,198103,1,0,0:0:0:0:
351,118,198191,1,0,1:0:0:0:
367,91,198280,1,0,2:0:0:0:
365,59,198368,1,0,3:0:0:0:
356,28,198456,1,0,3:0:0:0:
331,8,198544,6,0,L|343:67,3,45,0|2|0|2,1:0|0:0|3:0|0:0,2:0:0:0:
482,119,198897,2,0,L|470:178,1,45,0|0,1:0|0:0,2:0:0:0:
409,248,199074,2,0,P|404:218|387:186,1,45,0|0,3:0|2:0,2:0:0:0:
512,285,199250,5,0,1:0:0:0:
473,271,199339,1,2,0:0:0:0:
432,272,199427,1,2,0:0:0:0:
398,294,199515,1,2,0:0:0:0:
373,325,199601,2,0,L|268:300,1,90,0|2,1:0|3:2,2:0:0:0:
79,368,199865,1,2,0:0:0:0:
89,372,199952,2,0,B|130:363|130:363|136:360|136:360|176:351,1,90,0|0,1:0|3:0,2:0:0:0:
207,281,200215,5,2,0:0:0:0:
207,281,200303,2,0,P|213:243|220:226,1,45,0|2,1:0|0:0,2:0:0:0:
79,121,200479,2,0,P|73:159|66:176,1,45,0|2,3:0|0:0,2:0:0:0:
277,128,200654,5,0,1:0:0:0:
307,121,200742,1,0,2:0:0:0:
331,100,200829,1,0,2:0:0:0:
344,71,200917,1,2,0:0:0:0:
339,39,201005,1,0,1:0:0:0:
317,16,201093,1,0,2:0:0:0:
287,4,201180,2,0,P|255:18|229:18,1,45,0|2,3:0|0:0,2:0:0:0:
191,74,201356,2,0,P|159:60|133:60,1,45,0|0,1:0|2:0,2:0:0:0:
2,16,201531,5,0,3:0:0:0:
11,6,201619,1,2,0:0:0:0:
18,17,201707,2,0,L|34:92,1,45,0|2,1:0|0:0,2:0:0:0:
104,44,201882,2,0,L|92:0,1,45,0|0,3:0|0:0,2:0:0:0:
94,246,202058,6,0,B|72:298|72:298|99:332|88:374,1,135,0|2,1:0|0:0,2:0:0:0:
88,371,202408,2,0,P|59:376|36:388,1,45,0|0,1:0|2:0,2:0:0:0:
191,310,202584,2,0,L|236:320,1,45,0|2,3:0|0:0,2:0:0:0:
308,378,202759,5,0,1:0:0:0:
348,380,202847,1,2,0:0:0:0:
385,366,202935,1,0,3:0:0:0:
409,333,203022,1,0,0:0:0:0:
437,303,203110,1,0,1:0:0:0:
477,298,203198,1,0,0:0:0:0:
511,311,203286,2,0,P|501:342|502:369,1,45,0|0,3:0|0:0,2:0:0:0:
398,204,203461,6,0,P|408:162|406:145,3,45,4|0|0|0,1:0|2:0|2:0|0:0,2:0:0:0:
473,117,203812,2,0,P|463:75|465:58,3,45,0|0|0|2,1:0|2:0|3:0|0:0,2:0:0:0:
363,82,204163,6,0,P|322:97|302:97,1,45,0|0,1:0|0:0,2:0:0:0:
478,194,204338,2,0,P|505:198|520:210,1,45,0|0,3:0|0:0,2:0:0:0:
309,295,204514,6,0,B|303:287|303:287|327:204,1,90,0|0,1:0|3:0,2:0:0:0:
265,169,204777,1,2,0:0:0:0:
265,169,204865,2,0,L|201:190,1,45,0|0,1:0|2:0,2:0:0:0:
59,273,205040,5,0,2:0:0:0:
59,273,205128,1,0,0:0:0:0:
59,273,205215,2,0,L|72:207,1,45,0|0,1:0|2:0,2:0:0:0:
79,48,205391,5,0,3:0:0:0:
79,48,205479,1,0,2:0:0:0:
79,48,205566,2,0,L|129:92,1,45,0|2,1:0|0:0,2:0:0:0:
188,273,205742,5,0,3:0:0:0:
188,273,205829,1,2,0:0:0:0:
188,273,205917,2,0,L|137:228,1,45,0|0,1:0|0:0,2:0:0:0:
3,135,206093,5,0,3:0:0:0:
0,143,206180,1,2,0:0:0:0:
12,157,206268,2,0,L|76:136,1,45,0|0,1:0|2:0,2:0:0:0:
185,12,206444,5,0,3:0:0:0:
183,20,206532,1,0,2:0:0:0:
197,34,206620,2,0,L|261:15,1,45,0|0,1:0|2:0,2:0:0:0:
491,24,206797,5,0,3:0:0:0:
485,13,206885,1,2,0:0:0:0:
453,7,206973,5,0,1:0:0:0:
415,36,207062,1,0,1:0:0:0:
413,81,207150,1,4,0:3:0:0:
446,114,207238,1,4,0:3:0:0:
473,117,207349,5,0,1:0:0:0:
512,154,207437,1,0,0:0:0:0:
508,209,207525,1,2,0:0:0:0:
464,243,207613,1,0,0:0:0:0:
398,204,207701,6,0,P|405:185|413:157,3,45,4|0|0|0,1:0|2:0|2:0|0:0,2:0:0:0:
505,325,208053,2,0,P|497:343|490:372,3,45,0|0|0|2,1:0|2:0|3:0|0:0,2:0:0:0:
374,323,208406,5,0,1:0:0:0:
345,301,208495,1,2,0:0:0:0:
309,295,208583,1,0,3:0:0:0:
276,304,208671,1,2,0:0:0:0:
251,332,208759,1,0,1:0:0:0:
225,357,208848,1,2,0:0:0:0:
191,369,208936,1,0,3:0:0:0:
155,361,209024,1,2,0:0:0:0:
129,334,209112,6,0,L|80:349,3,45,0|0|0|0,1:0|2:0|2:0|0:0,2:0:0:0:
0,264,209465,2,0,L|53:277,1,45,0|0,1:0|2:0,2:0:0:0:
109,221,209642,5,0,3:0:0:0:
142,209,209730,1,2,0:0:0:0:
166,182,209818,1,0,1:0:0:0:
172,146,209906,1,2,0:0:0:0:
162,111,209995,1,0,3:0:0:0:
134,88,210083,1,2,0:0:0:0:
93,85,210171,6,0,P|101:114|101:149,1,45,0|2,1:0|0:0,2:0:0:0:
276,304,210348,2,0,P|268:275|268:240,1,45,2|2,3:0|0:0,2:0:0:0:
380,95,210524,5,0,1:0:0:0:
380,95,210612,2,0,P|419:127|400:171,1,90,0|0,2:0|0:0,2:0:0:0:
342,195,210877,2,0,P|304:183|277:183,1,45,0|0,1:0|2:0,2:0:0:0:
243,126,211053,2,0,P|205:138|178:138,1,45,0|2,3:0|0:0,2:0:0:0:
34,202,211230,5,0,1:0:0:0:
51,197,211318,1,2,0:0:0:0:
73,198,211406,1,0,3:0:0:0:
94,205,211495,1,2,0:0:0:0:
109,221,211583,2,0,L|116:273,1,45,0|2,1:0|0:0,2:0:0:0:
42,336,211759,2,0,L|35:291,1,45,0|0,3:0|0:0,2:0:0:0:
200,326,211936,6,0,B|274:328|250:378|352:371,1,135,0|0,1:0|0:0,2:0:0:0:
399,384,212286,2,0,B|404:375|404:375|393:327,1,45,0|0,1:0|2:0,2:0:0:0:
459,244,212462,1,0,3:0:0:0:
463,254,212550,1,2,0:0:0:0:
466,263,212637,2,0,L|524:274,1,45,0|0,1:0|0:0,2:0:0:0:
341,197,212813,2,0,L|283:208,1,45,4|0,0:3|0:0,2:0:0:0:
455,114,212988,5,0,1:0:0:0:
471,98,213076,1,0,0:0:0:0:
477,76,213164,1,0,3:0:0:0:
471,53,213251,1,0,2:0:0:0:
455,33,213339,2,0,L|469:-14,3,45,0|2|2|2,1:0|0:0|0:0|0:0,2:0:0:0:
371,66,213690,6,0,L|358:22,1,45,0|0,1:0|2:0,2:0:0:0:
471,204,213865,1,0,3:0:0:0:
475,212,213953,1,0,3:0:0:0:
479,220,214041,2,0,L|465:265,1,45,0|2,1:0|0:0,2:0:0:0:
399,384,214216,2,0,L|385:341,1,45,0|0,3:0|3:0,2:0:0:0:
316,284,214392,5,0,1:0:0:0:
492,358,214567,1,2,3:2:0:0:
316,284,214743,2,0,P|260:301|231:321,1,90,0|0,1:0|0:0,2:0:0:0:
53,219,215006,1,0,2:0:0:0:
63,220,215093,2,0,P|101:243|144:254,1,90,0|0,1:0|3:0,2:0:0:0:
158,340,215357,5,0,3:0:0:0:
158,340,215444,2,0,P|147:367|146:393,1,45,0|0,1:0|0:0,2:0:0:0:
65,359,215623,2,0,P|76:332|77:306,1,45,0|0,3:0|0:0,2:0:0:0:
241,187,215803,6,0,P|211:193|190:207,1,45,0|0,1:0|2:0,2:0:0:0:
144,254,215982,1,0,3:0:0:0:
52,42,216162,5,0,1:0:0:0:
97,30,216250,1,0,1:0:0:0:
121,73,216339,2,0,P|110:103|106:126,1,54,4|4,0:3|0:3,2:0:0:0:
158,340,216517,6,0,P|159:309|149:267,1,67.5000025749208,6|2,3:2|0:0,2:0:0:0:
91,223,216783,1,0,1:0:0:0:
86,229,216872,2,0,L|24:248,1,54,0|0,1:0|1:0,2:0:0:0:
305,110,217049,6,0,L|445:145,1,135.000005149842,4|0,3:2|1:0,2:0:0:0:
438,151,217493,1,0,1:0:0:0:
500,193,217582,6,0,B|467:173|436:199|436:199|405:245|368:222,1,135,4|8,3:2|3:0,2:0:0:0:
292,275,217853,1,0,3:0:0:0:
287,272,217943,2,0,L|310:195,1,67.5000025749208,0|0,1:0|1:0,3:0:0:0:
388,332,218124,6,0,L|368:399,1,45,4|0,3:2|0:0,2:0:0:0:
243,171,218304,1,8,3:0:0:0:
239,147,218395,1,8,3:0:0:0:
235,121,218485,1,0,1:0:0:0:
271,114,218575,1,0,1:0:0:0:
305,110,218666,6,0,L|317:74,6,22.5,6|2|0|2|2|2|0,3:2|2:0|0:0|2:0|0:0|2:0|0:0,2:0:0:0:
277,9,219027,5,4,3:1:0:0:
