osu file format v14

[General]
AudioFilename: audio.mp3
AudioLeadIn: 0
PreviewTime: 61644
Countdown: 0
SampleSet: Soft
StackLeniency: 0.5
Mode: 0
LetterboxInBreaks: 0
WidescreenStoryboard: 1

[Editor]
Bookmarks: 15844,31204,46566,61924,77284,92646,100324,108006,123364,138484,153844,169444,186487,205923,221043
DistanceSpacing: 0.8
BeatDivisor: 6
GridSize: 16
TimelineZoom: 1.7

[Metadata]
Title:Periodo Azul
TitleUnicode:青のID
Artist:Tokyo Incidents
ArtistUnicode:東京事変
Creator:Irohas
Version:Insane
Source:さくら
Tags:mugiwarasekai tomadoi shiinoha kotone tricolor sakura movie 音楽 ongaku music 椎名林檎 sheena shiina ringo 亀田誠治 seiji kameda 刄田綴色 toshiki hata 浮雲 ukigmo 伊澤一葉 ichiyo izawa ao no id blue period jihen jazz japanese
BeatmapID:3068035
BeatmapSetID:1496687

[Difficulty]
HPDrainRate:6
CircleSize:4.2
OverallDifficulty:6
ApproachRate:9
SliderMultiplier:1.5
SliderTickRate:1

[Events]
//Background and Video events
0,0,"85767128_p0.jpg",0,0
//Break Periods
2,93084,98404
2,169644,171500
//Storyboard Layer 0 (Background)
//Storyboard Layer 1 (Fail)
//Storyboard Layer 2 (Pass)
//Storyboard Layer 3 (Foreground)
//Storyboard Layer 4 (Overlay)
//Storyboard Sound Samples

[TimingPoints]
1456,512.820512820513,3,2,1,30,1,0
1456,-133.333333333333,3,2,1,30,0,0
2481,487.80487804878,3,2,1,30,1,0
2481,-133.333333333333,3,2,1,30,0,0
2968,545.454545454546,3,2,1,30,1,0
3513,521.739130434783,3,2,1,30,1,0
3513,-133.333333333333,3,2,1,30,0,0
4556,508.474576271186,3,2,1,30,1,0
4556,-133.333333333333,3,2,1,30,0,0
5572,588.235294117647,3,2,1,30,1,0
5572,-133.333333333333,3,2,1,30,0,0
6160,545.454545454546,3,2,1,30,1,0
6160,-133.333333333333,3,2,1,30,0,0
6705,491.803278688525,3,2,1,30,1,0
7196,521.739130434783,3,2,1,30,1,0
7196,-133.333333333333,3,2,1,30,0,0
7717,512.820512820513,3,2,1,30,1,0
8229,-133.333333333333,3,2,1,30,0,0
9767,588.235294117647,3,2,1,30,1,0
9768,-117.647058823529,3,2,1,30,0,0
10355,571.428571428571,3,2,1,30,1,0
10926,588.235294117647,3,2,1,30,1,0
10926,-117.647058823529,3,2,1,30,0,0
11514,634.920634920635,3,2,1,30,1,0
11514,-125,3,2,1,30,0,0
13418,689.655172413793,3,2,1,30,1,0
13418,-133.333333333333,3,2,1,30,0,0
14107,868.935553946416,3,2,1,30,1,0
15844,240,4,2,1,65,1,0
21924,-100,4,2,1,5,0,0
21964,-142.857142857143,4,2,1,65,0,0
22324,-100,4,2,1,65,0,0
22644,-100,4,2,1,5,0,0
22684,-142.857142857143,4,2,1,65,0,0
23044,-83.3333333333333,4,2,1,65,0,0
23524,-100,4,2,1,65,0,0
29604,-100,4,2,1,5,0,0
29644,-142.857142857143,4,2,1,65,0,0
30004,-100,4,2,1,65,0,0
30324,-100,4,2,1,5,0,0
30364,-142.857142857143,4,2,1,65,0,0
30724,-83.3333333333333,4,2,1,65,0,0
31204,-111.111111111111,4,2,1,60,0,0
36964,-142.857142857143,4,2,1,60,0,0
38644,-100,4,2,1,60,0,0
38884,-111.111111111111,4,2,1,60,0,0
46564,-125,4,2,1,60,0,0
53284,-90.9090909090909,4,2,1,60,0,0
53364,-90.9090909090909,4,2,1,5,0,0
53524,-100,4,2,1,50,0,0
54244,-125,4,2,1,50,0,0
58324,-125,4,2,1,55,0,0
59044,-111.111111111111,4,2,1,60,0,0
59524,-100,4,2,1,60,0,0
59764,-111.111111111111,4,2,1,60,0,0
61444,-285.714285714286,4,2,1,60,0,0
61924,-100,4,2,1,60,0,0
68644,-83.3333333333333,4,2,1,60,0,0
68884,-100,4,2,1,60,0,0
69364,-83.3333333333333,4,2,1,60,0,0
69604,-100,4,2,1,60,0,0
76564,-100,4,2,1,60,0,0
77284,-111.111111111111,4,2,1,60,0,0
83044,-100,4,2,1,60,0,0
83364,-100,4,2,1,5,0,0
83404,-142.857142857143,4,2,1,60,0,0
83764,-100,4,2,1,60,0,0
84084,-100,4,2,1,5,0,0
84124,-142.857142857143,4,2,1,60,0,0
84484,-83.3333333333333,4,2,1,60,0,0
84964,-100,4,2,1,60,0,0
90764,-90.9090909090909,4,2,1,60,0,0
92644,-333.333333333333,4,2,1,60,0,0
92884,-333.333333333333,4,2,1,40,0,0
100324,-125,4,2,1,50,0,0
106444,-125,4,2,1,30,0,0
106864,-125,4,2,1,20,0,0
107224,-125,4,2,1,15,0,0
107524,-125,4,2,1,60,0,0
121204,-111.111111111111,4,2,1,60,0,0
122884,-285.714285714286,4,2,1,60,0,0
123364,-100,4,2,1,65,0,0
130324,-133.333333333333,4,2,1,65,0,0
131044,-100,4,2,1,65,0,0
138004,-250,4,2,1,65,0,0
138484,-142.857142857143,4,2,1,55,0,0
151924,-125,4,2,1,55,0,0
152284,-125,4,2,1,60,0,0
152404,-111.111111111111,4,2,1,60,0,0
152644,-133.333333333333,4,2,1,60,0,0
152884,-111.111111111111,4,2,1,60,0,0
153124,-133.333333333333,4,2,1,60,0,0
153564,-125,4,2,1,60,0,0
153844,-133.333333333333,4,2,1,50,0,0
165604,-117.647058823529,4,2,1,50,0,0
166564,-111.111111111111,4,2,1,50,0,0
167324,-111.111111111111,4,2,1,5,0,0
168324,-200,4,2,1,25,0,0
169204,-200,4,2,1,35,0,0
169444,495.867768595041,4,2,1,60,1,0
170435,472.44094488189,4,2,1,60,1,0
171379,500,4,2,1,60,1,0
171879,461.538461538462,4,2,1,60,1,0
172340,480,4,2,1,60,1,0
173300,480,4,2,1,40,1,0
173300,-153.846153846153,4,2,1,40,0,0
176660,-181.818181818181,4,2,1,40,0,0
177020,-181.818181818181,4,2,1,5,0,0
177140,-76.9230769230769,4,2,1,50,0,0
177500,-66.6666666666667,4,2,1,5,0,0
177620,-76.9230769230769,4,2,1,50,0,0
177980,-76.9230769230769,4,2,1,5,0,0
178100,-76.9230769230769,4,2,1,50,0,0
178460,-76.9230769230769,4,2,1,5,0,0
178580,-76.9230769230769,4,2,1,50,0,0
178940,-58.8235294117647,4,2,1,5,0,0
179060,-44.4444444444445,4,2,1,50,0,0
179420,-44.4444444444445,4,2,1,5,0,0
179540,-200,4,2,1,50,0,0
179900,-200,4,2,1,5,0,0
180020,-44.4444444444445,4,2,1,50,0,0
180380,-44.4444444444445,4,2,1,5,0,0
180500,-200,4,2,1,50,0,0
180860,-200,4,2,1,5,0,0
180980,-35.0877192982456,4,2,1,50,0,0
181340,-35.0877192982456,4,2,1,5,0,0
181460,-76.9230769230769,4,2,1,50,0,0
182180,-76.9230769230769,4,2,1,50,0,0
182660,-76.9230769230769,4,2,1,50,0,0
184820,-55.5555555555556,4,2,1,50,0,0
184900,-55.5555555555556,4,2,1,60,0,0
185140,-50,4,2,1,60,0,0
185780,471.512770137525,4,2,1,60,1,0
185780,-83.3333333333333,4,2,1,60,0,0
186015,-34.4827586206897,4,2,1,40,0,0
186369,-34.4827586206897,4,2,1,5,0,0
186483,240,4,2,1,70,1,0
186723,240,4,2,1,70,1,0
202363,-100,4,2,1,5,0,0
202563,-100,4,2,1,70,0,0
202603,-100,4,2,1,5,0,0
202803,-100,4,2,1,70,0,0
202843,-100,4,2,1,70,0,0
203083,-100,4,2,1,5,0,0
203283,-100,4,2,1,70,0,0
203323,-100,4,2,1,5,0,0
203523,-100,4,2,1,70,0,0
203563,-100,4,2,1,5,0,0
203763,-100,4,2,1,70,0,0
203803,-100,4,2,1,5,0,0
205683,-100,4,2,1,60,0,0
213123,-83.3333333333333,4,2,1,60,0,0
213603,-100,4,2,1,60,0,0
219403,-100,4,2,1,5,0,0
219443,-100,4,2,1,60,0,0
219643,-100,4,2,1,5,0,0
219683,-100,4,2,1,60,0,0
219883,-100,4,2,1,5,0,0
219923,-100,4,2,1,60,0,0
220123,-100,4,2,1,5,0,0
220163,-100,4,2,1,60,0,0
221043,-333.333333333333,4,2,1,60,0,0
221403,-100,4,2,1,60,0,0

[Colours]
Combo1 : 255,222,204
Combo2 : 203,240,252
Combo3 : 228,236,204
Combo4 : 244,245,199

[HitObjects]
512,321,1456,6,0,P|461:287|407:291,1,112.500004291535,2|2,0:0|0:0,0:0:0:0:
232,218,2481,2,0,L|350:198,1,112.500004291535,2|2,0:0|0:0,0:0:0:0:
191,319,3513,2,0,B|73:292|73:292|103:312|106:339,1,168.750006437302,2|2,0:0|0:0,0:0:0:0:
104,328,4556,6,0,P|116:264|128:204,1,112.500004291535,2|2,0:0|0:0,0:0:0:0:
12,126,5572,2,0,L|78:114,1,56.2500021457673,2|0,0:0|0:0,0:0:0:0:
149,40,6160,6,0,P|93:9|41:23,1,112.500004291535,2|2,0:0|0:0,0:0:0:0:
269,137,7196,2,0,L|328:126,1,56.2500021457673,2|0,0:0|0:0,0:0:0:0:
419,65,7717,1,2,0:0:0:0:
419,65,8229,2,0,L|402:177,1,112.500004291535,2|2,0:0|0:0,0:0:0:0:
509,338,9255,2,0,P|498:308|494:272,1,56.2500021457673,2|0,0:0|0:0,0:0:0:0:
398,362,9768,6,0,P|334:330|273:342,1,127.50000243187,2|2,0:0|0:0,0:0:0:0:
197,262,10783,1,2,0:0:0:0:
193,256,10926,2,0,P|199:219|210:181,1,63.7500012159348,2|0,0:0|0:0,0:0:0:0:
91,32,11514,6,0,L|108:150,1,120,2|2,0:0|0:0,0:0:0:0:
377,247,13418,6,0,P|395:217|476:212,1,112.500004291535,2|2,0:0|0:0,0:0:0:0:
467,207,15844,6,0,P|421:198|365:188,1,100,4|2,0:0|0:0,0:0:0:0:
352,176,16084,2,0,P|359:219|365:257,1,75,8|0,0:1|0:0,0:0:0:0:
255,384,16324,2,0,P|239:342|260:288,1,100,2|8,3:0|0:0,0:0:0:0:
244,280,16564,2,0,P|209:288|162:299,1,75,8|0,0:1|0:0,0:0:0:0:
74,212,16804,6,0,P|85:154|102:60,2,150,2|8|2,0:3|0:1|3:0,0:0:0:0:
0,350,17444,1,8,0:0:0:0:
0,350,17524,2,0,P|22:322|88:319,1,100,8|8,0:1|0:0,0:0:0:0:
155,357,17764,6,0,P|200:348|262:337,1,100,2|0,3:0|0:0,0:0:0:0:
262,322,18004,2,0,P|298:328|343:336,1,75,8|0,0:1|0:0,0:0:0:0:
479,268,18244,2,0,P|435:239|387:242,1,100,2|8,3:0|0:0,0:0:0:0:
367,225,18484,2,0,P|375:186|384:140,1,75,8|0,0:1|0:0,0:0:0:0:
269,62,18724,6,0,B|205:39|191:97|112:73,2,150,2|8|2,0:3|0:1|3:0,0:0:0:0:
344,143,19364,1,8,0:0:0:0:
344,143,19444,2,0,L|323:252,1,100,8|8,0:1|0:0,0:0:0:0:
382,313,19684,5,2,3:0:0:0:
203,253,19844,1,0,0:0:0:0:
195,247,19924,2,0,P|153:258|113:270,1,75,8|0,0:1|0:0,0:0:0:0:
0,159,20164,2,0,P|32:149|92:179,1,100,2|8,3:0|0:0,0:0:0:0:
93,187,20404,1,8,0:1:0:0:
271,38,20564,1,8,0:0:0:0:
275,45,20644,6,0,P|198:89|136:68,2,150,0|8|2,0:3|0:1|3:0,0:0:0:0:
385,117,21284,1,8,0:0:0:0:
451,72,21364,2,0,P|442:112|427:175,1,100,4|0,0:1|3:0,0:0:0:0:
433,296,21604,6,0,B|348:263|334:349|234:319,1,200,4|0,0:1|0:0,0:0:0:0:
144,264,21964,6,0,P|165:233|229:223,1,104.999996795654,4|2,0:1|0:3,0:0:0:0:
317,150,22324,6,0,B|351:107|329:54|329:54|353:106|412:118,1,200,4|0,0:1|0:0,0:0:0:0:
455,193,22684,6,0,L|432:300,1,104.999996795654,4|2,0:1|0:3,0:0:0:0:
326,360,23044,6,0,P|371:368|415:386,1,89.9999972534181,4|0,0:1|0:0,0:0:0:0:
250,276,23284,2,0,P|205:288|153:302,1,89.9999972534181,4|0,0:1|0:0,0:0:0:0:
51,241,23524,6,0,P|72:214|139:207,1,100,4|0,0:0|0:0,0:0:0:0:
144,192,23764,2,0,P|137:155|129:113,1,75,8|0,0:1|0:0,0:0:0:0:
264,7,24004,2,0,P|253:59|243:106,1,100,2|8,3:0|0:0,0:0:0:0:
256,121,24244,2,0,P|293:115|339:108,1,75,8|0,0:1|0:0,0:0:0:0:
424,54,24484,6,0,P|454:51|505:149,2,150,2|8|2,0:3|0:1|3:0,0:0:0:0:
381,181,25124,1,8,0:0:0:0:
386,184,25204,2,0,P|393:230|402:288,1,100,8|8,0:1|0:0,0:0:0:0:
379,383,25444,6,0,P|350:355|289:357,1,100,2|0,3:0|0:0,0:0:0:0:
275,342,25684,2,0,P|238:350|198:359,1,75,8|0,0:1|0:0,0:0:0:0:
0,284,25924,2,0,P|44:275|104:264,1,100,2|8,3:0|0:0,0:0:0:0:
113,281,26164,2,0,L|97:367,1,75,8|0,0:1|0:0,0:0:0:0:
180,193,26404,6,0,P|170:142|148:36,2,150,0|8|2,0:3|0:1|3:0,0:0:0:0:
258,255,27044,1,8,0:0:0:0:
255,262,27124,1,8,0:1:0:0:
335,145,27284,1,8,0:0:0:0:
332,138,27364,1,2,0:3:0:0:
385,80,27484,6,0,P|373:150|357:232,1,150,2|0,0:1|0:0,0:0:0:0:
479,384,27844,2,0,P|435:347|383:349,1,100,2|8,3:0|0:0,0:0:0:0:
376,362,28084,2,0,L|293:348,1,75,8|0,0:1|0:0,0:0:0:0:
183,313,28324,6,0,P|140:325|64:264,2,150,2|8|8,3:0|0:1|0:1,0:0:0:0:
312,217,28964,1,0,0:0:0:0:
251,159,29044,2,0,P|259:117|273:55,1,100,2|0,0:3|3:0,0:0:0:0:
185,14,29284,6,0,B|45:49|45:49|77:27|72:-10,1,200,4|0,0:1|0:0,0:0:0:0:
144,125,29644,6,0,P|135:175|123:239,1,104.999996795654,4|2,0:1|0:3,0:0:0:0:
189,319,30004,6,0,B|273:287|286:371|385:337,1,200,4|0,0:1|0:0,0:0:0:0:
464,278,30364,6,0,P|493:266|464:286,1,104.999996795654,4|2,0:1|0:3,0:0:0:0:
379,213,30724,6,0,B|338:129|349:14|449:-17|518:27|499:113|444:123,1,359.999989013672,4|4,0:1|0:0,0:0:0:0:
443,123,31444,6,0,P|412:116|375:108,1,67.4999979400635,8|0,0:1|0:0,0:0:0:0:
300,39,31684,2,0,P|262:24|175:72,1,134.999995880127,2|8,0:3|0:1,0:0:0:0:
17,224,32164,2,0,P|11:191|0:154,1,67.4999979400635,2|0,3:0|0:0,0:0:0:0:
113,15,32404,2,0,P|103:72|89:152,1,134.999995880127,8|2,0:1|0:3,0:0:0:0:
157,222,32764,1,0,0:0:0:0:
157,222,32884,2,0,P|199:214|228:209,1,67.4999979400635,8|0,0:1|0:0,0:0:0:0:
315,305,33124,6,0,P|242:340|188:320,1,134.999995880127,2|8,3:0|0:1,0:0:0:0:
502,124,33604,2,0,P|493:92|491:53,1,67.4999979400635,2|0,0:3|0:0,0:0:0:0:
417,180,33844,2,0,L|405:251,1,67.4999979400635,8|0,0:1|0:0,0:0:0:0:
492,356,34084,1,2,3:0:0:0:
492,356,34324,6,0,P|457:348|421:340,1,67.4999979400635,8|0,0:1|0:0,0:0:0:0:
325,271,34564,2,0,P|290:279|254:287,1,67.4999979400635,2|0,0:3|0:0,0:0:0:0:
169,346,34804,2,0,P|134:338|98:330,1,67.4999979400635,8|0,0:1|0:0,0:0:0:0:
3,288,35044,6,0,P|13:252|101:230,1,134.999995880127,2|8,3:0|0:1,0:0:0:0:
244,29,35524,2,0,L|231:101,1,67.4999979400635,2|0,0:3|0:0,0:0:0:0:
299,173,35764,2,0,P|338:166|376:160,1,67.4999979400635,8|2,0:1|0:0,0:0:0:0:
220,252,36004,6,0,P|186:262|115:203,2,134.999995880127,2|8|4,3:0|0:1|0:1,0:0:0:0:
297,303,36604,1,0,0:0:0:0:
253,371,36724,1,6,0:2:0:0:
423,165,36964,6,0,P|406:78|391:1,2,157.499995193482,4|4|4,0:1|0:1|0:1,0:0:0:0:
387,373,37924,1,0,0:0:0:0:
387,373,38044,2,0,P|314:312|250:327,1,157.499995193482,4|4,0:1|0:1,0:0:0:0:
243,317,38644,6,0,P|234:293|231:236,1,75,4|8,0:1|0:1,0:0:0:0:
149,180,38884,6,0,P|105:190|17:211,1,134.999995880127,4|8,0:0|0:1,0:0:0:0:
223,65,39364,2,0,P|292:80|357:95,1,134.999995880127,2|8,0:3|0:1,0:0:0:0:
442,3,39724,1,0,0:0:0:0:
435,0,39844,2,0,P|398:9|360:19,1,67.4999979400635,2|0,3:0|0:0,0:0:0:0:
472,124,40084,5,8,0:1:0:0:
472,124,40204,2,0,L|480:92,3,22.4999993133545,0|0|0|2,0:0|0:0|0:0|0:3,0:0:0:0:
386,176,40444,2,0,P|391:206|398:247,1,67.4999979400635,0|8,0:0|0:1,0:0:0:0:
512,342,40684,1,0,0:0:0:0:
447,384,40804,2,0,P|453:350|461:312,1,67.4999979400635,2|0,3:0|0:0,0:0:0:0:
333,371,41044,2,0,P|296:336|213:341,1,134.999995880127,8|2,0:1|0:3,0:0:0:0:
128,298,41404,1,0,0:0:0:0:
128,298,41524,2,0,P|91:308|51:319,1,67.4999979400635,8|0,0:1|0:0,0:0:0:0:
226,180,41764,6,0,L|212:253,1,67.4999979400635,2|2,3:0|0:0,0:0:0:0:
81,151,42004,2,0,P|89:116|177:90,1,134.999995880127,8|2,0:1|0:3,0:0:0:0:
263,21,42364,2,0,L|257:-4,3,22.4999993133545,0|10|0|8,0:0|0:0|0:0|0:1,0:0:0:0:
339,89,42604,1,0,0:0:0:0:
387,36,42724,6,0,P|380:69|372:109,1,67.4999979400635,2|0,3:0|0:0,0:0:0:0:
299,183,42964,2,0,P|305:216|313:256,1,67.4999979400635,8|0,0:1|0:0,0:0:0:0:
363,361,43204,2,0,P|327:353|226:332,1,134.999995880127,2|8,0:3|0:1,0:0:0:0:
164,268,43564,1,2,0:0:0:0:
88,335,43684,6,0,P|79:289|62:196,2,134.999995880127,2|8|4,3:0|0:1|0:1,0:0:0:0:
275,216,44404,2,0,P|290:186|269:111,1,101.249996910095,2|0,0:3|0:0,0:0:0:0:
210,81,44644,6,0,B|121:54|106:137|3:108,2,202.499993820191,4|4|4,0:1|0:1|0:1,0:0:0:0:
347,0,45604,1,0,0:0:0:0:
347,0,45724,2,0,P|340:40|322:141,1,134.999995880127,4|8,0:1|0:1,0:0:0:0:
437,198,46084,1,4,0:1:0:0:
419,120,46204,1,8,0:1:0:0:
434,204,46324,1,4,0:1:0:0:
413,118,46444,1,8,0:1:0:0:
433,210,46564,6,0,P|422:267|409:335,2,120,4|0|0,0:0|1:0|3:0,0:0:0:0:
304,98,47284,2,0,L|316:163,1,60,2|0,0:0|0:0,0:0:0:0:
244,232,47524,6,0,P|207:219|180:217,1,60,2|0,3:0|0:0,0:0:0:0:
114,171,47764,2,0,P|103:168|39:243,1,120,2|0,0:0|3:0,0:0:0:0:
46,243,48244,6,0,P|38:199|12:57,1,180,0|0,1:0|0:0,0:0:0:0:
86,0,48724,2,0,P|114:-9|194:33,1,120,0|2,1:0|0:0,0:0:0:0:
414,132,49204,6,0,P|386:123|289:214,1,180,2|0,0:0|0:0,0:0:0:0:
209,271,49684,2,0,P|181:266|141:259,1,60,0|0,3:0|0:0,0:0:0:0:
285,332,49924,2,0,P|314:326|344:321,1,60,0|0,3:0|0:0,0:0:0:0:
429,370,50164,2,0,P|439:340|439:304,1,60,0|0,1:0|0:0,0:0:0:0:
501,234,50404,6,0,P|492:192|474:105,2,120,2|0|2,3:0|1:0|0:0,0:0:0:0:
343,219,51124,2,0,P|314:225|280:233,1,60,2|0,0:2|0:0,0:0:0:0:
209,173,51364,2,0,P|218:131|224:106,1,60,2|0,3:0|0:0,0:0:0:0:
104,0,51604,6,0,P|112:45|126:124,1,120,2|2,0:0|0:0,0:0:0:0:
20,353,52084,2,0,P|34:317|112:303,1,120,4|2,1:0|3:0,0:0:0:0:
184,348,52444,1,0,0:0:0:0:
241,280,52564,2,0,L|226:215,1,60,2|0,0:0|0:0,0:0:0:0:
327,184,52804,6,0,P|405:204|509:218,1,180,0|0,3:0|0:0,0:0:0:0:
368,375,53284,6,0,P|357:349|353:316,1,55.0000016784668,4|0,1:0|0:0,0:0:0:0:
241,280,53524,6,0,B|149:249|129:356|19:315,1,225,4|0,0:0|0:0,0:0:0:0:
68,233,54004,1,8,0:0:0:0:
7,124,54164,1,4,0:1:0:0:
0,135,54244,6,0,P|37:128|129:111,1,120,4|0,0:0|1:0,0:0:0:0:
419,197,54724,2,0,P|382:204|290:221,1,120,0|2,3:0|0:0,0:0:0:0:
223,160,55084,1,0,0:0:0:0:
223,160,55204,2,0,P|229:129|234:97,1,60,2|0,3:0|0:0,0:0:0:0:
27,214,55444,6,0,P|75:207|134:319,1,180,2|0,0:0|0:0,0:0:0:0:
212,379,55924,2,0,P|244:368|278:366,1,60,0|0,1:0|0:0,0:0:0:0:
346,308,56164,1,2,3:0:0:0:
346,308,56404,6,0,P|339:275|331:241,1,60,0|0,1:0|0:0,0:0:0:0:
487,382,56644,2,0,P|494:349|504:316,1,60,2|0,0:0|0:0,0:0:0:0:
461,145,56884,2,0,P|452:184|433:271,1,120,2|2,0:0|3:0,0:0:0:0:
274,384,57364,2,0,P|268:352|255:318,1,60,0|0,3:0|0:0,0:0:0:0:
198,261,57604,2,0,L|212:193,1,60,0|0,3:0|0:0,0:0:0:0:
267,129,57844,2,0,L|254:70,1,60,0|0,1:0|0:0,0:0:0:0:
338,9,58084,5,2,3:0:0:0:
143,65,58324,1,0,1:0:0:0:
198,261,58564,1,0,1:0:0:0:
383,212,58804,1,4,1:0:0:0:
265,147,59044,6,0,P|220:159|167:173,1,89.999997253418,2|8,3:0|0:0,0:0:0:0:
163,180,59284,1,0,1:0:0:0:
79,100,59444,6,0,L|90:50,1,44.999998626709,8|4,0:0|1:0,0:0:0:0:
0,314,59764,6,0,P|11:285|106:268,1,134.999995880127,4|2,0:1|0:0,0:0:0:0:
424,172,60244,2,0,P|360:189|308:151,1,134.999995880127,4|2,0:1|0:0,0:0:0:0:
157,6,60724,6,0,P|165:56|180:149,1,134.999995880127,4|2,0:1|0:0,0:0:0:0:
310,381,61204,2,0,P|314:347|328:309,1,67.4999979400635,4|0,0:1|0:0,0:0:0:0:
269,250,61444,6,0,L|217:261,1,52.4999983978272,2|8,0:0|0:3,0:0:0:0:
146,323,61924,6,0,B|74:338|69:288|-3:309,2,150,4|10|2,0:0|0:1|0:3,0:0:0:0:
224,249,62524,1,0,0:0:0:0:
224,249,62644,2,0,P|216:212|205:169,1,75,10|0,0:1|0:0,0:0:0:0:
281,85,62884,6,0,P|327:72|403:137,2,150,2|10|2,3:0|0:1|0:3,0:0:0:0:
197,152,63484,1,0,0:0:0:0:
197,152,63604,2,0,P|148:144|111:138,1,75,10|0,0:1|0:0,0:0:0:0:
41,71,63844,5,6,0:0:0:0:
103,227,64084,2,0,P|95:273|88:311,1,75,10|0,0:1|0:0,0:0:0:0:
155,380,64324,2,0,P|193:366|237:369,1,75,2|0,0:3|0:0,0:0:0:0:
400,307,64564,6,0,P|388:280|278:259,1,150,10|2,0:1|3:0,0:0:0:0:
126,161,65044,2,0,P|161:163|202:145,1,75,10|0,0:1|0:0,0:0:0:0:
270,70,65284,2,0,P|263:37|253:-12,1,75,2|2,0:3|0:0,0:0:0:0:
374,133,65524,2,0,P|366:169|358:206,1,75,10|0,0:1|0:0,0:0:0:0:
453,330,65764,6,0,P|480:288|453:194,2,150,2|10|2,3:0|0:1|0:3,0:0:0:0:
308,276,66364,2,0,L|317:239,2,37.5,2|0|10,0:0|0:0|0:1,0:0:0:0:
346,361,66604,1,2,0:0:0:0:
338,357,66724,2,0,P|292:367|256:374,1,75,4|0,0:0|0:0,0:0:0:0:
199,278,66964,2,0,P|153:268|117:261,1,75,10|2,0:1|0:0,0:0:0:0:
2,351,67204,2,0,P|40:339|130:394,1,150,2|10,0:3|0:1,0:0:0:0:
199,278,67564,1,0,0:0:0:0:
203,272,67684,6,0,P|196:227|177:116,1,150,0|10,3:0|0:1,0:0:0:0:
304,2,68164,1,2,3:0:0:0:
350,74,68284,2,0,L|341:121,2,37.5,8|8|0,0:1|0:0|3:0,0:0:0:0:
463,154,68524,1,8,0:1:0:0:
512,84,68644,6,0,P|504:52|495:31,1,44.999998626709,4|0,0:1|0:0,0:0:0:0:
363,271,68884,6,0,B|260:234|233:337|123:302,1,250,4|0,0:0|0:0,0:0:0:0:
25,254,69364,6,0,P|44:218|123:212,1,119.999996337891,10|8,0:1|0:0,0:0:0:0:
196,147,69604,6,0,P|188:106|167:-8,2,150,4|10|2,0:0|0:1|0:3,0:0:0:0:
287,203,70204,1,0,0:0:0:0:
287,203,70324,2,0,P|323:196|369:188,1,75,10|0,0:1|0:0,0:0:0:0:
472,151,70564,6,0,P|460:187|457:226,1,75,2|0,3:0|0:0,0:0:0:0:
376,88,70804,2,0,P|384:51|394:6,1,75,10|0,0:1|0:0,0:0:0:0:
238,162,71044,2,0,P|275:162|310:175,1,75,2|0,0:3|0:0,0:0:0:0:
175,86,71284,2,0,P|140:93|93:102,1,75,10|0,0:1|0:0,0:0:0:0:
14,46,71524,5,6,0:0:0:0:
66,194,71764,2,0,P|60:229|53:273,1,75,10|0,0:1|0:0,0:0:0:0:
143,371,72004,2,0,P|110:385|67:383,1,75,2|0,0:3|0:0,0:0:0:0:
219,287,72244,2,0,P|250:280|341:342,1,150,10|2,0:1|3:0,0:0:0:0:
468,228,72724,2,0,P|473:190|486:152,1,75,10|0,0:1|0:0,0:0:0:0:
389,39,72964,2,0,L|402:114,1,75,2|2,0:3|0:0,0:0:0:0:
330,180,73204,2,0,P|297:174|254:167,1,75,10|0,0:1|0:0,0:0:0:0:
152,115,73444,6,0,P|107:124|1:146,2,150,2|10|2,3:0|0:1|0:3,0:0:0:0:
261,42,74044,1,2,0:0:0:0:
261,42,74164,2,0,P|213:1|132:14,1,150,10|4,0:1|0:0,0:0:0:0:
286,138,74524,6,0,L|378:120,1,75,0|10,0:0|0:1,0:0:0:0:
445,249,74764,1,2,0:0:0:0:
445,249,74884,2,0,P|453:212|463:165,1,75,2|0,0:3|0:0,0:0:0:0:
360,343,75124,6,0,P|405:373|501:358,1,150,10|4,0:1|0:0,0:0:0:0:
292,261,75604,2,0,P|258:268|190:282,1,100,10|8,0:1|0:0,0:0:0:0:
181,296,75844,1,2,0:3:0:0:
105,232,76004,6,0,L|116:183,1,50,8|10,0:0|0:1,0:0:0:0:
57,0,76244,2,0,L|45:48,1,50,8|10,0:0|0:1,0:0:0:0:
164,88,76484,5,8,0:0:0:0:
168,94,76564,2,0,P|203:103|279:20,2,149.999995422363,4|8|8,0:0|0:1|0:1,0:0:0:0:
282,188,77204,5,0,0:0:0:0:
290,192,77284,2,0,P|338:184|384:176,1,89.999997253418,4|2,0:0|0:0,0:0:0:0:
389,163,77524,1,0,3:0:0:0:
463,277,77764,6,0,P|472:247|470:210,1,67.4999979400635,0|0,3:0|0:0,0:0:0:0:
378,332,78004,2,0,P|340:339|308:362,1,67.4999979400635,8|0,0:0|0:0,0:0:0:0:
198,253,78244,2,0,P|232:260|276:269,1,67.4999979400635,0|0,3:0|0:0,0:0:0:0:
199,352,78484,2,0,P|149:364|65:385,1,134.999995880127,0|8,3:0|0:0,0:0:0:0:
0,302,78884,6,0,P|3:270|91:236,1,134.999995880127,2|8,0:0|0:0,0:0:0:0:
98,218,79204,2,0,P|91:186|78:124,1,89.999997253418,0|10,3:0|0:0,0:0:0:0:
89,114,79444,1,8,0:0:0:0:
207,4,79684,6,0,P|198:44|190:81,1,67.4999979400635,0|8,3:0|0:0,0:0:0:0:
318,157,79924,2,0,P|310:124|301:88,1,67.4999979400635,0|0,3:0|0:0,0:0:0:0:
214,206,80164,2,0,P|205:246|197:283,1,67.4999979400635,8|0,0:0|0:0,0:0:0:0:
301,372,80404,2,0,P|327:343|299:254,1,134.999995880127,8|8,0:0|0:0,0:0:0:0:
214,206,80764,2,0,P|152:219|76:235,1,134.999995880127,2|0,0:0|0:0,0:0:0:0:
0,121,81124,6,0,P|46:112|85:133,1,89.999997253418,0|0,3:0|3:0,0:0:0:0:
88,141,81364,1,8,0:0:0:0:
171,49,81484,1,8,0:0:0:0:
171,49,81604,2,0,P|135:57|95:66,1,67.4999979400635,0|8,3:0|0:0,0:0:0:0:
270,174,81844,2,0,P|234:166|194:157,1,67.4999979400635,0|8,3:0|0:0,0:0:0:0:
387,55,82084,2,0,P|351:63|311:72,1,67.4999979400635,8|0,0:0|0:0,0:0:0:0:
406,145,82324,1,2,0:3:0:0:
321,69,82444,5,8,0:0:0:0:
383,282,82684,1,8,0:0:0:0:
318,342,82924,5,0,3:0:0:0:
318,342,83044,2,0,B|215:304|215:304|163:327|173:381,1,200,4|0,0:1|0:0,0:0:0:0:
24,289,83404,6,0,P|62:299|117:256,1,104.999996795654,4|0,0:1|0:0,0:0:0:0:
187,200,83764,6,0,P|175:139|148:-3,1,200,4|0,0:1|0:0,0:0:0:0:
266,82,84124,6,0,P|290:77|354:121,1,104.999996795654,4|0,0:1|0:0,0:0:0:0:
442,198,84484,6,0,P|453:153|466:103,1,89.9999972534181,4|0,0:1|0:1,0:0:0:0:
359,299,84724,2,0,P|393:320|446:314,1,89.9999972534181,10|0,0:0|0:1,0:0:0:0:
280,203,84964,6,0,P|227:214|127:235,1,150,4|2,0:0|0:3,0:0:0:0:
42,164,85364,5,0,0:0:0:0:
38,158,85444,2,0,P|45:124|54:83,1,75,0|0,3:0|0:0,0:0:0:0:
133,233,85684,2,0,P|126:267|117:308,1,75,8|0,0:0|0:0,0:0:0:0:
188,376,85924,5,2,3:2:0:0:
188,376,86044,2,0,B|268:356|268:356|291:385|326:384,1,150,10|0,0:0|3:0,0:0:0:0:
401,309,86404,1,8,0:0:0:0:
407,299,86484,6,0,L|400:266,4,25,0|2|0|0|8,0:0|0:0|0:0|0:0|0:0,0:0:0:0:
480,219,86764,5,8,0:0:0:0:
480,219,86884,2,0,P|390:231|353:192,1,150,0|8,3:0|0:0,0:0:0:0:
293,116,87244,1,8,0:0:0:0:
293,116,87364,2,0,P|302:80|311:41,1,75,0|0,3:0|0:0,0:0:0:0:
182,160,87604,2,0,P|191:198|193:239,1,75,8|8,0:0|0:0,0:0:0:0:
0,384,87844,6,0,P|10:342|109:316,1,150,0|2,3:0|0:3,0:0:0:0:
111,336,88164,2,0,P|159:323|212:309,1,100,2|8,0:1|0:0,0:0:0:0:
479,384,88564,2,0,P|433:357|379:369,1,100,8|8,0:0|0:0,0:0:0:0:
321,302,88804,6,0,P|331:254|344:189,1,100,0|8,3:0|0:0,0:0:0:0:
334,191,89044,1,8,0:0:0:0:
191,86,89204,5,8,0:0:0:0:
201,89,89284,2,0,P|209:138|218:189,1,100,8|8,0:0|0:0,0:0:0:0:
207,202,89524,1,2,0:3:0:0:
124,266,89684,5,0,0:0:0:0:
119,262,89764,2,0,P|106:259|18:347,2,150,10|2|2,0:0|0:3|0:3,0:0:0:0:
331,384,90484,2,0,P|338:346|354:313,1,75,12|0,0:1|0:0,0:0:0:0:
426,245,90764,6,0,B|266:283|266:283|307:260|302:209,3,247.500007553101,4|4|4|4,0:1|0:1|0:1|0:1,0:0:0:0:
148,43,92164,6,0,P|116:34|69:132,1,165.000005035401,4|0,0:1|3:0,0:0:0:0:
157,201,92644,6,0,L|205:191,1,44.999998626709,4|2,0:0|0:0,0:0:0:0:
466,235,100324,6,0,P|418:227|344:215,1,120,4|2,0:1|0:3,0:0:0:0:
137,133,100804,2,0,P|162:104|242:103,1,120,2|2,0:0|0:3,0:0:0:0:
349,43,101164,1,0,0:0:0:0:
349,43,101284,2,0,P|340:80|333:110,1,60,0|0,3:0|0:0,0:0:0:0:
257,0,101524,5,2,0:3:0:0:
137,133,101764,2,0,P|144:168|151:205,1,60,2|0,0:0|0:0,0:0:0:0:
89,269,102004,2,0,P|55:281|7:220,1,120,2|2,0:3|0:0,0:0:0:0:
174,324,102364,2,0,P|215:315|294:299,1,120,0|0,0:0|0:0,0:0:0:0:
354,238,102724,1,2,0:0:0:0:
475,384,102964,2,0,P|484:355|485:323,1,60,2|0,0:3|0:0,0:0:0:0:
413,187,103204,6,0,L|401:246,1,60,2|0,0:2|0:0,0:0:0:0:
335,377,103444,2,0,L|323:318,1,60,2|0,0:3|0:0,0:0:0:0:
401,245,103684,2,0,P|436:254|470:262,1,60,2|0,0:0|0:0,0:0:0:0:
322,164,103924,2,0,P|292:171|263:178,1,60,2|0,0:3|0:0,0:0:0:0:
170,108,104164,6,0,P|191:77|271:73,1,120,2|2,0:0|0:3,0:0:0:0:
184,323,104644,2,0,P|153:337|82:291,1,120,2|2,0:0|0:3,0:0:0:0:
3,216,105004,1,0,0:0:0:0:
3,216,105124,6,0,P|39:209|71:203,1,60,2|0,0:0|0:0,0:0:0:0:
150,148,105364,2,0,L|218:155,1,60,2|0,0:3|0:0,0:0:0:0:
382,0,105604,1,2,0:3:0:0:
220,58,105844,1,2,0:3:0:0:
373,174,106084,1,4,0:0:0:0:
322,90,106444,5,8,0:3:0:0:
326,82,106564,1,2,0:1:0:0:
443,276,106864,6,0,L|450:250,18,15,2|2|2|2|2|2|2|2|2|2|2|2|2|0|0|2|2|2|2,0:1|0:1|0:1|0:1|0:1|0:1|0:1|0:1|0:1|0:1|0:1|0:1|0:1|0:0|3:0|0:2|0:2|0:2|0:2,0:0:0:0:
491,343,107524,5,8,0:0:0:0:
491,343,107764,1,0,3:0:0:0:
491,343,108004,6,0,P|455:336|371:320,1,120,4|0,0:0|1:0,0:0:0:0:
194,230,108484,2,0,P|230:223|314:207,1,120,0|2,3:0|0:0,0:0:0:0:
385,137,108844,1,0,0:0:0:0:
384,136,108964,2,0,P|351:124|325:122,1,60,2|0,3:0|0:0,0:0:0:0:
196,76,109204,2,0,P|225:69|254:62,1,60,2|0,0:0|0:0,0:0:0:0:
341,0,109444,5,2,0:0:0:0:
493,208,109684,2,0,P|519:171|503:98,1,120,0|2,1:0|3:0,0:0:0:0:
389,221,110044,1,0,0:0:0:0:
389,221,110164,2,0,L|400:284,1,60,0|0,1:0|0:0,0:0:0:0:
468,384,110404,2,0,P|474:352|486:323,1,60,2|0,0:0|0:0,0:0:0:0:
355,354,110644,2,0,P|311:364|237:380,1,120,2|2,0:0|3:0,0:0:0:0:
65,315,111124,6,0,P|93:314|132:327,1,60,0|0,3:0|0:0,0:0:0:0:
253,243,111364,2,0,P|224:252|194:252,1,60,0|0,3:0|0:0,0:0:0:0:
129,178,111604,2,0,L|142:112,1,60,0|0,1:0|0:0,0:0:0:0:
64,39,111844,2,0,P|37:37|-2:112,2,120,2|0|2,3:0|1:0|0:0,0:0:0:0:
243,142,112564,2,0,P|272:132|304:130,1,60,2|0,0:2|0:0,0:0:0:0:
388,58,112804,2,0,P|379:31|374:-1,1,60,2|0,3:0|0:0,0:0:0:0:
355,210,113044,6,0,P|362:250|376:338,1,120,2|2,0:0|0:0,0:0:0:0:
184,376,113524,2,0,P|192:344|200:310,1,60,4|0,1:0|0:0,0:0:0:0:
95,241,113764,5,2,3:0:0:0:
95,241,113884,1,0,3:0:0:0:
95,241,114004,2,0,P|123:251|200:208,1,120,2|2,0:0|1:2,0:0:0:0:
403,110,114484,2,0,L|338:97,1,60,2|0,0:0|1:0,0:0:0:0:
258,154,114724,5,2,1:2:0:0:
398,210,114964,1,2,0:0:0:0:
340,358,115204,1,2,0:3:0:0:
195,294,115444,1,4,1:2:0:0:
295,261,115684,6,0,P|335:270|364:281,1,60,4|0,0:0|0:0,0:0:0:0:
460,192,115924,2,0,L|394:206,1,60,0|0,3:0|0:0,0:0:0:0:
253,142,116164,2,0,L|319:128,1,60,2|0,0:3|0:0,0:0:0:0:
418,30,116404,2,0,L|403:96,1,60,2|0,0:0|0:0,0:0:0:0:
460,192,116644,5,2,3:0:0:0:
260,37,116884,2,0,P|224:32|162:81,1,120,2|2,0:0|0:0,0:0:0:0:
84,150,117244,1,0,0:0:0:0:
84,150,117364,2,0,P|77:118|70:88,1,60,0|0,1:0|0:0,0:0:0:0:
183,196,117604,6,0,P|177:225|171:254,1,60,2|0,3:0|0:0,0:0:0:0:
126,351,117844,2,0,P|171:343|247:331,1,120,0|2,1:0|0:0,0:0:0:0:
427,253,118324,2,0,P|456:288|441:359,1,120,2|2,0:0|0:1,0:0:0:0:
323,300,118684,1,0,0:0:0:0:
323,300,118804,2,0,P|329:271|337:234,1,60,0|2,3:0|0:1,0:0:0:0:
256,157,119044,1,0,3:0:0:0:
427,253,119284,1,0,1:0:0:0:
224,344,119524,5,2,3:0:0:0:
359,101,119764,1,0,1:0:0:0:
117,216,120004,1,0,1:0:0:0:
375,375,120244,1,2,0:0:0:0:
274,250,120484,6,0,P|281:217|293:185,1,60,2|0,3:0|0:0,0:0:0:0:
177,37,120724,2,0,L|197:162,1,120,2|0,0:3|3:0,0:0:0:0:
71,358,121204,6,0,P|60:349|62:235,1,134.999995880127,4|0,0:1|3:0,0:0:0:0:
325,26,121684,2,0,P|339:36|346:150,1,134.999995880127,4|0,0:1|3:0,0:0:0:0:
216,203,122164,6,0,P|162:195|74:183,1,134.999995880127,4|0,0:1|3:0,0:0:0:0:
283,384,122644,2,0,P|317:366|346:361,1,67.4999979400635,4|0,0:1|0:0,0:0:0:0:
396,285,122884,6,0,P|391:253|383:229,1,52.4999983978272,0|10,3:0|0:1,0:0:0:0:
330,165,123244,1,8,0:0:0:0:
403,117,123364,6,0,P|428:112|498:199,2,150,4|10|2,0:0|0:1|0:3,0:0:0:0:
268,44,123964,1,0,0:0:0:0:
275,51,124084,2,0,P|317:42|357:33,1,75,10|0,0:1|0:0,0:0:0:0:
242,151,124324,2,0,P|205:143|166:137,1,75,2|0,3:0|0:0,0:0:0:0:
68,254,124564,2,0,P|60:224|69:175,1,75,10|0,0:1|0:0,0:0:0:0:
151,338,124804,2,0,P|118:367|17:361,1,150,2|10,0:3|0:1,0:0:0:0:
209,253,125164,1,0,0:0:0:0:
209,253,125284,6,0,P|278:264|360:278,1,150,2|10,0:0|0:1,0:0:0:0:
476,101,125764,2,0,P|467:76|463:24,1,75,2|0,0:3|0:0,0:0:0:0:
362,193,126004,2,0,P|406:191|463:277,1,150,10|2,0:1|3:0,0:0:0:0:
280,111,126484,2,0,P|239:119|196:128,1,75,10|0,0:1|0:0,0:0:0:0:
61,61,126724,2,0,P|102:53|145:44,1,75,2|2,0:3|0:0,0:0:0:0:
183,216,126964,2,0,P|173:254|167:295,1,75,10|0,0:1|0:0,0:0:0:0:
249,363,127204,6,0,B|314:344|327:398|406:374,2,150,2|10|2,3:0|0:1|0:3,0:0:0:0:
294,239,127804,2,0,L|303:199,2,37.5,2|0|10,0:0|0:0|0:1,0:0:0:0:
392,279,128044,5,2,0:0:0:0:
399,283,128164,2,0,P|435:275|472:267,1,75,0|0,0:0|0:0,0:0:0:0:
225,179,128404,2,0,P|188:186|151:194,1,75,10|2,0:1|0:0,0:0:0:0:
48,135,128644,2,0,P|66:106|174:90,1,150,2|10,0:3|0:1,0:0:0:0:
341,3,129124,6,0,P|332:43|322:87,1,75,4|2,3:0|0:0,0:0:0:0:
401,168,129364,2,0,L|440:160,4,25,2|8|8|8|8,0:3|0:3|0:3|0:3|0:3,0:0:0:0:
386,183,129604,2,0,P|351:176|300:166,1,75,4|0,0:1|0:0,0:0:0:0:
162,272,129844,2,0,P|199:282|260:251,1,100,0|8,3:0|0:0,0:0:0:0:
270,271,130084,2,0,P|262:305|249:363,1,75,4|8,0:1|0:0,0:0:0:0:
0,175,130324,6,0,B|144:138|144:138|100:168|103:214,1,225.000008583069,4|0,0:0|3:0,0:0:0:0:
237,155,130924,5,0,0:0:0:0:
241,147,131044,2,0,P|233:104|213:-2,2,150,4|10|2,0:0|0:1|0:3,0:0:0:0:
340,264,131644,1,0,0:0:0:0:
340,264,131764,2,0,P|350:223|346:182,1,75,10|0,0:1|0:0,0:0:0:0:
186,339,132004,6,0,P|232:326|308:391,2,150,2|10|2,3:0|0:1|0:3,0:0:0:0:
63,274,132604,1,0,0:0:0:0:
63,274,132724,2,0,P|70:311|79:358,1,75,10|0,0:1|0:0,0:0:0:0:
178,211,132964,5,6,0:0:0:0:
0,138,133204,2,0,P|37:130|84:119,1,75,10|0,0:1|0:0,0:0:0:0:
159,36,133444,2,0,P|121:21|84:27,1,75,2|0,0:3|0:0,0:0:0:0:
211,124,133684,6,0,P|253:116|369:94,1,150,10|2,0:1|3:0,0:0:0:0:
484,343,134164,2,0,P|489:306|502:271,1,75,10|0,0:1|0:0,0:0:0:0:
439,172,134404,2,0,P|478:164|516:157,1,75,2|2,0:3|0:0,0:0:0:0:
380,273,134644,2,0,P|342:265|306:258,1,75,10|0,0:1|0:0,0:0:0:0:
203,202,134884,6,0,P|157:232|66:216,2,150,2|10|2,3:0|0:1|0:3,0:0:0:0:
149,52,135484,1,2,0:0:0:0:
149,52,135604,2,0,P|137:93|134:131,1,75,10|2,0:1|0:0,0:0:0:0:
260,119,135844,6,0,B|329:135|337:84|409:105,1,150,4|10,0:0|0:1,0:0:0:0:
472,178,136204,1,2,0:0:0:0:
472,178,136324,2,0,P|461:222|451:264,1,75,2|0,0:3|0:0,0:0:0:0:
388,346,136564,2,0,P|345:290|268:287,1,150,10|6,0:1|3:0,0:0:0:0:
192,249,136924,5,0,0:0:0:0:
187,254,137044,2,0,L|121:270,2,50,10|0|8,0:1|0:0|0:0,0:0:0:0:
270,286,137284,5,2,0:3:0:0:
129,160,137524,2,0,P|139:108|150:49,1,100,10|8,0:1|0:0,0:0:0:0:
77,0,137764,5,10,0:1:0:0:
280,110,138004,2,0,L|350:96,2,60,6|2|4,0:0|0:2|0:0,0:0:0:0:
328,361,138964,5,0,3:0:0:0:
260,289,139204,2,0,L|275:210,2,69.9999978637696,0|2|2,1:0|0:0|0:0,0:0:0:0:
328,361,139684,6,0,P|358:354|381:350,1,52.4999983978272,0|0,3:0|1:0,0:0:0:0:
474,264,139924,2,0,P|432:273|379:240,1,104.999996795654,2|0,0:3|1:0,0:0:0:0:
215,38,140404,6,0,L|233:145,1,104.999996795654,4|0,0:0|0:0,0:0:0:0:
163,223,140804,1,0,1:0:0:0:
155,230,140884,2,0,P|114:224|79:219,1,69.9999978637696,0|0,3:0|1:0,0:0:0:0:
15,280,141124,6,0,L|22:304,5,17.4999994659424,0|0|0|0|0|0,3:0|3:0|3:0|3:0|3:0|3:0,0:0:0:0:
78,352,141364,2,0,L|71:376,4,17.4999994659424,0|0|0|0|0,3:0|0:0|3:0|3:0|1:0,0:0:0:0:
162,376,141604,6,0,P|189:370|218:364,1,52.4999983978272,0|0,1:0|1:0,0:0:0:0:
302,314,141844,2,0,P|327:319|354:326,1,52.4999983978272,0|0,3:0|1:0,0:0:0:0:
428,265,142084,6,0,P|418:220|411:188,1,69.9999978637696,2|0,0:3|0:0,0:0:0:0:
422,192,142324,6,0,P|441:189|508:235,1,104.999996795654,4|0,1:0|3:0,0:0:0:0:
326,123,142724,2,0,P|283:133|234:144,1,87.499997329712,0|0,1:0|0:0,0:0:0:0:
165,86,143044,6,0,L|171:58,1,17.4999994659424,4|0,1:0|0:0,0:0:0:0:
35,234,143284,2,0,P|47:266|54:312,1,69.9999978637696,2|0,0:3|1:0,0:0:0:0:
61,311,143524,6,0,L|118:295,1,52.4999983978272,0|0,3:0|1:0,0:0:0:0:
219,357,143764,2,0,L|168:371,1,52.4999983978272,0|0,3:0|3:0,0:0:0:0:
237,236,144004,1,0,1:0:0:0:
443,384,144244,6,0,P|433:348|324:311,1,157.499995193482,4|0,1:0|1:0,0:0:0:0:
237,236,144724,2,0,L|254:120,1,104.999996795654,2|0,0:3|1:0,0:0:0:0:
97,0,145204,2,0,P|108:34|113:70,1,69.9999978637696,2|0,0:3|1:0,0:0:0:0:
122,79,145444,6,0,L|184:64,1,52.4999983978272,4|2,0:1|0:0,0:0:0:0:
272,0,145684,6,0,L|265:34,3,34.9999989318848,0|0|0|0,3:0|3:0|3:0|3:0,0:0:0:0:
272,0,146164,6,0,P|296:-5|381:80,1,157.499995193482,4|0,0:0|1:0,0:0:0:0:
467,151,146644,2,0,P|476:106|491:36,1,104.999996795654,2|0,0:3|1:0,0:0:0:0:
359,213,147124,5,2,0:3:0:0:
438,268,147244,2,0,L|489:258,1,52.4999983978272,0|0,0:0|3:0,0:0:0:0:
368,353,147484,2,0,P|319:327|263:333,1,104.999996795654,0|2,1:0|0:0,0:0:0:0:
186,379,147844,2,0,L|131:367,1,52.4999983978272,0|2,1:0|0:0,0:0:0:0:
24,312,148084,6,0,L|79:300,1,52.4999983978272,4|0,0:0|0:0,0:0:0:0:
183,205,148324,2,0,L|170:266,1,52.4999983978272,2|0,0:3|1:0,0:0:0:0:
88,164,148564,1,0,3:0:0:0:
88,164,148804,6,0,L|66:52,1,104.999996795654,0|2,1:0|0:3,0:0:0:0:
139,0,149164,2,0,L|161:4,3,17.4999994659424,0|0|0|0,1:0|1:0|0:0|3:0,0:0:0:0:
231,112,149404,6,0,P|272:86|334:97,1,104.999996795654,0|0,0:0|3:0,0:0:0:0:
398,25,149764,2,0,L|390:0,2,26.2499991989136,0|0|0,1:0|0:0|0:0,0:0:0:0:
475,130,150004,6,0,L|445:296,1,157.499995193482,4|0,0:0|1:0,0:0:0:0:
361,250,150484,2,0,L|418:238,1,52.4999983978272,0|0,3:0|3:0,0:0:0:0:
300,338,150724,2,0,L|243:326,1,52.4999983978272,0|0,1:0|3:0,0:0:0:0:
167,377,150964,1,0,3:0:0:0:
153,374,151084,1,0,1:0:0:0:
140,374,151204,1,2,0:3:0:0:
100,330,151444,6,0,L|112:382,1,52.4999983978272,0|0,3:0|3:0,0:0:0:0:
198,253,151684,2,0,L|209:201,1,52.4999983978272,0|0,1:0|0:0,0:0:0:0:
115,89,151924,6,0,P|81:113|94:191,1,120,4|0,0:0|0:0,0:0:0:0:
319,234,152284,5,0,1:0:0:0:
330,240,152404,2,0,L|444:220,1,112.499996566773,2|0,0:3|0:0,0:0:0:0:
456,229,152644,2,0,L|443:293,1,56.2500021457673,8|0,0:0|3:0,0:0:0:0:
289,384,152884,6,0,P|237:346|190:351,1,112.499996566773,2|0,0:0|0:0,0:0:0:0:
179,361,153124,2,0,L|115:349,1,56.2500021457673,4|0,1:0|3:0,0:0:0:0:
0,271,153364,6,0,L|64:259,1,56.2500021457673,2|8,0:3|0:0,0:0:0:0:
112,180,153564,6,0,B|110:150|81:139|81:139|94:149|92:169,1,80,2|2,1:2|0:0,0:0:0:0:
92,160,153844,6,0,P|136:152|261:130,1,168.750006437302,4|0,0:0|0:0,0:0:0:0:
326,192,154324,2,0,L|314:255,1,56.2500021457673,2|0,0:3|0:0,0:0:0:0:
402,381,154564,2,0,P|414:343|407:303,1,75.000002861023,2|2,0:0|0:0,0:0:0:0:
409,308,154964,6,0,P|428:303|509:386,1,150.000005722046,2|2,0:0|0:3,0:0:0:0:
303,245,155524,2,0,L|311:210,2,18.7500007152558,0|8|8,1:0|0:3|0:3,0:0:0:0:
290,262,155684,2,0,L|187:246,1,93.7500035762788,2|2,0:0|1:2,0:0:0:0:
68,198,156004,6,0,P|86:170|164:162,2,112.500004291535,2|2|2,0:3|0:0|0:0,0:0:0:0:
68,198,156644,2,0,P|60:174|55:138,1,56.2500021457673,2|0,1:2|0:0,0:0:0:0:
0,81,156884,2,0,L|96:60,1,93.7500035762788,0|2,0:0|0:0,0:0:0:0:
167,10,157204,6,0,L|224:20,1,56.2500021457673,2|0,0:3|1:0,0:0:0:0:
354,82,157444,2,0,P|318:86|298:91,1,56.2500021457673,2|0,0:3|1:0,0:0:0:0:
226,190,157684,2,0,L|213:120,1,56.2500021457673,2|4,0:3|1:0,0:0:0:0:
320,264,157924,6,0,L|300:380,2,112.500004291535,4|2|2,0:0|0:3|0:0,0:0:0:0:
226,190,158564,2,0,L|197:196,2,18.7500007152558,0|8|2,1:0|0:3|0:3,0:0:0:0:
306,144,158764,5,2,0:0:0:0:
306,144,158884,2,0,L|365:156,1,56.2500021457673,0|2,3:0|0:0,0:0:0:0:
491,69,159124,2,0,P|461:76|436:80,1,56.2500021457673,2|2,0:0|0:0,0:0:0:0:
438,187,159364,6,0,L|453:270,1,75.000002861023,2|0,0:0|1:0,0:0:0:0:
452,261,159684,6,0,L|480:254,2,18.7500007152558,2|2|0,0:1|0:1|0:0,0:0:0:0:
356,331,159844,6,0,P|379:328|438:385,1,112.500004291535,4|2,0:1|0:0,0:0:0:0:
277,275,160204,2,0,P|237:282|161:296,1,112.500004291535,0|2,1:0|0:0,0:0:0:0:
92,235,160564,2,0,P|96:204|102:180,1,56.2500021457673,2|2,0:3|1:2,0:0:0:0:
5,128,160804,5,6,1:0:0:0:
52,51,161004,5,2,0:1:0:0:
152,80,161164,5,2,0:1:0:0:
217,18,161284,5,2,1:0:0:0:
286,60,161444,5,2,0:1:0:0:
312,75,161604,6,0,B|419:53|419:53|394:69|391:97,1,150.000005722046,2|2,0:1|0:0,0:0:0:0:
406,101,162004,2,0,L|391:181,1,75.000002861023,2|2,0:3|0:0,0:0:0:0:
399,186,162244,1,2,0:3:0:0:
312,313,162404,5,2,1:2:0:0:
312,313,162484,2,0,L|297:233,1,75.000002861023,2|2,0:3|0:0,0:0:0:0:
305,225,162724,1,4,1:0:0:0:
209,189,162964,6,0,L|121:176,1,75.000002861023,2|0,0:3|1:0,0:0:0:0:
123,170,163204,1,2,0:0:0:0:
50,227,163364,5,2,0:1:0:0:
50,227,163604,6,0,P|42:180|30:105,1,112.500004291535,2|0,0:0|0:0,0:0:0:0:
257,14,164084,6,0,L|249:56,1,37.5000014305115,2|2,0:0|0:0,0:0:0:0:
311,117,164284,2,0,P|358:126|407:89,1,112.500004291535,0|2,1:0|0:1,0:0:0:0:
232,180,164644,6,0,L|117:164,1,112.500004291535,2|2,0:3|0:3,0:0:0:0:
58,80,165004,2,0,P|65:54|69:16,1,56.2500021457673,2|0,0:0|1:0,0:0:0:0:
121,164,165244,2,0,P|72:195|18:185,1,112.500004291535,2|2,0:0|3:1,0:0:0:0:
204,263,165604,6,0,L|300:246,1,85.0000016212464,2|0,0:3|0:0,0:0:0:0:
300,254,165844,1,6,0:3:0:0:
381,202,166004,1,0,0:0:0:0:
391,194,166084,2,0,L|380:146,2,42.5000008106232,2|0|2,0:0|0:0|0:0,0:0:0:0:
455,292,166324,6,0,P|443:324|440:357,1,63.7500012159348,2|0,0:0|1:0,0:0:0:0:
443,379,166564,6,0,P|366:331|319:342,1,134.999995880127,4|2,0:1|3:2,0:0:0:0:
239,379,166964,1,0,0:0:0:0:
229,384,167044,2,0,L|133:367,1,89.999997253418,0|0,1:0|0:0,0:0:0:0:
61,307,167284,6,0,L|66:335,1,22.4999993133545,4|0,0:1|0:0,0:0:0:0:
288,82,168324,6,0,L|282:112,2,25,2|2|2,0:0|0:0|0:0,0:0:0:0:
206,22,169204,6,0,L|185:27,6,12.5,2|0|0|0|0|0|4,0:0|1:0|3:0|1:0|3:0|3:0|0:0,0:0:0:0:
0,384,173300,6,0,B|85:397|98:317|192:342,3,194.999991073609,4|4|4|4,0:0|0:0|0:0|0:0,0:0:0:0:
512,296,176660,6,0,L|499:357,1,61.8750018882752,4|0,0:0|0:0,0:0:0:0:
494,372,177140,6,0,P|451:328|360:331,1,146.249993305207,4|0,0:1|0:0,0:0:0:0:
320,235,177620,6,0,P|332:170|349:73,1,146.249993305207,4|0,0:1|0:0,0:0:0:0:
259,0,178100,6,0,P|209:70|223:124,1,146.249993305207,4|0,0:1|0:0,0:0:0:0:
434,259,178580,6,0,P|473:181|451:130,1,146.249993305207,4|0,0:1|0:0,0:0:0:0:
319,305,179060,6,0,B|216:265|180:373|69:331,1,253.125009655953,4|0,0:1|0:0,0:0:0:0:
32,241,179540,6,0,L|45:175,1,56.25,4|0,0:0|0:0,0:0:0:0:
138,102,180020,6,0,B|314:59|314:59|275:98|288:135,1,253.125009655953,4|0,0:1|0:0,0:0:0:0:
418,215,180500,6,0,L|482:203,1,56.25,4|0,0:0|0:0,0:0:0:0:
287,349,180980,6,0,B|254:252|130:219|48:285|108:392|178:365|199:338,1,320.625003057718,4|0,1:1|0:0,0:0:0:0:
183,350,181460,6,0,L|166:247,1,97.4999955368044,0|0,1:0|3:0,0:0:0:0:
233,195,181780,2,0,L|273:202,1,32.4999985122681,2|2,0:1|0:1,0:0:0:0:
338,145,181940,6,0,L|332:113,2,32.4999985122681,0|2|2,1:0|0:1|0:1,0:0:0:0:
384,223,182180,6,0,L|376:251,5,16.2499992561341,2|0|2|0|0|0,3:0|0:0|0:0|0:0|0:0|0:0,0:0:0:0:
443,155,182420,6,0,L|459:152,1,16.2499992561341,0|0,3:0|0:0,0:0:0:0:
512,208,182660,6,0,P|473:201|358:181,1,146.249993305207,4|0,1:0|0:0,0:0:0:0:
294,116,183140,5,0,1:0:0:0:
139,171,183380,1,0,1:0:0:0:
197,321,183620,1,0,1:0:0:0:
342,268,183860,1,4,1:0:0:0:
239,216,184100,5,2,0:3:0:0:
383,359,184340,1,4,1:0:0:0:
71,227,184580,1,4,1:0:0:0:
402,49,184820,6,0,L|393:5,2,44.999998626709,0|8|0,0:0|0:0|3:0,0:0:0:0:
479,117,185060,5,0,1:0:0:0:
479,117,185140,2,0,L|467:172,1,50,8|8,0:0|0:0,0:0:0:0:
392,278,185300,2,0,L|383:229,1,50,8|8,0:0|0:0,0:0:0:0:
482,320,185460,5,0,3:0:0:0:
486,316,185540,2,0,L|518:323,4,25,0|0|0|0|0,3:0|0:0|3:0|0:0|3:0,0:0:0:0:
392,374,185780,6,0,P|368:378|345:388,1,44.999998626709,12|0,0:0|0:0,0:0:0:0:
258,340,186015,6,0,B|185:265|193:147|284:95|363:189|312:244|274:265,1,326.25000995636,2|0,0:0|0:0,0:0:0:0:
292,251,186483,6,0,P|207:239|137:230,1,150,4|2,0:0|0:3,0:0:0:0:
44,174,186843,1,2,0:0:0:0:
44,174,186963,2,0,P|89:127|175:134,1,150,10|2,0:1|0:3,0:0:0:0:
269,73,187323,1,0,0:0:0:0:
269,73,187443,2,0,P|260:32|251:-11,1,75,10|0,0:1|0:0,0:0:0:0:
386,153,187683,6,0,L|369:226,1,75,2|0,3:0|0:0,0:0:0:0:
451,348,187923,2,0,P|464:316|456:267,1,75,10|0,0:1|0:0,0:0:0:0:
251,361,188163,2,0,L|332:377,1,75,2|0,0:3|0:0,0:0:0:0:
179,275,188403,2,0,P|127:285|22:306,1,150,10|2,0:1|0:3,0:0:0:0:
282,129,188883,6,0,L|268:202,1,75,10|0,0:1|0:0,0:0:0:0:
97,88,189123,2,0,P|143:48|204:60,1,112.5,2|0,0:3|0:0,0:0:0:0:
210,36,189363,2,0,L|201:-1,2,37.5,10|0|0,0:1|0:0|0:0,0:0:0:0:
304,0,189603,5,2,3:0:0:0:
124,190,189843,2,0,L|44:178,1,75,10|0,0:1|0:0,0:0:0:0:
208,298,190083,2,0,L|285:285,1,75,2|2,0:3|0:0,0:0:0:0:
453,214,190323,2,0,L|379:201,1,75,10|0,0:1|0:0,0:0:0:0:
296,141,190563,6,0,B|275:108|275:108|305:-5,2,150,2|10|2,3:0|0:1|0:3,0:0:0:0:
139,108,191163,2,0,L|97:101,2,37.5,2|0|10,0:0|0:0|0:1,0:0:0:0:
139,108,191523,1,4,0:0:0:0:
9,180,191643,1,0,0:0:0:0:
15,171,191763,6,0,P|5:126|-3:85,1,75,10|2,0:1|0:0,0:0:0:0:
114,232,192003,2,0,P|105:271|102:310,1,75,2|0,0:3|0:0,0:0:0:0:
190,368,192243,2,0,L|271:353,1,75,10|0,0:1|0:0,0:0:0:0:
356,246,192483,1,4,0:3:0:0:
488,356,192723,6,0,L|479:390,4,25,8|8|8|8|8,3:3|0:3|0:3|0:3|0:3,0:0:0:0:
480,346,192963,1,0,3:0:0:0:
356,246,193123,6,0,L|366:301,1,50,8|8,0:0|0:1,0:0:0:0:
512,143,193363,6,0,L|502:198,1,50,8|8,0:0|0:1,0:0:0:0:
394,38,193603,6,0,L|404:93,1,50,8|4,0:0|0:2,0:0:0:0:
219,196,193843,5,8,0:0:0:0:
233,192,193923,1,4,0:1:0:0:
342,155,194083,5,8,0:0:0:0:
328,151,194163,1,4,0:1:0:0:
235,53,194283,1,4,0:0:0:0:
276,123,194403,6,0,P|270:159|251:277,2,150,4|8|2,0:0|0:0|0:3,0:0:0:0:
382,232,195003,1,0,0:0:0:0:
382,232,195123,2,0,P|431:224|465:219,1,75,10|0,0:1|0:0,0:0:0:0:
319,352,195363,6,0,P|267:335|242:339,1,75,2|0,3:0|0:0,0:0:0:0:
80,264,195603,2,0,P|116:267|155:250,1,75,10|0,0:1|0:0,0:0:0:0:
214,153,195843,2,0,L|198:69,1,75,2|0,0:3|0:0,0:0:0:0:
297,1,196083,1,10,0:1:0:0:
294,17,196203,1,0,0:0:0:0:
291,33,196323,5,6,0:0:0:0:
501,206,196563,2,0,L|421:194,1,75,10|0,0:1|0:0,0:0:0:0:
340,371,196803,2,0,P|324:329|345:275,1,100,2|0,0:3|0:0,0:0:0:0:
329,267,197043,2,0,P|294:275|247:286,1,75,10|0,0:1|0:0,0:0:0:0:
449,348,197283,5,2,3:0:0:0:
282,169,197523,2,0,P|292:122|300:84,1,75,10|0,0:1|0:0,0:0:0:0:
131,260,197763,2,0,P|123:223|114:182,1,75,2|2,0:3|0:0,0:0:0:0:
248,311,198003,2,0,P|240:347|232:384,1,75,10|0,0:1|0:0,0:0:0:0:
15,142,198243,6,0,P|83:151|147:93,2,150,2|10|2,3:0|0:1|0:3,0:0:0:0:
74,37,198843,2,0,L|65:-3,2,37.5,2|0|10,0:0|0:0|0:1,0:0:0:0:
141,102,199083,1,2,0:0:0:0:
152,107,199203,6,0,P|197:97|230:90,1,75,4|0,0:0|0:0,0:0:0:0:
345,211,199443,2,0,P|354:176|350:137,1,75,10|2,0:1|0:0,0:0:0:0:
234,312,199683,6,0,P|272:309|345:382,1,150,2|10,0:3|0:1,0:0:0:0:
150,220,200043,1,0,0:0:0:0:
144,219,200163,2,0,L|67:235,1,75,2|0,3:2|0:0,0:0:0:0:
243,114,200403,6,0,L|252:79,4,25,2|8|8|8|8,0:3|0:3|0:3|0:3|0:3,0:0:0:0:
249,127,200643,1,0,3:0:0:0:
332,192,200803,6,4,L|385:181,1,50,8|8,0:0|0:1,0:0:0:0:
512,107,201043,5,8,0:0:0:0:
512,107,201123,2,0,L|428:91,1,75,4|0,0:1|3:0,0:0:0:0:
488,239,201363,5,2,0:3:0:0:
330,65,201523,2,8,P|334:39|342:10,1,50,8|8,0:0|0:1,0:0:0:0:
334,4,201843,6,0,B|234:-25|221:65|115:32,1,225,4|0,0:0|0:0,0:0:0:0:
117,32,202323,6,0,L|112:2,1,25,0|0,3:1|0:0,0:0:0:0:
27,137,202563,6,0,L|32:107,1,25,0|0,3:1|0:0,0:0:0:0:
122,238,202803,6,0,L|117:208,1,25,0|0,3:1|0:0,0:0:0:0:
252,120,203043,6,4,L|217:112,1,25,4|0,0:1|0:0,0:0:0:0:
253,339,203283,6,4,L|218:347,1,25,4|0,0:1|0:0,0:0:0:0:
358,80,203523,6,4,L|323:72,1,25,4|0,0:1|0:0,0:0:0:0:
365,369,203763,6,4,L|330:377,1,25,12|0,0:0|0:0,0:0:0:0:
192,220,205683,5,4,0:0:0:0:
192,220,205923,6,0,P|201:163|217:56,1,150,6|8,0:1|0:1,0:0:0:0:
284,319,206403,1,2,0:1:0:0:
282,327,206523,2,0,P|207:364|148:345,1,150,2|2,0:0|0:3,0:0:0:0:
30,265,206883,2,0,L|104:254,1,75,2|2,3:1|0:1,0:0:0:0:
195,56,207123,1,8,0:1:0:0:
292,139,207243,2,0,B|228:116|207:175|135:150,1,150,2|0,0:3|0:0,0:0:0:0:
67,78,207603,2,0,L|78:27,2,37.5,8|0|0,0:1|0:0|0:0,0:0:0:0:
15,191,207843,6,0,P|24:237|30:268,1,75,4|0,0:1|0:0,0:0:0:0:
131,384,208083,2,0,P|143:348|136:308,1,75,8|2,0:1|0:1,0:0:0:0:
33,363,208323,1,2,0:3:0:0:
251,332,208443,6,0,P|292:339|407:358,1,150,2|2,0:1|0:3,0:0:0:0:
512,293,208803,6,0,P|450:235|387:245,1,150,6|8,1:0|0:1,0:0:0:0:
233,178,209163,2,0,P|268:181|303:166,1,75,2|2,0:1|3:0,0:0:0:0:
410,51,209403,1,0,0:0:0:0:
410,51,209523,2,0,P|402:91|395:134,1,75,10|0,0:1|0:0,0:0:0:0:
236,84,209763,6,0,P|185:94|82:115,1,150,4|8,0:1|0:1,0:0:0:0:
9,188,210123,2,0,L|94:202,1,75,2|2,0:1|0:3,0:0:0:0:
126,15,210363,2,0,L|41:1,1,75,2|8,0:1|0:1,0:0:0:0:
236,84,210603,1,2,0:3:0:0:
321,157,210723,5,4,0:1:0:0:
321,157,210843,2,0,B|385:134|406:193|478:168,2,150,2|2|2,0:0|0:1|0:0,0:0:0:0:
215,333,211443,2,0,P|192:293|214:229,1,112.5,8|0,0:1|0:0,0:0:0:0:
227,224,211683,1,6,0:1:0:0:
39,143,211923,6,0,L|46:106,4,25,8|0|0|0|0,0:1|0:0|0:0|0:0|3:0,0:0:0:0:
43,165,212163,6,0,P|91:156|151:145,1,100,0|8,3:0|0:1,0:0:0:0:
223,63,212403,6,0,P|185:39|130:49,1,100,8|0,0:0|0:0,0:0:0:0:
294,158,212643,6,0,P|332:151|379:142,1,75,8|8,0:0|0:0,0:0:0:0:
460,74,212883,2,0,L|450:31,4,25,12|0|0|0|0,0:0|0:0|3:0|0:0|3:0,0:0:0:0:
474,82,213123,6,0,P|466:124|456:176,1,89.9999972534181,0|8,3:0|0:0,0:0:0:0:
398,296,213363,6,0,P|439:318|488:309,1,89.9999972534181,8|8,0:0|0:1,0:0:0:0:
293,218,213603,6,0,P|255:215|182:288,1,150,4|8,0:1|0:1,0:0:0:0:
0,166,214083,2,0,P|55:155|148:137,1,150,2|8,0:3|0:1,0:0:0:0:
249,75,214443,6,0,P|220:40|122:39,1,150,2|0,0:1|0:0,0:0:0:0:
179,153,214803,2,0,L|165:241,1,75,8|0,0:1|0:0,0:0:0:0:
239,311,215043,1,2,0:3:0:0:
239,311,215163,2,0,B|311:293|311:293|344:330|386:319,1,150,2|0,0:1|0:0,0:0:0:0:
425,172,215523,5,2,0:1:0:0:
506,223,215643,2,0,P|516:172|536:72,2,150,0|2|2,0:0|0:1|0:1,0:0:0:0:
349,95,216243,2,0,P|393:87|434:80,1,75,8|2,0:1|0:3,0:0:0:0:
325,240,216483,6,0,P|251:201|188:215,1,150,6|8,0:1|0:1,0:0:0:0:
70,167,216843,2,0,L|107:160,2,37.5,2|0|2,0:1|0:0|3:0,0:0:0:0:
142,75,217123,5,8,0:0:0:0:
139,64,217203,1,8,0:1:0:0:
9,265,217363,1,8,0:0:0:0:
14,255,217443,6,0,P|52:252|125:325,1,150,10|10,0:1|0:1,0:0:0:0:
315,254,217923,1,2,0:1:0:0:
315,254,218043,2,0,L|238:242,1,75,2|8,0:0|0:1,0:0:0:0:
160,152,218283,6,0,L|176:69,1,75,2|2,0:1|0:3,0:0:0:0:
336,245,218523,2,0,L|320:162,1,75,2|8,0:1|0:1,0:0:0:0:
202,384,218763,2,0,L|218:301,1,75,2|2,0:1|0:3,0:0:0:0:
0,254,219003,2,0,B|75:223|75:223|117:237|111:284,1,150,2|0,0:1|0:0,0:0:0:0:
59,106,219363,6,0,L|66:74,1,25,6|0,0:2|0:0,0:0:0:0:
186,196,219603,6,0,L|193:228,1,25,2|0,3:1|0:0,0:0:0:0:
308,107,219843,6,0,L|315:75,1,25,2|0,1:0|0:0,0:0:0:0:
434,189,220083,6,0,L|441:221,1,25,2|0,1:0|0:0,0:0:0:0:
188,54,220323,5,2,1:0:0:0:
462,3,220563,1,2,1:0:0:0:
512,267,220803,1,10,1:0:0:0:
373,337,220963,5,8,0:0:0:0:
373,337,221043,2,0,L|305:326,1,67.4999979400636,4|2,0:0|0:0,0:0:0:0:
