osu file format v14

[General]
AudioFilename: audio.mp3
AudioLeadIn: 0
PreviewTime: 61644
Countdown: 0
SampleSet: Soft
StackLeniency: 0.7
Mode: 0
LetterboxInBreaks: 0
WidescreenStoryboard: 1

[Editor]
Bookmarks: 15844,31204,46566,61924,77284,92646,100326,108006,123366,138486,153846,169446,186472,205912,221032
DistanceSpacing: 1
BeatDivisor: 2
GridSize: 32
TimelineZoom: 1.1

[Metadata]
Title:Periodo Azul
TitleUnicode:青のID
Artist:Tokyo Incidents
ArtistUnicode:東京事変
Creator:Irohas
Version:Advanced
Source:さくら
Tags:mugiwarasekai tomadoi shiinoha kotone tricolor sakura movie 音楽 ongaku music 椎名林檎 sheena shiina ringo 亀田誠治 seiji kameda 刄田綴色 toshiki hata 浮雲 ukigmo 伊澤一葉 ichiyo izawa ao no id blue period jihen jazz japanese
BeatmapID:3068036
BeatmapSetID:1496687

[Difficulty]
HPDrainRate:4
CircleSize:3.5
OverallDifficulty:4
ApproachRate:5.3
SliderMultiplier:0.85
SliderTickRate:1

[Events]
//Background and Video events
0,0,"85767128_p0.jpg",0,0
//Break Periods
2,92844,98404
2,169444,175986
//Storyboard Layer 0 (Background)
//Storyboard Layer 1 (Fail)
//Storyboard Layer 2 (Pass)
//Storyboard Layer 3 (Foreground)
//Storyboard Layer 4 (Overlay)
//Storyboard Sound Samples

[TimingPoints]
1456,512.820512820513,3,2,1,30,1,0
2481,487.80487804878,3,2,1,30,1,0
2968,545.454545454546,3,2,1,30,1,0
3513,521.739130434783,3,2,1,30,1,0
4556,508.474576271186,3,2,1,30,1,0
5572,588.235294117647,3,2,1,30,1,0
6160,545.454545454546,3,2,1,30,1,0
6705,491.803278688525,3,2,1,30,1,0
7196,521.739130434783,3,2,1,30,1,0
7717,512.820512820513,3,2,1,30,1,0
9767,588.235294117647,3,2,1,30,1,0
10355,571.428571428571,3,2,1,30,1,0
10926,588.235294117647,3,2,1,30,1,0
11514,634.920634920635,3,2,1,30,1,0
13418,689.655172413793,3,2,1,30,1,0
14107,868.935553946416,3,2,1,30,1,0
15844,240,4,2,1,65,1,0
46564,-111.111111111111,4,2,1,60,0,0
53364,-111.111111111111,4,2,1,5,0,0
53524,-111.111111111111,4,2,1,50,0,0
58324,-111.111111111111,4,2,1,55,0,0
59044,-111.111111111111,4,2,1,60,0,0
59764,-100,4,2,1,60,0,0
61444,-100,4,2,1,60,0,0
61924,-100,4,2,1,60,0,0
76564,-100,4,2,1,60,0,0
77284,-111.111111111111,4,2,1,60,0,0
83364,-111.111111111111,4,2,1,5,0,0
83404,-111.111111111111,4,2,1,60,0,0
84084,-111.111111111111,4,2,1,5,0,0
84124,-111.111111111111,4,2,1,60,0,0
90724,-100,4,2,1,60,0,0
92884,-100,4,2,1,40,0,0
100324,-111.111111111111,4,2,1,50,0,0
106444,-111.111111111111,4,2,1,30,0,0
106864,-111.111111111111,4,2,1,20,0,0
107314,-111.111111111111,4,2,1,15,0,0
107524,-111.111111111111,4,2,1,60,0,0
121204,-100,4,2,1,60,0,0
123364,-100,4,2,1,65,0,0
138484,-100,4,2,1,55,0,0
152284,-100,4,2,1,60,0,0
153844,-111.111111111111,4,2,1,50,0,0
168324,-111.111111111111,4,2,1,25,0,0
169204,-111.111111111111,4,2,1,35,0,0
169444,495.867768595041,4,2,1,60,1,0
170435,472.44094488189,4,2,1,60,1,0
171379,500,4,2,1,60,1,0
171879,461.538461538462,4,2,1,60,1,0
172340,480,4,2,1,60,1,0
173300,480,4,2,1,40,1,0
177140,-76.9230769230769,4,2,1,50,0,0
180980,-76.9230769230769,4,2,1,50,0,0
183140,-66.6666666666667,4,2,1,50,0,0
184900,-66.6666666666667,4,2,1,60,0,0
185780,471.512770137525,4,2,1,60,1,0
186483,240,4,2,1,70,1,0
186723,240,4,2,1,70,1,0

[Colours]
Combo1 : 255,222,204
Combo2 : 203,240,252
Combo3 : 228,236,204
Combo4 : 244,245,199

[HitObjects]
208,42,15844,6,0,P|222:86|222:137,1,85,4|8,0:0|0:1,0:0:0:0:
167,188,16324,2,0,B|91:161|80:225|-3:202,2,170,2|2|2,3:0|0:3|3:0,0:0:0:0:
184,200,17404,1,0,0:0:0:0:
254,302,17764,6,0,L|345:290,1,85,2|8,3:0|0:1,0:0:0:0:
409,243,18244,2,0,P|449:236|509:332,2,170,2|2|2,3:0|0:3|3:0,0:0:0:0:
395,226,19324,2,0,L|406:173,1,42.5,0|8,0:0|0:1,0:0:0:0:
357,113,19684,6,0,P|307:122|260:131,1,85,2|8,3:0|0:1,0:0:0:0:
193,157,20164,2,0,P|88:117|34:138,2,170,2|0|2,3:0|0:3|3:0,0:0:0:0:
234,231,21364,1,4,0:1:0:0:
312,199,21604,6,0,L|443:221,2,127.5,4|4|4,0:1|0:1|0:1,0:0:0:0:
229,101,22684,2,0,P|167:132|108:120,1,127.5,4|4,0:1|0:1,0:0:0:0:
42,73,23284,1,4,0:1:0:0:
0,146,23524,6,0,P|12:190|17:233,1,85,4|8,0:0|0:1,0:0:0:0:
47,308,24004,2,0,B|121:285|129:347|217:322,2,170,2|2|2,3:0|0:3|3:0,0:0:0:0:
33,324,25084,1,0,0:0:0:0:
97,214,25444,6,0,P|90:167|79:125,1,85,2|8,3:0|0:1,0:0:0:0:
150,82,25924,2,0,P|32:48|20:4,2,170,2|0|2,3:0|0:3|3:0,0:0:0:0:
164,66,27004,2,0,L|211:70,1,42.5,0|8,0:0|0:1,0:0:0:0:
282,118,27364,5,2,0:3:0:0:
282,118,27484,2,0,L|411:103,1,127.5,2|2,0:1|3:0,0:0:0:0:
482,145,28084,1,8,0:1:0:0:
433,214,28324,2,0,P|439:255|446:302,1,85,2|8,3:0|0:1,0:0:0:0:
396,367,28804,2,0,L|345:359,1,42.5,8|8,0:1|0:0,0:0:0:0:
239,304,29284,6,4,L|103:324,2,127.5,4|4|4,0:1|0:1|0:1,0:0:0:0:
354,360,30364,1,4,0:1:0:0:
458,284,30724,1,4,0:1:0:0:
458,284,31204,6,0,P|453:235|439:191,1,85,4|8,0:0|0:1,0:0:0:0:
490,130,31684,2,0,P|407:116|316:101,1,170,2|2,0:3|3:0,0:0:0:0:
255,154,32404,2,0,P|261:197|267:240,1,85,8|2,0:1|0:3,0:0:0:0:
207,299,32884,6,0,B|131:272|120:336|37:313,2,170,8|8|8,0:1|0:1|0:1,0:0:0:0:
358,376,34324,1,8,0:1:0:0:
406,306,34564,2,0,P|389:266|387:214,1,85,2|8,0:3|0:1,0:0:0:0:
323,167,35044,6,0,P|319:148|377:-4,1,170,2|2,3:0|0:3,0:0:0:0:
244,48,35884,1,2,0:0:0:0:
244,48,36004,2,0,P|192:49|159:36,1,85,2|8,3:0|0:1,0:0:0:0:
101,98,36484,2,0,P|110:147|117:189,1,85,4|6,0:1|0:2,0:0:0:0:
126,266,36964,6,0,P|87:261|-7:250,2,127.5,4|4|4,0:1|0:1|0:1,0:0:0:0:
207,364,38044,2,0,P|249:340|329:344,1,127.5,4|4,0:1|0:1,0:0:0:0:
408,320,38644,1,4,0:1:0:0:
376,241,38884,6,0,P|383:199|397:150,1,85,4|8,0:0|0:1,0:0:0:0:
376,75,39364,2,0,P|321:86|206:109,1,170,2|2,0:3|3:0,0:0:0:0:
131,74,40084,2,0,P|105:70|44:181,2,170,8|8|8,0:1|0:1|0:1,0:0:0:0:
258,185,41524,5,8,0:1:0:0:
334,221,41764,2,0,L|421:206,2,85,2|8|2,3:0|0:1|0:3,0:0:0:0:
324,240,42364,1,0,0:0:0:0:
222,317,42724,6,0,B|134:325|139:266|56:281,2,170,2|2|2,3:0|0:3|3:0,0:0:0:0:
294,361,43924,1,8,0:1:0:0:
348,295,44164,2,0,P|340:251|329:195,1,85,4|2,0:1|0:3,0:0:0:0:
402,162,44644,6,0,P|337:153|274:146,1,127.5,4|4,0:1|0:1,0:0:0:0:
155,103,45364,2,0,P|96:109|22:119,2,127.5,4|4|4,0:1|0:1|0:1,0:0:0:0:
279,13,46564,6,0,P|312:7|368:99,1,152.999995330811,4|0,0:0|3:0,0:0:0:0:
423,158,47284,2,0,P|411:200|408:241,1,76.4999976654053,2|2,0:0|3:0,0:0:0:0:
459,299,47764,1,2,0:0:0:0:
310,377,48244,6,0,P|279:346|175:338,1,152.999995330811,0|0,1:0|1:0,0:0:0:0:
25,259,49204,2,0,P|69:272|156:217,1,152.999995330811,2|0,0:0|3:0,0:0:0:0:
217,162,49924,2,0,P|209:124|194:77,1,76.4999976654053,0|0,3:0|1:0,0:0:0:0:
256,27,50404,6,0,P|296:28|331:45,1,76.4999976654053,2|0,3:0|1:0,0:0:0:0:
380,109,50884,2,0,L|364:195,1,76.4999976654053,2|2,0:0|0:2,0:0:0:0:
425,244,51364,1,2,3:0:0:0:
360,298,51604,2,0,P|354:297|257:385,1,152.999995330811,2|4,0:0|1:0,0:0:0:0:
114,294,52564,5,2,0:0:0:0:
40,253,52804,2,0,P|78:263|170:208,1,152.999995330811,0|4,3:0|1:0,0:0:0:0:
193,126,53524,1,4,0:0:0:0:
193,126,54244,6,0,B|260:105|267:155|344:136,2,152.999995330811,4|0|2,0:0|3:0|3:0,0:0:0:0:
129,70,55444,1,2,0:0:0:0:
21,199,55924,2,0,P|33:195|142:261,1,152.999995330811,0|0,1:0|1:0,0:0:0:0:
189,328,56644,1,2,0:0:0:0:
270,306,56884,2,0,P|298:311|389:240,1,152.999995330811,2|0,0:0|3:0,0:0:0:0:
450,183,57604,2,0,P|438:156|436:100,1,76.4999976654053,0|0,3:0|1:0,0:0:0:0:
496,52,58084,1,2,3:0:0:0:
422,12,58324,6,0,B|323:-16|301:66|199:42,1,229.499992996216,0|2,1:0|3:0,0:0:0:0:
128,1,59284,1,0,1:0:0:0:
9,171,59764,5,4,0:1:0:0:
51,335,60244,1,4,0:1:0:0:
216,296,60724,1,4,0:1:0:0:
185,128,61204,1,4,0:1:0:0:
51,335,61924,6,0,B|117:318|117:318|164:357|211:345,1,170,4|2,0:0|0:3,0:0:0:0:
290,376,62644,1,10,0:1:0:0:
347,313,62884,2,0,P|340:271|330:227,1,85,2|10,3:0|0:1,0:0:0:0:
363,151,63364,2,0,P|330:144|280:136,1,85,2|10,0:3|0:1,0:0:0:0:
213,189,63844,5,6,0:0:0:0:
152,30,64324,1,2,0:3:0:0:
71,2,64564,2,0,P|36:65|34:164,1,170,10|10,0:1|0:1,0:0:0:0:
95,219,65284,2,0,L|143:211,2,42.5,2|2|10,0:3|0:0|0:1,0:0:0:0:
20,260,65764,5,2,3:0:0:0:
115,372,66244,1,2,0:3:0:0:
196,337,66484,2,0,L|294:348,1,85,10|4,0:1|0:0,0:0:0:0:
358,312,66964,1,10,0:1:0:0:
312,240,67204,1,2,0:3:0:0:
365,174,67444,6,0,P|376:105|393:-1,2,170,10|10|0,0:1|0:1|3:0,0:0:0:0:
410,245,68644,1,4,0:1:0:0:
358,312,68884,1,4,0:0:0:0:
115,273,69604,6,0,P|94:244|117:118,1,170,4|2,0:0|0:3,0:0:0:0:
176,61,70324,1,10,0:1:0:0:
253,96,70564,2,0,P|280:99|333:78,1,85,2|10,3:0|0:1,0:0:0:0:
411,109,71044,2,0,L|396:196,1,85,2|10,0:3|0:1,0:0:0:0:
461,247,71524,6,0,P|455:246|354:350,1,170,6|2,0:0|0:3,0:0:0:0:
274,377,72244,1,10,0:1:0:0:
160,250,72724,2,0,B|154:225|154:225|169:156,2,85,10|2|10,0:1|0:3|0:1,0:0:0:0:
216,314,73444,5,2,3:0:0:0:
59,379,73924,1,2,0:3:0:0:
9,309,74164,2,0,B|16:272|40:255|40:255|16:144,1,170,10|10,0:1|0:1,0:0:0:0:
60,77,74884,1,2,0:3:0:0:
136,113,75124,1,10,0:1:0:0:
210,75,75364,6,0,L|297:64,1,85,4|10,0:0|0:1,0:0:0:0:
361,11,75844,1,2,0:3:0:0:
500,108,76324,1,10,0:1:0:0:
485,191,76564,2,0,B|403:198|402:138|316:157,1,170,4|8,0:0|0:1,0:0:0:0:
267,219,77284,6,0,P|277:257|281:302,1,76.4999976654053,4|0,0:0|3:0,0:0:0:0:
229,360,77764,2,0,P|155:361|110:302,2,152.999995330811,0|0|8,3:0|3:0|0:0,0:0:0:0:
247,366,78844,1,0,0:0:0:0:
360,310,79204,6,0,L|440:297,1,76.4999976654053,0|8,3:0|0:0,0:0:0:0:
489,233,79684,2,0,B|510:199|510:199|481:89,2,152.999995330811,0|8|8,3:0|0:0|0:0,0:0:0:0:
474,245,80764,1,2,0:0:0:0:
360,310,81124,6,0,P|315:297|280:297,1,76.4999976654053,0|8,3:0|0:0,0:0:0:0:
210,257,81604,2,0,P|145:293|66:286,1,152.999995330811,0|8,3:0|0:0,0:0:0:0:
3,179,82444,1,8,0:0:0:0:
22,97,82684,1,8,0:0:0:0:
22,97,83044,6,0,L|133:71,1,114.749996498108,4|4,0:1|0:1,0:0:0:0:
248,123,83764,2,0,P|304:97|362:103,1,114.749996498108,4|4,0:1|0:1,0:0:0:0:
465,164,84484,1,4,0:1:0:0:
447,246,84724,1,10,0:0:0:0:
426,327,84964,6,0,P|370:318|265:304,1,152.999995330811,4|0,0:0|3:0,0:0:0:0:
121,375,85924,2,0,P|93:328|115:229,1,152.999995330811,2|8,3:2|0:0,0:0:0:0:
165,171,86644,1,8,0:0:0:0:
94,125,86884,6,0,P|130:120|252:104,1,152.999995330811,0|0,3:0|3:0,0:0:0:0:
388,15,87844,2,0,P|421:69|393:158,1,152.999995330811,0|8,3:0|0:0,0:0:0:0:
440,224,88564,1,8,0:0:0:0:
378,280,88804,6,0,B|304:288|306:239|222:252,2,152.999995330811,0|8|10,3:0|0:0|0:0,0:0:0:0:
440,224,90004,2,0,L|425:143,2,76.4999976654053,2|2|12,0:3|0:3|0:1,0:0:0:0:
464,314,90724,6,0,P|441:311|361:391,2,141.666666666667,0|4|0,0:0|0:1|0:0,0:0:0:0:
385,231,91844,6,0,L|270:214,1,113.333333333333,4|4,0:1|0:1,0:0:0:0:
149,97,92644,5,4,0:0:0:0:
67,64,100324,5,4,0:1:0:0:
13,130,100564,2,0,L|29:292,3,152.999995330811,2|2|2|2,0:3|0:3|0:3|0:3,0:0:0:0:
169,374,102484,6,0,P|225:336|311:348,1,152.999995330811,2|2,0:3|0:3,0:0:0:0:
467,273,103444,2,0,B|494:230|494:230|465:125,1,152.999995330811,2|2,0:3|0:3,0:0:0:0:
410,69,104164,1,2,0:0:0:0:
333,106,104404,6,0,P|302:114|222:28,1,152.999995330811,2|2,0:3|0:3,0:0:0:0:
118,173,105364,2,0,L|128:248,2,76.4999976654053,2|2|2,0:3|0:3|0:3,0:0:0:0:
55,116,106084,1,4,0:0:0:0:
0,383,108004,6,0,P|47:336|138:337,1,152.999995330811,4|0,0:0|3:0,0:0:0:0:
189,273,108724,2,0,P|177:231|174:190,1,76.4999976654053,2|2,0:0|3:0,0:0:0:0:
120,130,109204,1,2,0:0:0:0:
245,14,109684,6,0,P|319:8|366:67,1,152.999995330811,0|0,1:0|1:0,0:0:0:0:
488,179,110644,2,0,P|477:255|465:337,1,152.999995330811,2|0,0:0|3:0,0:0:0:0:
390,369,111364,2,0,P|343:357|308:358,1,76.4999976654053,0|0,3:0|1:0,0:0:0:0:
235,329,111844,2,0,P|188:341|153:340,1,76.4999976654053,2|0,3:0|1:0,0:0:0:0:
76,347,112324,2,0,L|60:261,1,76.4999976654053,2|2,0:0|0:2,0:0:0:0:
2,211,112804,1,2,3:0:0:0:
75,169,113044,2,0,L|231:184,1,152.999995330811,2|4,0:0|1:0,0:0:0:0:
315,40,114004,5,2,0:0:0:0:
381,91,114244,2,0,P|406:127|403:236,1,152.999995330811,2|2,1:2|1:2,0:0:0:0:
459,296,114964,1,2,0:0:0:0:
216,366,115684,6,0,B|149:345|142:395|65:376,2,152.999995330811,4|2|2,0:0|0:3|3:0,0:0:0:0:
280,310,116884,1,2,0:0:0:0:
424,380,117364,2,0,B|456:335|456:335|428:240,1,152.999995330811,0|0,1:0|1:0,0:0:0:0:
458,162,118084,1,2,0:0:0:0:
384,121,118324,2,0,P|356:126|263:55,1,152.999995330811,2|0,0:0|3:0,0:0:0:0:
184,27,119044,2,0,L|100:42,1,76.4999976654053,0|0,3:0|1:0,0:0:0:0:
30,10,119524,1,2,3:0:0:0:
11,92,119764,6,0,B|58:185|-24:204|22:320,1,229.499992996216,0|2,1:0|3:0,0:0:0:0:
82,371,120724,1,2,0:3:0:0:
187,238,121204,5,4,0:1:0:0:
352,204,121684,1,4,0:1:0:0:
318,39,122164,1,4,0:1:0:0:
152,72,122644,1,4,0:1:0:0:
187,238,123124,6,8,L|182:289,1,42.5,10|8,0:1|0:0,0:0:0:0:
194,299,123364,2,0,B|260:289|260:289|286:309|286:309|361:298,1,170,4|2,0:0|0:3,0:0:0:0:
431,338,124084,1,10,0:1:0:0:
486,273,124324,2,0,B|494:244|494:244|479:186,1,85,2|10,3:0|0:1,0:0:0:0:
408,143,124804,2,0,L|324:128,1,85,2|10,0:3|0:1,0:0:0:0:
254,177,125284,5,2,0:0:0:0:
157,36,125764,1,2,0:3:0:0:
87,85,126004,2,0,P|57:127|68:247,2,170,10|10|10,0:1|0:1|0:1,0:0:0:0:
157,36,127204,5,2,3:0:0:0:
301,125,127684,1,2,0:3:0:0:
250,193,127924,2,0,L|264:280,1,85,10|0,0:1|0:0,0:0:0:0:
323,337,128404,1,10,0:1:0:0:
406,352,128644,1,2,0:3:0:0:
489,368,128884,6,0,B|500:337|525:319|525:319|496:206,2,170,10|2|0,0:1|0:3|3:0,0:0:0:0:
406,352,130084,1,4,0:1:0:0:
323,337,130324,1,4,0:0:0:0:
77,268,131044,6,0,B|43:236|60:170|60:170|93:154|103:107,1,170,4|2,0:0|0:3,0:0:0:0:
151,52,131764,1,10,0:1:0:0:
232,74,132004,2,0,L|324:58,1,85,2|10,3:0|0:1,0:0:0:0:
384,109,132484,2,0,L|482:126,1,85,2|10,0:3|0:1,0:0:0:0:
494,204,132964,6,0,P|488:203|387:307,1,170,6|2,0:0|0:3,0:0:0:0:
353,381,133684,1,10,0:1:0:0:
244,250,134164,2,0,B|238:225|238:225|253:156,2,85,10|2|10,0:1|0:3|0:1,0:0:0:0:
191,317,134884,5,2,3:0:0:0:
74,192,135364,1,2,0:3:0:0:
0,145,135604,2,0,P|54:135|171:115,1,170,10|10,0:1|0:1,0:0:0:0:
232,60,136324,1,2,0:3:0:0:
314,81,136564,1,10,0:1:0:0:
395,105,136804,6,0,L|459:93,2,42.5,6|0|10,3:0|1:0|0:1,0:0:0:0:
365,185,137284,1,2,0:3:0:0:
449,334,137764,1,10,0:1:0:0:
376,378,138004,2,0,B|294:385|293:325|207:344,1,170,4|4,0:0|0:0,0:0:0:0:
102,214,138964,5,0,3:0:0:0:
49,281,139204,2,0,L|14:100,1,170,0|0,1:0|3:0,0:0:0:0:
25,95,139804,1,0,1:0:0:0:
121,11,140164,1,0,1:0:0:0:
200,40,140404,6,0,B|290:19|290:19|324:54|371:43,1,170,4|0,0:0|3:0,0:0:0:0:
436,82,141124,2,0,L|451:-1,2,85,0|0|0,3:0|3:0|1:0,0:0:0:0:
488,149,141844,1,0,3:0:0:0:
397,293,142324,6,0,B|334:401|170:409|95:306|168:195|244:211|270:244,1,425,4|0,1:0|3:0,0:0:0:0:
318,173,143764,2,0,P|305:129|305:82,1,85,0|0,3:0|1:0,0:0:0:0:
231,42,144244,6,0,B|154:29|154:29|147:31|147:31|60:15,1,170,4|2,1:0|0:3,0:0:0:0:
0,73,144964,2,0,L|15:166,1,85,0|2,1:0|0:3,0:0:0:0:
28,240,145444,1,4,0:1:0:0:
238,383,146164,6,0,B|274:235|274:235|172:249,1,255,4|0,0:0|1:0,0:0:0:0:
69,113,147364,2,0,L|86:19,2,85,0|0|0,3:0|3:0|1:0,0:0:0:0:
132,169,148084,6,0,B|257:183|231:85|374:112,1,255,4|0,0:0|1:0,0:0:0:0:
448,147,149044,1,2,0:3:0:0:
509,87,149284,2,0,P|493:44|491:-3,2,85,0|0|0,3:0|3:0|1:0,0:0:0:0:
448,147,150004,6,0,B|424:260|424:260|431:253|431:253|401:409,1,255,4|0,0:0|1:0,0:0:0:0:
260,293,151204,2,0,P|211:297|166:312,1,85,2|0,0:3|3:0,0:0:0:0:
117,367,151684,1,0,1:0:0:0:
42,326,151924,6,0,P|19:294|28:159,1,170,4|2,0:0|0:3,0:0:0:0:
76,103,152644,2,0,L|63:52,2,42.5,8|0|2,0:0|3:0|0:0,0:0:0:0:
154,134,153124,1,4,1:0:0:0:
326,61,153604,1,2,1:2:0:0:
382,123,153844,6,0,L|363:276,1,152.999995330811,4|2,0:0|0:3,0:0:0:0:
376,358,154564,2,0,P|340:350|294:347,1,76.4999976654053,2|2,0:0|0:3,0:0:0:0:
218,327,155044,2,0,L|137:339,1,76.4999976654053,2|2,0:3|0:3,0:0:0:0:
67,298,155524,1,0,1:0:0:0:
2,149,156004,6,0,P|14:112|16:65,1,76.4999976654053,2|2,0:3|0:0,0:0:0:0:
76,14,156484,2,0,L|134:2,1,50.9999984436036,2|2,0:0|1:2,0:0:0:0:
204,35,156884,2,0,P|241:35|335:144,1,178.499994552612,0|2,0:0|0:3,0:0:0:0:
399,182,157684,1,2,0:3:0:0:
353,252,157924,6,0,L|339:330,1,76.4999976654053,4|2,0:0|0:3,0:0:0:0:
266,369,158404,2,0,L|210:361,1,50.9999984436036,2|0,0:0|1:0,0:0:0:0:
123,298,158884,2,0,B|116:272|116:272|127:216,1,76.4999976654053,0|2,3:0|0:0,0:0:0:0:
67,162,159364,2,0,L|56:107,1,50.9999984436036,2|0,0:0|1:0,0:0:0:0:
122,21,159844,1,4,0:1:0:0:
238,68,160204,6,0,B|298:74|318:27|392:44,1,152.999995330811,0|2,1:0|1:2,0:0:0:0:
398,27,160804,2,0,P|438:31|485:130,1,152.999995330811,4|0,1:0|1:0,0:0:0:0:
433,185,161524,1,4,0:0:0:0:
308,298,162004,6,0,L|293:381,2,76.4999976654053,2|2|2,0:3|0:3|0:3,0:0:0:0:
253,233,162724,1,4,1:0:0:0:
175,266,162964,2,0,L|90:252,1,76.4999976654053,2|2,0:3|0:0,0:0:0:0:
10,164,163564,6,0,P|19:129|157:83,1,191.249994163513,0|2,0:0|0:0,0:0:0:0:
169,82,164284,2,0,L|254:67,1,76.4999976654053,0|2,1:0|0:0,0:0:0:0:
354,5,164884,1,2,0:3:0:0:
399,75,165124,2,0,L|390:122,1,38.2499988327027,0|2,1:0|0:0,0:0:0:0:
440,181,165484,6,0,L|458:304,1,114.749996498108,2|6,3:2|0:3,0:0:0:0:
404,361,166084,2,0,P|315:320|254:331,1,152.999995330811,2|4,0:0|0:1,0:0:0:0:
188,288,166804,1,2,3:2:0:0:
148,213,167044,1,0,1:0:0:0:
174,133,167284,1,4,0:1:0:0:
12,372,177140,5,4,0:1:0:0:
84,300,177620,1,4,0:1:0:0:
177,340,178100,1,4,0:1:0:0:
254,273,178580,1,4,0:1:0:0:
342,313,179060,2,0,L|460:294,1,110.499994941712,4|4,0:1|0:0,0:0:0:0:
508,222,180020,2,0,P|524:175|509:112,1,110.499994941712,4|4,0:1|0:0,0:0:0:0:
426,64,180980,6,0,L|311:50,1,110.499994941712,4|0,1:1|1:0,0:0:0:0:
260,125,181940,2,0,L|271:191,2,55.2499974708558,0|2|0,1:0|3:0|3:0,0:0:0:0:
247,111,182660,1,4,1:0:0:0:
169,39,183140,6,0,P|86:34|24:174,1,255.000009727478,0|2,1:0|0:3,0:0:0:0:
0,269,184580,1,4,1:0:0:0:
85,326,185060,1,0,1:0:0:0:
85,326,185300,2,8,L|217:303,1,127.500004863739,8|12,0:0|0:0,0:0:0:0:
512,326,186483,6,0,B|470:325|436:297|436:297|359:385|287:356,1,255,4|2,0:0|0:3,0:0:0:0:
204,379,187443,1,10,0:1:0:0:
147,316,187683,2,0,P|152:273|164:230,1,85,2|10,3:0|0:1,0:0:0:0:
134,152,188163,2,0,L|228:132,1,85,2|10,0:3|0:1,0:0:0:0:
279,76,188643,5,2,0:3:0:0:
388,207,189123,1,2,0:3:0:0:
459,161,189363,2,0,P|480:123|459:3,2,170,10|10|10,0:1|0:1|0:1,0:0:0:0:
504,233,190563,5,2,3:0:0:0:
399,366,191043,1,2,0:3:0:0:
318,331,191283,2,0,L|149:351,1,170,10|10,0:1|0:1,0:0:0:0:
72,313,192003,1,2,0:3:0:0:
29,239,192243,6,0,B|17:206|17:206|48:72,1,170,10|8,0:1|3:3,0:0:0:0:
119,28,192963,1,0,3:0:0:0:
199,54,193203,2,0,L|292:37,1,85,8|8,0:1|0:1,0:0:0:0:
356,80,193683,1,4,0:2:0:0:
420,24,193923,2,0,L|468:17,2,42.5,4|0|4,0:1|0:0|0:1,0:0:0:0:
356,80,194403,6,0,B|334:117|334:117|360:243,1,170,4|2,0:0|0:3,0:0:0:0:
406,312,195123,1,10,0:1:0:0:
349,375,195363,2,0,L|261:367,1,85,2|10,3:0|0:1,0:0:0:0:
186,332,195843,2,0,L|98:340,1,85,2|10,0:3|0:1,0:0:0:0:
24,302,196323,5,6,0:0:0:0:
134,181,196803,1,2,0:3:0:0:
168,103,197043,2,0,P|159:76|38:35,1,170,10|10,0:1|0:1,0:0:0:0:
7,115,197763,2,0,L|23:208,1,85,2|10,0:3|0:1,0:0:0:0:
83,256,198243,5,2,3:0:0:0:
248,306,198723,1,2,0:3:0:0:
193,370,198963,2,0,L|372:341,1,170,10|10,0:1|0:1,0:0:0:0:
436,381,199683,1,2,0:3:0:0:
497,322,199923,6,0,B|473:251|526:237|493:144,1,170,10|2,0:1|0:3,0:0:0:0:
448,84,200643,1,0,3:0:0:0:
320,196,201123,1,4,0:1:0:0:
236,158,201363,2,0,B|211:118|211:118|246:-3,1,170,2|4,0:3|0:0,0:0:0:0:
92,47,202323,6,0,L|-2:33,2,85,0|0|0,3:1|3:1|3:1,0:0:0:0:
134,120,203043,2,0,P|121:168|118:216,1,85,4|4,0:1|0:1,0:0:0:0:
72,278,203523,1,4,0:1:0:0:
89,361,203763,1,12,0:0:0:0:
89,361,205923,6,0,P|122:345|184:341,1,85,6|8,0:1|0:1,0:0:0:0:
251,310,206403,1,2,0:1:0:0:
251,310,206523,2,0,L|388:324,1,127.5,2|2,0:0|3:1,0:0:0:0:
483,251,207243,6,0,B|495:216|495:216|472:121,1,127.5,2|8,0:3|0:1,0:0:0:0:
397,89,207843,2,0,L|301:72,1,85,4|8,0:1|0:1,0:0:0:0:
247,16,208323,1,2,0:3:0:0:
247,16,208443,2,0,P|228:15|154:92,1,127.5,2|6,0:1|1:0,0:0:0:0:
96,197,209163,6,0,L|119:334,1,127.5,2|10,0:1|0:1,0:0:0:0:
183,376,209763,1,4,0:1:0:0:
304,338,210123,2,0,P|347:336|395:353,1,85,2|2,0:1|0:1,0:0:0:0:
493,277,210723,2,0,L|509:182,1,85,4|8,0:1|0:1,0:0:0:0:
492,178,211083,2,0,L|472:61,1,85,2|2,0:1|0:0,0:0:0:0:
374,19,211683,5,6,0:1:0:0:
295,51,211923,2,0,P|224:19|169:26,1,127.5,8|2,0:1|0:1,0:0:0:0:
106,130,212643,1,8,0:0:0:0:
35,81,212883,2,0,P|9:118|8:203,2,127.5,12|8|4,0:0|0:0|0:1,0:0:0:0:
176,23,214083,6,0,L|310:1,1,127.5,2|2,0:3|0:1,0:0:0:0:
406,69,214803,2,0,B|419:104|419:104|400:201,1,127.5,8|2,0:1|0:1,0:0:0:0:
486,302,215523,5,2,0:1:0:0:
418,351,215763,1,8,0:1:0:0:
418,351,215883,2,0,L|326:339,1,85,2|2,0:1|0:1,0:0:0:0:
209,311,216483,2,0,P|145:338|81:329,1,127.5,6|2,0:1|0:1,0:0:0:0:
14,290,217083,1,2,0:1:0:0:
48,167,217443,6,0,P|35:130|30:72,1,85,10|10,0:1|0:1,0:0:0:0:
81,16,217923,2,0,L|144:5,1,42.5,2|2,0:1|0:0,0:0:0:0:
205,31,218283,2,0,L|288:17,2,85,2|2|2,0:1|0:1|0:1,0:0:0:0:
162,104,219003,1,2,0:1:0:0:
267,175,219363,6,0,B|441:138|441:138|401:167|405:211,1,255,6|2,0:2|1:0,0:0:0:0:
459,266,220323,2,0,B|469:293|469:293|453:366,2,85,2|2|10,1:0|1:0|1:0,0:0:0:0:
404,202,221043,1,4,0:0:0:0:
