osu file format v14

[General]
AudioFilename: audio.mp3
AudioLeadIn: 0
PreviewTime: 65108
Countdown: 0
SampleSet: Normal
StackLeniency: 0.7
Mode: 1
LetterboxInBreaks: 0
WidescreenStoryboard: 0

[Editor]
Bookmarks: 13908,26708,39508,65108,77908
DistanceSpacing: 1.1
BeatDivisor: 4
GridSize: 8
TimelineZoom: 1

[Metadata]
Title:TOKYO HOT THEME SONG
TitleUnicode:TOKYO HOT THEME SONG
Artist:Tokyo Hot
ArtistUnicode:Tokyo Hot
Creator:404 AccNotFound
Version:n04xx
Source:
Tags:fbi warning applerss
BeatmapID:1496312
BeatmapSetID:702919

[Difficulty]
HPDrainRate:9.7
CircleSize:5
OverallDifficulty:7
ApproachRate:5
SliderMultiplier:1.4
SliderTickRate:1

[Events]
//Background and Video events
0,0,"fib.jpg",0,0
//Break Periods
//Storyboard Layer 0 (Background)
//Storyboard Layer 1 (Fail)
//Storyboard Layer 2 (Pass)
//Storyboard Layer 3 (Foreground)
//Storyboard Sound Samples

[TimingPoints]
1108,400,4,1,0,95,1,0
1108,-50,4,1,0,95,0,1
13908,-50,4,1,0,95,0,0
65108,-50,4,1,0,95,0,1
77908,-50,4,1,0,95,0,0

[HitObjects]
240,144,1108,5,8,0:0:0:0:
240,144,1208,1,8,0:0:0:0:
240,144,1308,1,8,0:0:0:0:
112,288,1408,1,0,0:0:0:0:
240,136,1508,1,8,0:0:0:0:
240,136,1608,1,0,0:0:0:0:
232,128,1708,1,0,0:0:0:0:
232,128,1808,1,8,0:0:0:0:
224,160,1908,1,8,0:0:0:0:
224,128,2008,1,0,0:0:0:0:
224,128,2108,1,8,0:0:0:0:
224,128,2308,1,0,0:0:0:0:
224,96,2374,1,0,0:0:0:0:
216,104,2441,1,0,0:0:0:0:
224,112,2508,1,8,0:0:0:0:
224,112,2708,1,8,0:0:0:0:
232,160,2808,1,0,0:0:0:0:
232,160,2908,1,0,0:0:0:0:
232,160,3008,1,8,0:0:0:0:
232,160,3108,1,0,0:0:0:0:
232,160,3208,1,8,0:0:0:0:
232,160,3308,1,8,0:0:0:0:
232,160,3408,1,0,0:0:0:0:
232,160,3508,1,0,0:0:0:0:
232,160,3608,1,8,0:0:0:0:
232,160,3708,1,8,0:0:0:0:
232,160,3908,1,0,0:0:0:0:
240,128,3974,1,0,0:0:0:0:
240,128,4041,1,0,0:0:0:0:
240,128,4108,1,8,0:0:0:0:
240,120,4308,1,0,0:0:0:0:
232,136,4408,1,0,0:0:0:0:
232,136,4508,1,8,0:0:0:0:
232,136,4608,1,8,0:0:0:0:
232,136,4708,1,0,0:0:0:0:
232,136,4808,1,8,0:0:0:0:
232,136,4908,1,8,0:0:0:0:
232,136,5008,1,0,0:0:0:0:
232,136,5108,1,8,0:0:0:0:
232,136,5208,1,0,0:0:0:0:
232,136,5308,1,8,0:0:0:0:
232,136,5508,1,0,0:0:0:0:
240,112,5574,1,0,0:0:0:0:
240,120,5641,1,0,0:0:0:0:
232,120,5708,1,8,0:0:0:0:
240,144,5908,1,0,0:0:0:0:
240,144,5974,1,0,0:0:0:0:
240,144,6041,1,0,0:0:0:0:
240,144,6108,1,8,0:0:0:0:
264,128,6208,1,0,0:0:0:0:
264,128,6308,1,8,0:0:0:0:
264,128,6408,1,8,0:0:0:0:
264,128,6508,1,0,0:0:0:0:
264,128,6608,1,8,0:0:0:0:
264,128,6708,1,0,0:0:0:0:
264,112,6808,1,0,0:0:0:0:
264,112,6908,1,8,0:0:0:0:
280,112,6974,1,0,0:0:0:0:
272,112,7041,1,0,0:0:0:0:
272,112,7108,1,8,0:0:0:0:
288,80,7208,1,8,0:0:0:0:
288,80,7308,1,8,0:0:0:0:
288,80,7408,1,0,0:0:0:0:
288,80,7508,1,8,0:0:0:0:
288,80,7608,1,0,0:0:0:0:
288,80,7708,1,8,0:0:0:0:
288,80,7808,1,8,0:0:0:0:
288,80,7908,1,0,0:0:0:0:
288,80,8008,1,8,0:0:0:0:
288,80,8108,1,8,0:0:0:0:
288,80,8208,1,0,0:0:0:0:
288,80,8308,1,8,0:0:0:0:
288,80,8408,1,0,0:0:0:0:
288,80,8508,1,8,0:0:0:0:
288,80,8708,1,0,0:0:0:0:
304,80,8774,1,0,0:0:0:0:
296,80,8841,1,0,0:0:0:0:
296,80,8908,1,8,0:0:0:0:
272,104,9108,1,8,0:0:0:0:
272,104,9208,1,8,0:0:0:0:
272,104,9308,1,0,0:0:0:0:
272,104,9408,1,8,0:0:0:0:
272,104,9508,1,0,0:0:0:0:
272,104,9608,1,8,0:0:0:0:
272,104,9708,1,8,0:0:0:0:
272,104,9808,1,0,0:0:0:0:
272,104,9908,1,8,0:0:0:0:
272,104,10008,1,0,0:0:0:0:
272,104,10108,1,8,0:0:0:0:
272,104,10308,1,0,0:0:0:0:
248,96,10374,1,0,0:0:0:0:
248,96,10441,1,0,0:0:0:0:
256,96,10508,1,8,0:0:0:0:
288,112,10708,1,8,0:0:0:0:
288,112,10808,1,0,0:0:0:0:
288,104,10908,1,8,0:0:0:0:
288,104,11008,1,8,0:0:0:0:
288,104,11108,1,0,0:0:0:0:
288,104,11208,1,8,0:0:0:0:
288,104,11308,1,8,0:0:0:0:
288,104,11408,1,0,0:0:0:0:
288,104,11508,1,8,0:0:0:0:
288,104,11608,1,0,0:0:0:0:
288,104,11708,1,8,0:0:0:0:
272,104,11908,1,0,0:0:0:0:
272,104,11974,1,0,0:0:0:0:
272,104,12041,1,0,0:0:0:0:
272,104,12108,1,8,0:0:0:0:
280,104,12308,1,0,0:0:0:0:
256,104,12408,1,0,0:0:0:0:
248,96,12508,1,8,0:0:0:0:
256,96,12574,1,0,0:0:0:0:
256,96,12641,1,0,0:0:0:0:
256,96,12708,1,8,0:0:0:0:
304,72,12808,1,8,0:0:0:0:
256,88,12908,1,0,0:0:0:0:
256,88,13008,1,0,0:0:0:0:
248,104,13108,1,8,0:0:0:0:
256,88,13174,1,0,0:0:0:0:
256,88,13241,1,0,0:0:0:0:
256,88,13308,1,8,0:0:0:0:
256,88,13374,1,0,0:0:0:0:
256,88,13441,1,0,0:0:0:0:
256,88,13508,1,8,0:0:0:0:
256,88,13574,1,8,0:0:0:0:
256,88,13641,1,0,0:0:0:0:
256,88,13708,1,8,0:0:0:0:
248,88,13774,1,0,0:0:0:0:
248,88,13841,1,0,0:0:0:0:
248,88,13908,1,8,0:0:0:0:
256,88,14008,1,0,0:0:0:0:
256,88,14108,1,8,0:0:0:0:
256,88,14308,1,8,0:0:0:0:
256,88,14358,1,0,0:0:0:0:
256,88,14508,1,0,0:0:0:0:
232,80,14708,1,8,0:0:0:0:
248,80,14758,1,0,0:0:0:0:
264,88,14908,1,8,0:0:0:0:
264,88,15108,1,0,0:0:0:0:
264,88,15174,1,8,0:0:0:0:
264,88,15241,1,8,0:0:0:0:
256,88,15308,1,0,0:0:0:0:
256,88,15508,1,8,0:0:0:0:
288,80,15558,1,0,0:0:0:0:
288,80,15708,1,0,0:0:0:0:
280,80,15908,1,8,0:0:0:0:
280,80,15958,1,0,0:0:0:0:
280,80,16108,1,8,0:0:0:0:
280,80,16308,1,0,0:0:0:0:
272,96,16374,1,0,0:0:0:0:
272,96,16441,1,0,0:0:0:0:
272,96,16508,1,8,0:0:0:0:
280,88,16708,1,0,0:0:0:0:
280,88,16758,1,0,0:0:0:0:
280,88,16908,1,8,0:0:0:0:
272,80,17108,1,8,0:0:0:0:
272,80,17174,1,0,0:0:0:0:
272,80,17241,1,0,0:0:0:0:
272,80,17308,1,8,0:0:0:0:
280,72,17508,1,8,0:0:0:0:
296,80,17558,1,0,0:0:0:0:
288,80,17708,1,0,0:0:0:0:
288,80,17908,1,8,0:0:0:0:
288,80,17958,1,0,0:0:0:0:
288,80,18108,1,8,0:0:0:0:
312,64,18308,1,8,0:0:0:0:
296,80,18374,1,0,0:0:0:0:
296,80,18441,1,0,0:0:0:0:
296,80,18508,1,8,0:0:0:0:
288,80,18708,1,8,0:0:0:0:
288,80,18758,1,0,0:0:0:0:
288,80,18908,1,0,0:0:0:0:
288,80,19108,1,8,0:0:0:0:
288,80,19158,1,0,0:0:0:0:
288,80,19308,1,8,0:0:0:0:
288,64,19508,1,0,0:0:0:0:
288,72,19574,1,0,0:0:0:0:
288,72,19641,1,0,0:0:0:0:
288,72,19708,1,8,0:0:0:0:
288,64,19908,1,0,0:0:0:0:
288,64,19958,1,0,0:0:0:0:
288,64,20108,1,8,0:0:0:0:
296,112,20308,1,8,0:0:0:0:
304,96,20374,1,0,0:0:0:0:
304,96,20441,1,0,0:0:0:0:
304,96,20508,1,8,0:0:0:0:
304,104,20708,1,8,0:0:0:0:
320,88,20758,1,0,0:0:0:0:
320,88,20908,1,0,0:0:0:0:
320,88,21108,1,0,0:0:0:0:
344,88,21174,1,0,0:0:0:0:
336,88,21241,1,0,0:0:0:0:
320,96,21308,1,8,0:0:0:0:
320,64,21508,1,0,0:0:0:0:
320,64,21558,1,0,0:0:0:0:
320,64,21708,1,8,0:0:0:0:
320,64,21908,1,8,0:0:0:0:
328,64,21974,1,8,0:0:0:0:
328,64,22041,1,0,0:0:0:0:
328,64,22108,1,8,0:0:0:0:
320,64,22308,1,8,0:0:0:0:
320,64,22358,1,0,0:0:0:0:
328,64,22508,1,0,0:0:0:0:
336,48,22708,1,8,0:0:0:0:
336,48,22774,1,0,0:0:0:0:
336,48,22841,1,0,0:0:0:0:
336,48,22908,1,8,0:0:0:0:
320,48,23108,1,0,0:0:0:0:
320,48,23158,1,0,0:0:0:0:
320,48,23308,1,8,0:0:0:0:
296,56,23508,1,8,0:0:0:0:
296,56,23558,1,0,0:0:0:0:
296,56,23608,1,0,0:0:0:0:
296,56,23708,1,0,0:0:0:0:
296,56,23908,1,8,0:0:0:0:
296,56,23958,1,0,0:0:0:0:
296,56,24008,1,0,0:0:0:0:
296,56,24108,1,8,0:0:0:0:
256,64,24308,1,0,0:0:0:0:
296,80,24358,1,0,0:0:0:0:
288,72,24508,1,8,0:0:0:0:
280,72,24558,1,8,0:0:0:0:
288,40,24708,1,8,0:0:0:0:
288,40,24758,1,0,0:0:0:0:
288,32,24908,1,0,0:0:0:0:
288,32,25108,1,8,0:0:0:0:
304,80,25158,1,0,0:0:0:0:
304,72,25208,1,0,0:0:0:0:
304,72,25308,1,0,0:0:0:0:
304,56,25408,1,0,0:0:0:0:
304,56,25508,1,8,0:0:0:0:
288,64,25574,1,0,0:0:0:0:
288,64,25641,1,0,0:0:0:0:
288,64,25708,1,8,0:0:0:0:
280,80,25808,1,8,0:0:0:0:
296,64,25908,1,0,0:0:0:0:
272,88,25974,1,0,0:0:0:0:
272,88,26041,1,0,0:0:0:0:
280,80,26108,1,8,0:0:0:0:
256,96,26174,1,8,0:0:0:0:
256,96,26241,1,8,0:0:0:0:
304,40,26308,1,0,0:0:0:0:
288,80,26358,1,0,0:0:0:0:
288,80,26408,1,0,0:0:0:0:
288,80,26458,1,0,0:0:0:0:
288,80,26508,1,8,0:0:0:0:
288,80,26558,1,8,0:0:0:0:
288,80,26608,1,8,0:0:0:0:
288,80,26658,1,8,0:0:0:0:
280,72,26708,1,0,0:0:0:0:
256,64,26908,1,8,0:0:0:0:
256,64,27108,1,0,0:0:0:0:
296,72,27208,1,0,0:0:0:0:
264,72,27308,1,8,0:0:0:0:
280,80,27374,1,8,0:0:0:0:
272,88,27441,1,8,0:0:0:0:
288,88,27508,1,0,0:0:0:0:
304,72,27608,1,0,0:0:0:0:
304,72,27708,1,8,0:0:0:0:
304,72,27908,1,0,0:0:0:0:
280,80,27974,1,0,0:0:0:0:
280,80,28041,1,0,0:0:0:0:
280,80,28108,1,8,0:0:0:0:
288,80,28208,1,0,0:0:0:0:
288,80,28308,1,8,0:0:0:0:
288,80,28408,1,0,0:0:0:0:
288,80,28508,1,8,0:0:0:0:
288,80,28708,1,0,0:0:0:0:
248,96,28774,1,0,0:0:0:0:
256,104,28841,1,0,0:0:0:0:
256,96,28908,1,8,0:0:0:0:
216,64,29108,1,8,0:0:0:0:
224,64,29208,1,0,0:0:0:0:
240,80,29308,1,8,0:0:0:0:
240,80,29408,1,8,0:0:0:0:
240,80,29508,1,0,0:0:0:0:
240,80,29608,1,8,0:0:0:0:
240,80,29708,1,8,0:0:0:0:
280,72,29808,1,8,0:0:0:0:
240,80,29908,1,0,0:0:0:0:
256,80,30008,1,8,0:0:0:0:
256,80,30108,1,8,0:0:0:0:
256,80,30308,1,0,0:0:0:0:
264,88,30408,1,0,0:0:0:0:
256,80,30508,1,8,0:0:0:0:
256,80,30708,1,0,0:0:0:0:
256,80,30808,1,0,0:0:0:0:
248,80,30908,1,8,0:0:0:0:
264,88,30974,1,8,0:0:0:0:
264,88,31041,1,8,0:0:0:0:
248,80,31108,1,0,0:0:0:0:
248,80,31208,1,0,0:0:0:0:
248,80,31308,1,8,0:0:0:0:
288,72,31508,1,8,0:0:0:0:
264,80,31608,1,0,0:0:0:0:
264,80,31708,1,8,0:0:0:0:
264,80,31808,1,8,0:0:0:0:
264,80,31908,1,0,0:0:0:0:
272,88,31974,1,0,0:0:0:0:
272,80,32041,1,0,0:0:0:0:
272,80,32108,1,8,0:0:0:0:
280,72,32208,1,8,0:0:0:0:
280,72,32308,1,0,0:0:0:0:
280,72,32408,1,0,0:0:0:0:
280,72,32508,1,8,0:0:0:0:
272,72,32608,1,0,0:0:0:0:
272,72,32708,1,0,0:0:0:0:
272,72,32908,1,8,0:0:0:0:
272,72,33108,1,0,0:0:0:0:
240,80,33174,1,0,0:0:0:0:
240,80,33241,1,0,0:0:0:0:
256,72,33308,1,8,0:0:0:0:
144,368,33408,1,8,0:0:0:0:
256,72,33508,1,0,0:0:0:0:
264,88,33608,1,0,0:0:0:0:
280,72,33708,1,8,0:0:0:0:
280,72,33808,1,8,0:0:0:0:
280,72,33908,1,0,0:0:0:0:
272,72,34008,1,0,0:0:0:0:
272,72,34108,1,8,0:0:0:0:
280,80,34208,1,8,0:0:0:0:
272,72,34308,1,8,0:0:0:0:
272,72,34408,1,0,0:0:0:0:
272,72,34508,1,8,0:0:0:0:
280,72,34708,1,0,0:0:0:0:
272,72,34774,1,0,0:0:0:0:
272,72,34841,1,0,0:0:0:0:
272,72,34908,1,8,0:0:0:0:
312,64,35008,1,8,0:0:0:0:
288,72,35108,1,0,0:0:0:0:
288,72,35208,1,0,0:0:0:0:
288,72,35308,1,8,0:0:0:0:
280,80,35408,1,8,0:0:0:0:
288,72,35508,1,0,0:0:0:0:
288,72,35608,1,8,0:0:0:0:
288,72,35708,1,8,0:0:0:0:
280,80,35808,1,8,0:0:0:0:
288,72,35908,1,0,0:0:0:0:
296,64,36008,1,0,0:0:0:0:
288,72,36108,1,8,0:0:0:0:
288,72,36308,1,0,0:0:0:0:
280,80,36408,1,0,0:0:0:0:
288,72,36508,1,8,0:0:0:0:
288,80,36574,1,8,0:0:0:0:
288,80,36641,1,8,0:0:0:0:
288,80,36708,1,0,0:0:0:0:
272,96,36808,1,8,0:0:0:0:
272,96,36908,1,8,0:0:0:0:
272,96,37008,1,8,0:0:0:0:
272,96,37108,1,0,0:0:0:0:
272,96,37208,1,8,0:0:0:0:
272,96,37308,1,8,0:0:0:0:
248,96,37408,1,0,0:0:0:0:
296,88,37508,1,8,0:0:0:0:
264,96,37574,1,0,0:0:0:0:
264,96,37641,1,0,0:0:0:0:
272,96,37708,1,8,0:0:0:0:
296,96,37808,1,8,0:0:0:0:
272,88,37908,1,0,0:0:0:0:
304,88,37974,1,0,0:0:0:0:
304,88,38041,1,0,0:0:0:0:
304,88,38108,1,8,0:0:0:0:
304,96,38208,1,0,0:0:0:0:
304,96,38308,1,8,0:0:0:0:
296,88,38374,1,8,0:0:0:0:
296,88,38441,1,0,0:0:0:0:
296,88,38508,1,8,0:0:0:0:
288,88,38608,1,0,0:0:0:0:
312,88,38708,1,8,0:0:0:0:
296,96,38774,1,0,0:0:0:0:
296,96,38841,1,0,0:0:0:0:
296,96,38908,1,8,0:0:0:0:
296,96,38974,1,0,0:0:0:0:
296,96,39041,1,0,0:0:0:0:
296,96,39108,1,8,0:0:0:0:
288,96,39174,1,0,0:0:0:0:
256,88,39241,1,0,0:0:0:0:
248,88,39308,1,8,0:0:0:0:
256,88,39374,1,8,0:0:0:0:
256,88,39441,1,8,0:0:0:0:
256,88,39508,1,0,0:0:0:0:
268,85,39608,1,0,0:0:0:0:
268,85,39708,1,8,0:0:0:0:
268,85,39908,1,0,0:0:0:0:
268,85,40008,1,0,0:0:0:0:
268,85,40108,1,8,0:0:0:0:
256,88,40174,1,8,0:0:0:0:
256,88,40241,1,8,0:0:0:0:
268,85,40308,1,0,0:0:0:0:
268,85,40408,1,8,0:0:0:0:
268,85,40508,1,8,0:0:0:0:
268,85,40708,1,0,0:0:0:0:
260,84,40774,1,0,0:0:0:0:
262,84,40841,1,0,0:0:0:0:
262,84,40908,1,8,0:0:0:0:
262,84,40974,1,8,0:0:0:0:
262,84,41041,1,8,0:0:0:0:
262,84,41108,1,0,0:0:0:0:
267,87,41208,1,8,0:0:0:0:
268,85,41308,1,8,0:0:0:0:
268,85,41508,1,0,0:0:0:0:
273,72,41574,1,0,0:0:0:0:
273,73,41641,1,0,0:0:0:0:
272,74,41708,1,8,0:0:0:0:
262,78,41908,1,8,0:0:0:0:
309,69,42008,1,0,0:0:0:0:
279,70,42108,1,8,0:0:0:0:
279,70,42208,1,8,0:0:0:0:
279,70,42308,1,0,0:0:0:0:
267,62,42374,1,0,0:0:0:0:
267,62,42441,1,0,0:0:0:0:
265,63,42508,1,8,0:0:0:0:
298,72,42574,1,8,0:0:0:0:
295,71,42641,1,8,0:0:0:0:
285,65,42708,1,0,0:0:0:0:
300,69,42808,1,0,0:0:0:0:
294,69,42908,1,8,0:0:0:0:
294,69,43108,1,0,0:0:0:0:
286,83,43174,1,0,0:0:0:0:
286,83,43241,1,0,0:0:0:0:
286,83,43308,1,8,0:0:0:0:
327,57,43408,1,8,0:0:0:0:
289,75,43508,1,0,0:0:0:0:
289,75,43608,1,8,0:0:0:0:
289,75,43708,1,8,0:0:0:0:
289,75,43908,1,8,0:0:0:0:
282,75,43974,1,0,0:0:0:0:
283,75,44041,1,0,0:0:0:0:
285,76,44108,1,8,0:0:0:0:
286,83,44308,1,8,0:0:0:0:
283,84,44408,1,8,0:0:0:0:
283,84,44508,1,0,0:0:0:0:
282,84,44608,1,8,0:0:0:0:
282,84,44708,1,0,0:0:0:0:
294,87,44808,1,8,0:0:0:0:
290,82,44908,1,0,0:0:0:0:
291,82,44974,1,8,0:0:0:0:
291,82,45041,1,8,0:0:0:0:
291,82,45108,1,0,0:0:0:0:
302,79,45208,1,8,0:0:0:0:
302,79,45308,1,0,0:0:0:0:
302,79,45408,1,0,0:0:0:0:
302,79,45508,1,8,0:0:0:0:
296,84,45574,1,0,0:0:0:0:
296,84,45641,1,0,0:0:0:0:
297,81,45708,1,8,0:0:0:0:
297,81,45774,1,0,0:0:0:0:
297,81,45841,1,0,0:0:0:0:
297,81,45908,1,0,0:0:0:0:
258,130,46008,1,8,0:0:0:0:
283,96,46108,1,8,0:0:0:0:
284,96,46308,1,0,0:0:0:0:
274,85,46374,1,0,0:0:0:0:
274,85,46441,1,0,0:0:0:0:
274,85,46508,1,8,0:0:0:0:
267,71,46608,1,8,0:0:0:0:
267,71,46708,1,0,0:0:0:0:
266,71,46808,1,8,0:0:0:0:
266,71,46908,1,8,0:0:0:0:
287,74,47108,1,0,0:0:0:0:
286,72,47208,1,8,0:0:0:0:
286,72,47308,1,8,0:0:0:0:
286,72,47408,1,8,0:0:0:0:
286,72,47508,1,0,0:0:0:0:
281,82,47574,1,0,0:0:0:0:
281,82,47641,1,0,0:0:0:0:
281,82,47708,1,8,0:0:0:0:
281,82,47908,1,0,0:0:0:0:
294,97,47974,1,0,0:0:0:0:
292,97,48041,1,0,0:0:0:0:
292,97,48108,1,8,0:0:0:0:
285,81,48208,1,8,0:0:0:0:
285,81,48308,1,0,0:0:0:0:
276,81,48408,1,0,0:0:0:0:
276,81,48508,1,8,0:0:0:0:
275,76,48574,1,8,0:0:0:0:
275,76,48641,1,8,0:0:0:0:
281,82,48708,1,0,0:0:0:0:
266,72,48808,1,0,0:0:0:0:
272,77,48908,1,8,0:0:0:0:
272,77,49108,1,8,0:0:0:0:
272,77,49208,1,0,0:0:0:0:
272,77,49308,1,8,0:0:0:0:
273,117,49408,1,8,0:0:0:0:
273,117,49508,1,0,0:0:0:0:
280,99,49574,1,8,0:0:0:0:
280,99,49641,1,8,0:0:0:0:
280,99,49708,1,0,0:0:0:0:
313,89,49908,1,8,0:0:0:0:
313,89,50008,1,0,0:0:0:0:
302,86,50108,1,8,0:0:0:0:
302,86,50208,1,8,0:0:0:0:
302,85,50308,1,0,0:0:0:0:
281,86,50374,1,0,0:0:0:0:
284,87,50441,1,0,0:0:0:0:
284,87,50508,1,8,0:0:0:0:
313,89,50708,1,0,0:0:0:0:
252,96,50774,1,0,0:0:0:0:
252,96,50841,1,0,0:0:0:0:
284,86,50908,1,8,0:0:0:0:
284,92,51008,1,0,0:0:0:0:
281,88,51108,1,8,0:0:0:0:
261,80,51174,1,8,0:0:0:0:
262,79,51241,1,0,0:0:0:0:
263,79,51308,1,8,0:0:0:0:
269,86,51408,1,0,0:0:0:0:
269,86,51508,1,8,0:0:0:0:
262,92,51574,1,8,0:0:0:0:
262,94,51641,1,0,0:0:0:0:
262,88,51708,1,0,0:0:0:0:
262,88,51774,1,8,0:0:0:0:
262,88,51841,1,8,0:0:0:0:
262,88,51908,1,0,0:0:0:0:
262,88,51974,1,0,0:0:0:0:
262,88,52041,1,0,0:0:0:0:
262,88,52108,1,8,0:0:0:0:
262,88,52174,1,0,0:0:0:0:
262,88,52241,1,0,0:0:0:0:
262,88,52308,1,8,0:0:0:0:
269,86,52408,1,0,0:0:0:0:
269,86,52508,1,8,0:0:0:0:
268,83,52708,1,0,0:0:0:0:
275,82,52774,1,0,0:0:0:0:
275,82,52841,1,0,0:0:0:0:
275,82,52908,1,8,0:0:0:0:
241,83,53008,1,8,0:0:0:0:
274,90,53108,1,0,0:0:0:0:
272,100,53208,1,8,0:0:0:0:
272,100,53308,1,8,0:0:0:0:
248,86,53408,1,8,0:0:0:0:
248,86,53508,1,0,0:0:0:0:
258,82,53608,1,8,0:0:0:0:
258,82,53708,1,8,0:0:0:0:
258,82,53908,1,0,0:0:0:0:
254,84,54008,1,0,0:0:0:0:
262,84,54108,1,8,0:0:0:0:
262,84,54208,1,8,0:0:0:0:
262,84,54308,1,0,0:0:0:0:
248,86,54374,1,8,0:0:0:0:
248,86,54441,1,8,0:0:0:0:
252,84,54508,1,8,0:0:0:0:
251,70,54608,1,8,0:0:0:0:
250,70,54708,1,0,0:0:0:0:
249,70,54808,1,0,0:0:0:0:
249,70,54908,1,8,0:0:0:0:
249,70,55108,1,8,0:0:0:0:
251,67,55174,1,0,0:0:0:0:
251,67,55241,1,0,0:0:0:0:
251,67,55308,1,8,0:0:0:0:
251,67,55374,1,8,0:0:0:0:
251,67,55441,1,8,0:0:0:0:
251,67,55508,1,0,0:0:0:0:
245,87,55608,1,0,0:0:0:0:
245,86,55708,1,8,0:0:0:0:
245,86,55908,1,8,0:0:0:0:
249,78,55974,1,0,0:0:0:0:
249,78,56041,1,0,0:0:0:0:
249,78,56108,1,8,0:0:0:0:
251,67,56208,1,8,0:0:0:0:
251,67,56308,1,0,0:0:0:0:
251,67,56408,1,8,0:0:0:0:
251,67,56508,1,8,0:0:0:0:
249,70,56608,1,8,0:0:0:0:
249,70,56708,1,0,0:0:0:0:
272,74,56774,1,0,0:0:0:0:
260,77,56841,1,0,0:0:0:0:
258,77,56908,1,8,0:0:0:0:
289,75,57008,1,0,0:0:0:0:
276,71,57108,1,8,0:0:0:0:
276,71,57208,1,8,0:0:0:0:
276,71,57308,1,0,0:0:0:0:
274,71,57408,1,0,0:0:0:0:
274,71,57508,1,8,0:0:0:0:
273,71,57608,1,0,0:0:0:0:
241,74,57708,1,8,0:0:0:0:
253,73,57774,1,0,0:0:0:0:
253,73,57841,1,0,0:0:0:0:
251,73,57908,1,8,0:0:0:0:
252,69,58008,1,8,0:0:0:0:
251,69,58108,1,0,0:0:0:0:
250,69,58208,1,0,0:0:0:0:
250,69,58308,1,8,0:0:0:0:
258,78,58408,1,8,0:0:0:0:
273,62,58508,1,0,0:0:0:0:
241,74,58574,1,8,0:0:0:0:
241,74,58641,1,0,0:0:0:0:
241,74,58708,1,8,0:0:0:0:
237,80,58808,1,0,0:0:0:0:
241,60,58908,1,8,0:0:0:0:
241,59,59108,1,0,0:0:0:0:
241,59,59208,1,0,0:0:0:0:
241,59,59308,1,8,0:0:0:0:
239,110,59408,1,8,0:0:0:0:
241,100,59508,1,0,0:0:0:0:
239,101,59574,1,0,0:0:0:0:
238,101,59641,1,0,0:0:0:0:
238,101,59708,1,8,0:0:0:0:
228,69,59808,1,8,0:0:0:0:
228,69,59908,1,0,0:0:0:0:
250,88,59974,1,8,0:0:0:0:
250,88,60041,1,8,0:0:0:0:
250,88,60108,1,8,0:0:0:0:
235,67,60208,1,8,0:0:0:0:
235,67,60308,1,0,0:0:0:0:
235,67,60408,1,0,0:0:0:0:
235,67,60508,1,8,0:0:0:0:
235,67,60608,1,8,0:0:0:0:
235,67,60708,1,0,0:0:0:0:
230,78,60774,1,0,0:0:0:0:
230,77,60841,1,0,0:0:0:0:
233,78,60908,1,8,0:0:0:0:
272,62,61008,1,8,0:0:0:0:
243,64,61108,1,0,0:0:0:0:
243,64,61208,1,0,0:0:0:0:
251,58,61308,1,8,0:0:0:0:
249,57,61374,1,8,0:0:0:0:
248,57,61441,1,8,0:0:0:0:
248,57,61508,1,0,0:0:0:0:
284,46,61608,1,0,0:0:0:0:
257,54,61708,1,8,0:0:0:0:
257,54,61908,1,8,0:0:0:0:
257,54,62008,1,0,0:0:0:0:
257,54,62108,1,8,0:0:0:0:
257,54,62308,1,0,0:0:0:0:
286,68,62374,1,0,0:0:0:0:
285,66,62441,1,0,0:0:0:0:
265,52,62508,1,8,0:0:0:0:
288,70,62608,1,8,0:0:0:0:
286,68,62708,1,0,0:0:0:0:
286,68,62808,1,8,0:0:0:0:
286,68,62908,1,8,0:0:0:0:
286,68,63008,1,8,0:0:0:0:
286,68,63108,1,0,0:0:0:0:
286,68,63208,1,0,0:0:0:0:
286,68,63308,1,8,0:0:0:0:
285,66,63508,1,8,0:0:0:0:
294,72,63608,1,0,0:0:0:0:
296,71,63708,1,8,0:0:0:0:
267,83,63774,1,8,0:0:0:0:
280,78,63841,1,8,0:0:0:0:
295,74,63908,1,0,0:0:0:0:
269,88,64008,1,0,0:0:0:0:
274,76,64108,1,8,0:0:0:0:
274,76,64208,1,8,0:0:0:0:
278,79,64308,1,0,0:0:0:0:
285,71,64374,1,0,0:0:0:0:
285,71,64441,1,0,0:0:0:0:
285,71,64508,1,8,0:0:0:0:
286,66,64608,1,0,0:0:0:0:
286,67,64708,1,8,0:0:0:0:
283,69,64774,1,0,0:0:0:0:
283,69,64841,1,0,0:0:0:0:
283,69,64908,1,8,0:0:0:0:
283,69,64974,1,0,0:0:0:0:
283,69,65041,1,0,0:0:0:0:
240,144,65108,5,8,0:0:0:0:
240,144,65208,1,8,0:0:0:0:
240,144,65308,1,8,0:0:0:0:
112,288,65408,1,0,0:0:0:0:
240,136,65508,1,8,0:0:0:0:
240,136,65608,1,0,0:0:0:0:
232,128,65708,1,0,0:0:0:0:
232,128,65808,1,8,0:0:0:0:
224,160,65908,1,8,0:0:0:0:
224,128,66008,1,0,0:0:0:0:
224,128,66108,1,8,0:0:0:0:
224,128,66308,1,0,0:0:0:0:
224,96,66374,1,0,0:0:0:0:
216,104,66441,1,0,0:0:0:0:
224,112,66508,1,8,0:0:0:0:
224,112,66708,1,8,0:0:0:0:
232,160,66808,1,0,0:0:0:0:
232,160,66908,1,0,0:0:0:0:
232,160,67008,1,8,0:0:0:0:
232,160,67108,1,0,0:0:0:0:
232,160,67208,1,8,0:0:0:0:
232,160,67308,1,8,0:0:0:0:
232,160,67408,1,0,0:0:0:0:
232,160,67508,1,0,0:0:0:0:
232,160,67608,1,8,0:0:0:0:
232,160,67708,1,8,0:0:0:0:
232,160,67908,1,0,0:0:0:0:
240,128,67974,1,0,0:0:0:0:
240,128,68041,1,0,0:0:0:0:
240,128,68108,1,8,0:0:0:0:
240,120,68308,1,0,0:0:0:0:
232,136,68408,1,0,0:0:0:0:
232,136,68508,1,8,0:0:0:0:
232,136,68608,1,8,0:0:0:0:
232,136,68708,1,0,0:0:0:0:
232,136,68808,1,8,0:0:0:0:
232,136,68908,1,8,0:0:0:0:
232,136,69008,1,0,0:0:0:0:
232,136,69108,1,8,0:0:0:0:
232,136,69208,1,0,0:0:0:0:
232,136,69308,1,8,0:0:0:0:
232,136,69508,1,0,0:0:0:0:
240,112,69574,1,0,0:0:0:0:
240,120,69641,1,0,0:0:0:0:
232,120,69708,1,8,0:0:0:0:
240,144,69908,1,0,0:0:0:0:
240,144,69974,1,0,0:0:0:0:
240,144,70041,1,0,0:0:0:0:
240,144,70108,1,8,0:0:0:0:
264,128,70208,1,0,0:0:0:0:
264,128,70308,1,8,0:0:0:0:
264,128,70408,1,8,0:0:0:0:
264,128,70508,1,0,0:0:0:0:
264,128,70608,1,8,0:0:0:0:
264,128,70708,1,0,0:0:0:0:
264,112,70808,1,0,0:0:0:0:
264,112,70908,1,8,0:0:0:0:
280,112,70974,1,0,0:0:0:0:
272,112,71041,1,0,0:0:0:0:
272,112,71108,1,8,0:0:0:0:
288,80,71208,1,8,0:0:0:0:
288,80,71308,1,8,0:0:0:0:
288,80,71408,1,0,0:0:0:0:
288,80,71508,1,8,0:0:0:0:
288,80,71608,1,0,0:0:0:0:
288,80,71708,1,8,0:0:0:0:
288,80,71808,1,8,0:0:0:0:
288,80,71908,1,0,0:0:0:0:
288,80,72008,1,8,0:0:0:0:
288,80,72108,1,8,0:0:0:0:
288,80,72208,1,0,0:0:0:0:
288,80,72308,1,8,0:0:0:0:
288,80,72408,1,0,0:0:0:0:
288,80,72508,1,8,0:0:0:0:
264,80,72608,1,8,0:0:0:0:
288,80,72708,1,0,0:0:0:0:
304,80,72774,1,0,0:0:0:0:
296,80,72841,1,0,0:0:0:0:
296,80,72908,1,8,0:0:0:0:
272,104,73108,1,8,0:0:0:0:
272,104,73208,1,8,0:0:0:0:
272,104,73308,1,0,0:0:0:0:
272,104,73408,1,8,0:0:0:0:
272,104,73508,1,0,0:0:0:0:
272,104,73608,1,8,0:0:0:0:
272,104,73708,1,8,0:0:0:0:
272,104,73808,1,0,0:0:0:0:
272,104,73908,1,8,0:0:0:0:
272,104,74008,1,0,0:0:0:0:
272,104,74108,1,8,0:0:0:0:
265,80,74208,1,8,0:0:0:0:
272,104,74308,1,0,0:0:0:0:
248,96,74374,1,0,0:0:0:0:
248,96,74441,1,0,0:0:0:0:
256,96,74508,1,8,0:0:0:0:
288,112,74708,1,8,0:0:0:0:
288,112,74808,1,0,0:0:0:0:
288,104,74908,1,8,0:0:0:0:
288,104,75008,1,8,0:0:0:0:
288,104,75108,1,0,0:0:0:0:
288,104,75208,1,8,0:0:0:0:
288,104,75308,1,8,0:0:0:0:
288,104,75408,1,0,0:0:0:0:
288,104,75508,1,8,0:0:0:0:
288,104,75608,1,0,0:0:0:0:
288,104,75708,1,8,0:0:0:0:
277,89,75808,1,8,0:0:0:0:
272,104,75908,1,0,0:0:0:0:
272,104,75974,1,0,0:0:0:0:
272,104,76041,1,0,0:0:0:0:
272,104,76108,1,8,0:0:0:0:
266,124,76208,1,8,0:0:0:0:
280,104,76308,1,0,0:0:0:0:
256,104,76408,1,0,0:0:0:0:
248,96,76508,1,8,0:0:0:0:
256,96,76574,1,0,0:0:0:0:
256,96,76641,1,0,0:0:0:0:
256,96,76708,1,8,0:0:0:0:
304,72,76808,1,8,0:0:0:0:
256,88,76908,1,0,0:0:0:0:
256,88,77008,1,0,0:0:0:0:
248,104,77108,1,8,0:0:0:0:
256,88,77174,1,0,0:0:0:0:
256,88,77241,1,0,0:0:0:0:
256,88,77308,1,8,0:0:0:0:
256,88,77374,1,0,0:0:0:0:
256,88,77441,1,0,0:0:0:0:
256,88,77508,1,8,0:0:0:0:
256,88,77574,1,8,0:0:0:0:
256,88,77641,1,0,0:0:0:0:
256,88,77708,1,8,0:0:0:0:
248,88,77774,1,0,0:0:0:0:
248,88,77841,1,0,0:0:0:0:
258,108,77908,1,8,0:0:0:0:
256,192,78008,12,8,81108,0:0:0:0:
