osu file format v14

[General]
AudioFilename: audio.mp3
AudioLeadIn: 0
PreviewTime: 65108
Countdown: 0
SampleSet: Normal
StackLeniency: 0.7
Mode: 1
LetterboxInBreaks: 0
WidescreenStoryboard: 0

[Editor]
Bookmarks: 13908,26708,39508,65108,77908
DistanceSpacing: 1.1
BeatDivisor: 6
GridSize: 8
TimelineZoom: 1

[Metadata]
Title:TOKYO HOT THEME SONG
TitleUnicode:TOKYO HOT THEME SONG
Artist:Tokyo Hot
ArtistUnicode:Tokyo Hot
Creator:404 AccNotFound
Version:SAM-572
Source:
Tags:fbi warning applerss
BeatmapID:1487259
BeatmapSetID:702919

[Difficulty]
HPDrainRate:7
CircleSize:5
OverallDifficulty:5
ApproachRate:5
SliderMultiplier:1.4
SliderTickRate:1

[Events]
//Background and Video events
0,0,"fib.jpg",0,0
//Break Periods
//Storyboard Layer 0 (Background)
//Storyboard Layer 1 (Fail)
//Storyboard Layer 2 (Pass)
//Storyboard Layer 3 (Foreground)
//Storyboard Sound Samples

[TimingPoints]
1108,400,4,1,0,95,1,0
1108,-100,4,1,0,95,0,1
13908,-100,4,1,0,95,0,0
65108,-100,4,1,0,95,0,1
77908,-100,4,1,0,95,0,0

[HitObjects]
208,136,1108,5,0,0:0:0:0:
208,136,1208,1,0,0:0:0:0:
264,200,1308,1,0,0:0:0:0:
136,272,1408,1,0,0:0:0:0:
264,200,1508,1,8,0:0:0:0:
136,272,1608,1,8,0:0:0:0:
136,272,1708,1,8,0:0:0:0:
128,272,1808,1,0,0:0:0:0:
128,272,2008,1,0,0:0:0:0:
128,272,2108,1,8,0:0:0:0:
136,264,2308,1,0,0:0:0:0:
272,136,2408,1,0,0:0:0:0:
136,264,2508,1,8,0:0:0:0:
264,200,2708,5,8,0:0:0:0:
264,200,2808,1,8,0:0:0:0:
264,200,2908,1,8,0:0:0:0:
136,272,3008,1,8,0:0:0:0:
264,200,3108,1,0,0:0:0:0:
136,272,3208,1,0,0:0:0:0:
136,272,3308,1,8,0:0:0:0:
128,272,3408,1,0,0:0:0:0:
128,272,3608,1,0,0:0:0:0:
128,272,3708,1,8,0:0:0:0:
136,264,3908,1,0,0:0:0:0:
272,136,4008,1,0,0:0:0:0:
136,264,4108,1,8,0:0:0:0:
264,200,4308,5,0,0:0:0:0:
264,200,4408,1,0,0:0:0:0:
264,200,4508,1,0,0:0:0:0:
136,272,4608,1,0,0:0:0:0:
264,200,4708,1,8,0:0:0:0:
136,272,4808,1,8,0:0:0:0:
136,272,4908,1,8,0:0:0:0:
128,272,5008,1,0,0:0:0:0:
128,272,5208,1,0,0:0:0:0:
128,272,5308,1,8,0:0:0:0:
136,264,5508,1,0,0:0:0:0:
272,136,5608,1,0,0:0:0:0:
136,264,5708,1,8,0:0:0:0:
232,192,5908,1,0,0:0:0:0:
232,192,6008,1,0,0:0:0:0:
232,192,6108,1,8,0:0:0:0:
232,192,6208,1,0,0:0:0:0:
232,192,6308,1,8,0:0:0:0:
232,192,6408,1,8,0:0:0:0:
240,192,6508,1,8,0:0:0:0:
240,192,6608,1,8,0:0:0:0:
240,192,6708,1,0,0:0:0:0:
240,192,6808,1,0,0:0:0:0:
240,192,6908,1,8,0:0:0:0:
240,192,7008,1,0,0:0:0:0:
240,192,7108,1,8,0:0:0:0:
240,192,7208,1,8,0:0:0:0:
240,192,7308,1,8,0:0:0:0:
240,192,7508,1,0,0:0:0:0:
256,176,7608,1,0,0:0:0:0:
256,176,7708,1,0,0:0:0:0:
256,176,7808,1,0,0:0:0:0:
248,176,7908,1,8,0:0:0:0:
248,176,8008,1,8,0:0:0:0:
248,176,8108,1,8,0:0:0:0:
248,176,8208,1,0,0:0:0:0:
248,176,8408,1,0,0:0:0:0:
248,176,8508,1,8,0:0:0:0:
248,176,8708,1,0,0:0:0:0:
248,176,8808,1,0,0:0:0:0:
248,176,8908,1,8,0:0:0:0:
248,176,9108,1,0,0:0:0:0:
248,176,9208,1,0,0:0:0:0:
248,176,9308,1,0,0:0:0:0:
248,176,9408,1,0,0:0:0:0:
248,176,9508,1,8,0:0:0:0:
248,176,9608,1,8,0:0:0:0:
248,176,9708,1,8,0:0:0:0:
248,176,9808,1,0,0:0:0:0:
248,176,10008,1,0,0:0:0:0:
248,176,10108,1,8,0:0:0:0:
248,176,10308,1,0,0:0:0:0:
248,176,10408,1,0,0:0:0:0:
248,176,10508,1,0,0:0:0:0:
248,176,10708,1,8,0:0:0:0:
248,176,10808,1,8,0:0:0:0:
248,176,10908,1,8,0:0:0:0:
248,176,11008,1,8,0:0:0:0:
248,176,11108,1,0,0:0:0:0:
248,176,11208,1,0,0:0:0:0:
248,176,11308,1,8,0:0:0:0:
248,176,11408,1,0,0:0:0:0:
248,176,11608,1,0,0:0:0:0:
248,176,11708,1,8,0:0:0:0:
248,176,11908,1,0,0:0:0:0:
248,176,12008,1,0,0:0:0:0:
248,176,12108,1,8,0:0:0:0:
248,176,12308,1,0,0:0:0:0:
256,192,12408,1,0,0:0:0:0:
256,192,12508,1,0,0:0:0:0:
256,192,12608,1,0,0:0:0:0:
256,192,12708,1,8,0:0:0:0:
256,192,12808,1,8,0:0:0:0:
256,192,12908,1,8,0:0:0:0:
256,192,13008,1,8,0:0:0:0:
256,192,13108,1,0,0:0:0:0:
264,184,13208,1,0,0:0:0:0:
256,184,13308,1,8,0:0:0:0:
256,184,13408,1,0,0:0:0:0:
256,184,13508,1,8,0:0:0:0:
256,184,13608,1,8,0:0:0:0:
256,184,13708,1,8,0:0:0:0:
256,184,13908,1,4,0:0:0:0:
248,184,14308,1,8,0:0:0:0:
248,184,14508,1,0,0:0:0:0:
248,184,14708,1,8,0:0:0:0:
248,184,14908,1,8,0:0:0:0:
192,112,15108,1,0,0:0:0:0:
192,112,15308,1,8,0:0:0:0:
208,104,15408,1,0,0:0:0:0:
184,104,15508,1,8,0:0:0:0:
248,184,15708,1,0,0:0:0:0:
48,112,15808,1,0,0:0:0:0:
248,184,15908,1,8,0:0:0:0:
248,184,16108,1,8,0:0:0:0:
248,152,16308,1,0,0:0:0:0:
248,184,16508,1,8,0:0:0:0:
248,152,16608,1,8,0:0:0:0:
248,184,16708,1,8,0:0:0:0:
248,184,16908,1,8,0:0:0:0:
216,104,17108,1,0,0:0:0:0:
248,184,17508,1,8,0:0:0:0:
248,184,17708,1,0,0:0:0:0:
248,184,17908,1,8,0:0:0:0:
248,184,18108,1,8,0:0:0:0:
216,104,18308,1,0,0:0:0:0:
248,184,18508,1,0,0:0:0:0:
216,104,18608,1,0,0:0:0:0:
248,184,18708,1,8,0:0:0:0:
248,184,18908,1,0,0:0:0:0:
104,72,19008,1,0,0:0:0:0:
248,184,19108,1,0,0:0:0:0:
248,184,19308,1,8,0:0:0:0:
176,120,19508,1,0,0:0:0:0:
248,184,19708,1,8,0:0:0:0:
216,104,19808,1,8,0:0:0:0:
216,104,19908,1,0,0:0:0:0:
248,184,20108,1,8,0:0:0:0:
216,104,20308,1,0,0:0:0:0:
248,184,20708,1,8,0:0:0:0:
248,184,20908,1,0,0:0:0:0:
336,152,21108,1,0,0:0:0:0:
248,184,21308,1,0,0:0:0:0:
328,160,21408,1,0,0:0:0:0:
248,184,21508,1,8,0:0:0:0:
248,184,21708,1,8,0:0:0:0:
304,168,21908,1,0,0:0:0:0:
248,184,22308,1,8,0:0:0:0:
248,184,22508,1,8,0:0:0:0:
288,168,22708,1,0,0:0:0:0:
248,184,22908,1,8,0:0:0:0:
288,168,23008,1,8,0:0:0:0:
248,184,23108,1,0,0:0:0:0:
248,184,23308,1,8,0:0:0:0:
248,184,23508,1,4,0:0:0:0:
248,184,23908,1,4,0:0:0:0:
248,184,24308,1,12,0:0:0:0:
248,184,24508,1,12,0:0:0:0:
248,184,24908,1,4,0:0:0:0:
248,184,25108,1,12,0:0:0:0:
248,184,25508,1,4,0:0:0:0:
248,184,25708,1,12,0:0:0:0:
224,184,26108,1,8,0:0:0:0:
272,280,26174,1,8,0:0:0:0:
272,280,26241,1,8,0:0:0:0:
224,184,26308,1,8,0:0:0:0:
240,184,26508,1,8,0:0:0:0:
200,184,26708,1,4,0:0:0:0:
176,192,26908,1,8,0:0:0:0:
248,160,27108,1,0,0:0:0:0:
176,192,27208,1,0,0:0:0:0:
192,192,27308,1,8,0:0:0:0:
248,160,27508,1,0,0:0:0:0:
200,80,27608,1,0,0:0:0:0:
200,80,27708,1,8,0:0:0:0:
240,144,27808,1,8,0:0:0:0:
248,160,27908,1,0,0:0:0:0:
192,200,28108,1,8,0:0:0:0:
176,192,28308,1,0,0:0:0:0:
288,160,28508,1,8,0:0:0:0:
168,80,28708,1,0,0:0:0:0:
168,80,28808,1,0,0:0:0:0:
160,80,28908,1,8,0:0:0:0:
184,128,29108,1,8,0:0:0:0:
152,184,29208,1,8,0:0:0:0:
144,184,29308,1,0,0:0:0:0:
232,48,29408,1,8,0:0:0:0:
184,128,29508,1,0,0:0:0:0:
152,184,29708,1,8,0:0:0:0:
200,184,29908,1,0,0:0:0:0:
176,192,30108,1,8,0:0:0:0:
248,160,30308,1,0,0:0:0:0:
176,192,30408,1,0,0:0:0:0:
192,192,30508,1,8,0:0:0:0:
248,160,30708,1,0,0:0:0:0:
168,144,30808,1,0,0:0:0:0:
200,80,30908,1,8,0:0:0:0:
200,80,31008,1,8,0:0:0:0:
248,160,31108,1,0,0:0:0:0:
192,200,31308,1,8,0:0:0:0:
176,192,31508,1,0,0:0:0:0:
288,160,31708,1,8,0:0:0:0:
168,80,31908,1,0,0:0:0:0:
168,80,32008,1,0,0:0:0:0:
160,80,32108,1,8,0:0:0:0:
184,128,32308,1,0,0:0:0:0:
144,184,32508,1,0,0:0:0:0:
240,152,32608,1,8,0:0:0:0:
184,128,32708,1,0,0:0:0:0:
152,184,32908,1,8,0:0:0:0:
200,184,33108,1,0,0:0:0:0:
176,192,33308,1,8,0:0:0:0:
248,160,33508,1,0,0:0:0:0:
176,192,33608,1,0,0:0:0:0:
192,192,33708,1,8,0:0:0:0:
248,160,33908,1,0,0:0:0:0:
200,80,34008,1,0,0:0:0:0:
200,80,34108,1,8,0:0:0:0:
240,144,34208,1,8,0:0:0:0:
248,160,34308,1,0,0:0:0:0:
192,200,34508,1,8,0:0:0:0:
176,192,34708,1,0,0:0:0:0:
288,160,34908,1,8,0:0:0:0:
168,80,35108,1,0,0:0:0:0:
168,80,35208,1,0,0:0:0:0:
160,80,35308,1,8,0:0:0:0:
184,128,35508,1,8,0:0:0:0:
152,184,35608,1,8,0:0:0:0:
144,184,35708,1,0,0:0:0:0:
232,48,35808,1,8,0:0:0:0:
184,128,35908,1,0,0:0:0:0:
152,184,36108,1,8,0:0:0:0:
200,184,36308,1,0,0:0:0:0:
176,192,36508,1,8,0:0:0:0:
168,144,36708,1,0,0:0:0:0:
168,144,36808,1,0,0:0:0:0:
168,144,36908,1,8,0:0:0:0:
160,144,37108,1,0,0:0:0:0:
160,144,37208,1,0,0:0:0:0:
160,144,37308,1,8,0:0:0:0:
160,144,37408,1,8,0:0:0:0:
160,144,37508,1,0,0:0:0:0:
160,144,37708,1,8,0:0:0:0:
208,136,37908,1,0,0:0:0:0:
208,280,38008,1,0,0:0:0:0:
208,280,38108,1,0,0:0:0:0:
208,280,38208,1,0,0:0:0:0:
208,280,38308,1,8,0:0:0:0:
208,280,38408,1,8,0:0:0:0:
208,280,38508,1,0,0:0:0:0:
208,280,38608,1,0,0:0:0:0:
208,280,38708,1,8,0:0:0:0:
208,280,38808,1,0,0:0:0:0:
208,280,38908,1,0,0:0:0:0:
208,280,39008,1,8,0:0:0:0:
208,280,39108,1,8,0:0:0:0:
216,112,39208,1,0,0:0:0:0:
208,280,39308,1,8,0:0:0:0:
208,128,39508,1,4,0:0:0:0:
240,104,39708,1,8,0:0:0:0:
272,160,39908,1,0,0:0:0:0:
272,160,40008,1,0,0:0:0:0:
272,160,40108,1,8,0:0:0:0:
192,128,40308,1,0,0:0:0:0:
192,120,40408,1,0,0:0:0:0:
192,128,40508,1,8,0:0:0:0:
240,216,40608,1,8,0:0:0:0:
200,128,40708,1,0,0:0:0:0:
133,191,40808,1,0,0:0:0:0:
208,120,40908,1,8,0:0:0:0:
200,128,41108,1,0,0:0:0:0:
192,136,41308,1,8,0:0:0:0:
280,192,41508,1,0,0:0:0:0:
272,176,41608,1,0,0:0:0:0:
272,176,41708,1,8,0:0:0:0:
272,176,41908,1,0,0:0:0:0:
224,224,42108,1,8,0:0:0:0:
224,216,42208,1,8,0:0:0:0:
224,216,42308,1,0,0:0:0:0:
224,216,42508,1,8,0:0:0:0:
224,216,42708,1,0,0:0:0:0:
224,216,42908,1,8,0:0:0:0:
224,216,43108,1,0,0:0:0:0:
224,216,43208,1,0,0:0:0:0:
224,216,43308,1,8,0:0:0:0:
224,216,43508,1,0,0:0:0:0:
224,216,43608,1,0,0:0:0:0:
224,216,43708,1,8,0:0:0:0:
224,216,43808,1,8,0:0:0:0:
224,216,43908,1,0,0:0:0:0:
224,216,44108,1,8,0:0:0:0:
224,216,44308,1,8,0:0:0:0:
232,136,44408,1,8,0:0:0:0:
224,216,44508,1,0,0:0:0:0:
232,136,44608,1,0,0:0:0:0:
232,136,44708,1,8,0:0:0:0:
232,136,44808,1,8,0:0:0:0:
232,136,44908,1,0,0:0:0:0:
232,136,45008,1,8,0:0:0:0:
232,136,45108,1,8,0:0:0:0:
232,136,45208,1,0,0:0:0:0:
232,136,45308,1,0,0:0:0:0:
232,136,45408,1,0,0:0:0:0:
232,136,45508,1,8,0:0:0:0:
232,136,45608,1,8,0:0:0:0:
232,136,45708,1,8,0:0:0:0:
232,136,45908,1,0,0:0:0:0:
232,192,46108,1,8,0:0:0:0:
232,192,46308,1,0,0:0:0:0:
232,192,46408,1,0,0:0:0:0:
232,192,46508,1,8,0:0:0:0:
232,192,46708,1,0,0:0:0:0:
232,192,46808,1,0,0:0:0:0:
232,192,46908,1,8,0:0:0:0:
232,192,47008,1,8,0:0:0:0:
219,115,47108,1,0,0:0:0:0:
177,63,47208,1,0,0:0:0:0:
232,192,47308,1,8,0:0:0:0:
152,160,47508,1,0,0:0:0:0:
152,160,47708,1,8,0:0:0:0:
152,160,47908,1,0,0:0:0:0:
152,160,48008,1,0,0:0:0:0:
152,160,48108,1,8,0:0:0:0:
168,160,48308,1,0,0:0:0:0:
168,160,48508,1,8,0:0:0:0:
168,160,48608,1,8,0:0:0:0:
168,160,48708,1,8,0:0:0:0:
168,160,48908,1,8,0:0:0:0:
168,160,49108,1,0,0:0:0:0:
168,160,49308,1,8,0:0:0:0:
168,160,49508,1,0,0:0:0:0:
168,160,49608,1,0,0:0:0:0:
168,160,49708,1,8,0:0:0:0:
168,160,49908,1,0,0:0:0:0:
168,160,50008,1,0,0:0:0:0:
168,160,50108,1,8,0:0:0:0:
168,160,50208,1,8,0:0:0:0:
168,160,50308,1,0,0:0:0:0:
168,160,50508,1,8,0:0:0:0:
168,160,50708,1,0,0:0:0:0:
168,160,50808,1,0,0:0:0:0:
168,160,50908,1,0,0:0:0:0:
168,160,51008,1,0,0:0:0:0:
168,160,51108,1,8,0:0:0:0:
168,160,51208,1,8,0:0:0:0:
168,160,51308,1,0,0:0:0:0:
168,160,51408,1,8,0:0:0:0:
168,160,51508,1,8,0:0:0:0:
168,160,51608,1,0,0:0:0:0:
168,160,51708,1,0,0:0:0:0:
168,160,51808,1,8,0:0:0:0:
168,160,51908,1,8,0:0:0:0:
168,160,52008,1,0,0:0:0:0:
168,160,52108,1,8,0:0:0:0:
208,128,52308,1,0,0:0:0:0:
240,104,52508,1,8,0:0:0:0:
272,160,52708,1,0,0:0:0:0:
272,160,52808,1,0,0:0:0:0:
272,160,52908,1,8,0:0:0:0:
192,128,53108,1,0,0:0:0:0:
192,120,53208,1,0,0:0:0:0:
192,128,53308,1,8,0:0:0:0:
240,216,53408,1,8,0:0:0:0:
200,128,53508,1,0,0:0:0:0:
183,109,53608,1,0,0:0:0:0:
208,120,53708,1,8,0:0:0:0:
200,128,53908,1,0,0:0:0:0:
192,136,54108,1,8,0:0:0:0:
280,192,54308,1,0,0:0:0:0:
272,176,54408,1,0,0:0:0:0:
272,176,54508,1,8,0:0:0:0:
272,176,54708,1,0,0:0:0:0:
224,224,54908,1,8,0:0:0:0:
224,216,55008,1,8,0:0:0:0:
224,216,55108,1,0,0:0:0:0:
224,216,55308,1,8,0:0:0:0:
224,216,55508,1,0,0:0:0:0:
224,216,55708,1,8,0:0:0:0:
224,216,55908,1,0,0:0:0:0:
224,216,56008,1,0,0:0:0:0:
224,216,56108,1,8,0:0:0:0:
224,216,56308,1,0,0:0:0:0:
224,216,56408,1,0,0:0:0:0:
224,216,56508,1,8,0:0:0:0:
224,216,56608,1,8,0:0:0:0:
224,216,56708,1,0,0:0:0:0:
224,216,56908,1,8,0:0:0:0:
224,216,57108,1,8,0:0:0:0:
232,136,57208,1,8,0:0:0:0:
224,216,57308,1,0,0:0:0:0:
232,136,57408,1,0,0:0:0:0:
232,136,57508,1,8,0:0:0:0:
232,136,57608,1,8,0:0:0:0:
232,136,57708,1,0,0:0:0:0:
232,136,57808,1,0,0:0:0:0:
232,136,57908,1,8,0:0:0:0:
232,136,58008,1,8,0:0:0:0:
232,136,58108,1,0,0:0:0:0:
232,136,58208,1,8,0:0:0:0:
232,136,58308,1,8,0:0:0:0:
232,136,58408,1,0,0:0:0:0:
232,136,58508,1,8,0:0:0:0:
232,136,58708,1,0,0:0:0:0:
232,192,58908,1,8,0:0:0:0:
232,192,59108,1,0,0:0:0:0:
232,192,59208,1,0,0:0:0:0:
232,192,59308,1,8,0:0:0:0:
232,192,59508,1,0,0:0:0:0:
232,192,59608,1,0,0:0:0:0:
232,192,59708,1,8,0:0:0:0:
232,192,59808,1,8,0:0:0:0:
232,192,59908,1,0,0:0:0:0:
185,111,60008,1,0,0:0:0:0:
232,192,60108,1,8,0:0:0:0:
152,160,60308,1,0,0:0:0:0:
152,160,60508,1,8,0:0:0:0:
152,160,60708,1,0,0:0:0:0:
152,160,60808,1,0,0:0:0:0:
152,160,60908,1,8,0:0:0:0:
168,160,61108,1,0,0:0:0:0:
168,160,61308,1,8,0:0:0:0:
168,160,61408,1,8,0:0:0:0:
168,160,61508,1,8,0:0:0:0:
168,160,61708,1,8,0:0:0:0:
168,160,61908,1,0,0:0:0:0:
168,160,62108,1,8,0:0:0:0:
168,160,62308,1,0,0:0:0:0:
168,160,62408,1,0,0:0:0:0:
168,160,62508,1,8,0:0:0:0:
168,160,62708,1,0,0:0:0:0:
168,160,62808,1,0,0:0:0:0:
168,160,62908,1,8,0:0:0:0:
168,160,63008,1,8,0:0:0:0:
168,160,63108,1,0,0:0:0:0:
240,125,63208,1,0,0:0:0:0:
168,160,63308,1,8,0:0:0:0:
168,160,63508,1,0,0:0:0:0:
168,160,63608,1,0,0:0:0:0:
168,160,63708,1,8,0:0:0:0:
168,160,63808,1,0,0:0:0:0:
168,160,63908,1,8,0:0:0:0:
168,160,64008,1,8,0:0:0:0:
168,160,64108,1,8,0:0:0:0:
168,160,64208,1,8,0:0:0:0:
168,160,64308,1,0,0:0:0:0:
120,208,64374,1,0,0:0:0:0:
128,224,64441,1,0,0:0:0:0:
168,160,64508,1,8,0:0:0:0:
168,160,64608,1,0,0:0:0:0:
168,160,64708,1,8,0:0:0:0:
200,184,64774,1,0,0:0:0:0:
200,192,64841,1,0,0:0:0:0:
168,160,64908,1,8,0:0:0:0:
376,152,65008,1,8,0:0:0:0:
344,152,65108,1,4,0:0:0:0:
205,171,65308,1,8,0:0:0:0:
205,171,65508,1,0,0:0:0:0:
205,171,65608,1,0,0:0:0:0:
205,171,65708,1,8,0:0:0:0:
205,171,65808,1,0,0:0:0:0:
121,177,66008,1,0,0:0:0:0:
121,177,66108,1,8,0:0:0:0:
121,177,66308,1,0,0:0:0:0:
121,177,66408,1,0,0:0:0:0:
121,177,66508,1,8,0:0:0:0:
264,200,66708,5,0,0:0:0:0:
264,200,66808,1,0,0:0:0:0:
264,200,66908,1,0,0:0:0:0:
136,272,67008,1,0,0:0:0:0:
264,200,67108,1,8,0:0:0:0:
136,272,67208,1,8,0:0:0:0:
136,272,67308,1,8,0:0:0:0:
128,272,67408,1,0,0:0:0:0:
128,272,67608,1,0,0:0:0:0:
128,272,67708,1,8,0:0:0:0:
136,264,67908,1,0,0:0:0:0:
272,136,68008,1,0,0:0:0:0:
136,264,68108,1,8,0:0:0:0:
264,200,68308,5,8,0:0:0:0:
264,200,68408,1,8,0:0:0:0:
264,200,68508,1,8,0:0:0:0:
136,272,68608,1,8,0:0:0:0:
264,200,68708,1,0,0:0:0:0:
136,272,68808,1,0,0:0:0:0:
136,272,68908,1,8,0:0:0:0:
128,272,69008,1,0,0:0:0:0:
128,272,69208,1,0,0:0:0:0:
128,272,69308,1,8,0:0:0:0:
136,264,69508,1,0,0:0:0:0:
272,136,69608,1,0,0:0:0:0:
136,264,69708,1,8,0:0:0:0:
232,192,69908,1,0,0:0:0:0:
232,192,70008,1,0,0:0:0:0:
232,192,70108,1,0,0:0:0:0:
232,192,70208,1,0,0:0:0:0:
232,192,70308,1,8,0:0:0:0:
232,192,70408,1,8,0:0:0:0:
240,192,70508,1,8,0:0:0:0:
240,192,70608,1,8,0:0:0:0:
240,192,70708,1,0,0:0:0:0:
240,192,70808,1,0,0:0:0:0:
240,192,70908,1,8,0:0:0:0:
240,192,71008,1,0,0:0:0:0:
240,192,71108,1,8,0:0:0:0:
240,192,71208,1,8,0:0:0:0:
240,192,71308,1,8,0:0:0:0:
240,192,71508,1,0,0:0:0:0:
256,176,71608,1,0,0:0:0:0:
256,176,71708,1,0,0:0:0:0:
256,176,71808,1,0,0:0:0:0:
248,176,71908,1,8,0:0:0:0:
248,176,72008,1,8,0:0:0:0:
248,176,72108,1,8,0:0:0:0:
248,176,72208,1,0,0:0:0:0:
248,176,72408,1,0,0:0:0:0:
248,176,72508,1,8,0:0:0:0:
248,176,72708,1,0,0:0:0:0:
248,176,72808,1,0,0:0:0:0:
248,176,72908,1,8,0:0:0:0:
248,176,73108,1,8,0:0:0:0:
248,176,73208,1,8,0:0:0:0:
248,176,73308,1,8,0:0:0:0:
248,176,73408,1,8,0:0:0:0:
248,176,73508,1,0,0:0:0:0:
248,176,73608,1,0,0:0:0:0:
248,176,73708,1,8,0:0:0:0:
248,176,73808,1,0,0:0:0:0:
248,176,74008,1,0,0:0:0:0:
248,176,74108,1,8,0:0:0:0:
248,176,74308,1,0,0:0:0:0:
248,176,74408,1,0,0:0:0:0:
248,176,74508,1,8,0:0:0:0:
248,176,74708,1,0,0:0:0:0:
248,176,74808,1,0,0:0:0:0:
248,176,74908,1,0,0:0:0:0:
248,176,75008,1,0,0:0:0:0:
248,176,75108,1,8,0:0:0:0:
248,176,75208,1,8,0:0:0:0:
248,176,75308,1,8,0:0:0:0:
248,176,75408,1,0,0:0:0:0:
248,176,75608,1,0,0:0:0:0:
248,176,75708,1,8,0:0:0:0:
248,176,75908,1,0,0:0:0:0:
248,176,76008,1,0,0:0:0:0:
248,176,76108,1,8,0:0:0:0:
248,176,76308,1,0,0:0:0:0:
256,192,76408,1,0,0:0:0:0:
256,192,76508,1,0,0:0:0:0:
256,192,76608,1,0,0:0:0:0:
256,192,76708,1,8,0:0:0:0:
256,192,76808,1,8,0:0:0:0:
256,192,76908,1,8,0:0:0:0:
256,192,77008,1,8,0:0:0:0:
256,192,77108,1,0,0:0:0:0:
264,184,77208,1,0,0:0:0:0:
256,184,77308,1,8,0:0:0:0:
256,184,77408,1,0,0:0:0:0:
256,184,77508,1,8,0:0:0:0:
256,184,77608,1,8,0:0:0:0:
256,184,77708,1,8,0:0:0:0:
256,184,77908,1,4,0:0:0:0:
