osu file format v14

[General]
AudioFilename: renaijuku.mp3
AudioLeadIn: 0
PreviewTime: 5601
Countdown: 0
SampleSet: Normal
StackLeniency: 0.7
Mode: 0
LetterboxInBreaks: 0
WidescreenStoryboard: 1

[Editor]
DistanceSpacing: 1.2
BeatDivisor: 4
GridSize: 4
TimelineZoom: 1

[Metadata]
Title:Otomeshiki Renai Juku
TitleUnicode:乙女式れんあい塾
Artist:Tokui Sora & Kusuda Aina
ArtistUnicode:徳井青空 & 楠田亜衣奈
Creator:[CSGA]Ar3sgice
Version:Chounankan
Source:Love Live! School idol project
Tags:矢澤にこ 東條希 超難関 μ's Yazawa Nico Niko Toujou Nozomi otome shiki muse u's LL lovelive
BeatmapID:567952
BeatmapSetID:246588

[Difficulty]
HPDrainRate:6
CircleSize:4
OverallDifficulty:8.4
ApproachRate:9.2
SliderMultiplier:2
SliderTickRate:2

[Events]
//Background and Video events
0,0,"renaijuku_bg.jpg",0,0
//Break Periods
//Storyboard Layer 0 (Background)
//Storyboard Layer 1 (Fail)
//Storyboard Layer 2 (Pass)
//Storyboard Layer 3 (Foreground)
//Storyboard Layer 4 (Overlay)
//Storyboard Sound Samples

[TimingPoints]
-430,317.460317460317,4,1,1,70,1,0
48776,-133.333333333333,4,1,1,63,0,0
55443,-100,4,1,1,70,0,0
104966,-133.333333333333,4,1,1,63,0,0
110681,-100,4,1,1,70,0,0
140522,-133.333333333333,4,1,1,63,0,0
144331,-100,4,1,1,70,0,0
191316,-100,4,1,1,80,0,0
195125,-100,4,1,1,70,0,0

[Colours]
Combo1 : 40,202,0
Combo2 : 209,255,196
Combo3 : 68,255,53
Combo4 : 172,255,140

[HitObjects]
313,296,522,5,0,0:0:0:0:
313,296,601,1,0,0:0:0:0:
313,296,681,1,0,0:0:0:0:
313,296,760,1,0,0:0:0:0:
313,296,839,1,4,0:0:0:0:
455,152,998,1,0,0:0:0:0:
387,359,1157,1,0,0:0:0:0:
188,223,1316,6,0,P|237:200|336:200,1,150,4|0,0:0|0:0,0:0:0:0:
374,223,1633,1,0,0:0:0:0:
251,67,1792,1,0,0:0:0:0:
218,321,1950,6,0,P|173:349|78:358,1,150,4|0,0:0|0:0,0:0:0:0:
32,336,2268,1,0,0:0:0:0:
94,131,2427,1,0,0:0:0:0:
56,252,2585,6,0,P|44:195|54:94,1,150,4|0,0:0|0:0,0:0:0:0:
94,131,2903,1,0,0:0:0:0:
339,59,3062,1,8,0:0:0:0:
208,217,3220,6,0,P|268:227|363:217,1,150,4|0,0:0|0:0,0:0:0:0:
403,201,3538,1,0,0:0:0:0:
496,332,3696,1,8,0:0:0:0:
104,247,4014,6,0,P|105:194|121:148,1,100,4|0,0:0|0:0,0:0:0:0:
355,284,4331,2,0,P|354:337|338:383,1,100,4|0,0:0|0:0,0:0:0:0:
244,56,4649,5,4,0:2:0:0:
486,239,4808,1,4,0:2:0:0:
486,239,5125,2,0,L|277:300,1,200,4|0,0:2|0:0,0:0:0:0:
84,192,5601,5,0,0:0:0:0:
223,364,5760,1,8,0:0:0:0:
181,241,5919,1,0,0:0:0:0:
181,241,6077,1,8,0:0:0:0:
68,318,6236,1,0,0:0:0:0:
354,351,6395,1,8,0:0:0:0:
263,182,6554,1,0,0:0:0:0:
263,182,6712,1,8,0:0:0:0:
326,63,6871,5,0,0:0:0:0:
290,280,7030,1,8,0:0:0:0:
404,177,7189,1,0,0:0:0:0:
208,102,7347,1,8,0:0:0:0:
496,129,7506,1,0,0:0:0:0:
225,365,7665,2,0,P|194:323|186:276,1,100,8|0,0:0|0:0,0:0:0:0:
391,272,7982,1,8,0:0:0:0:
115,168,8141,5,0,0:0:0:0:
52,320,8300,1,8,0:0:0:0:
115,168,8458,1,0,0:0:0:0:
297,221,8617,1,8,0:0:0:0:
125,260,8776,1,0,0:0:0:0:
66,59,8935,1,8,0:0:0:0:
213,142,9093,1,0,0:0:0:0:
20,214,9252,1,8,0:0:0:0:
190,357,9411,1,0,0:0:0:0:
360,152,9569,5,8,0:0:0:0:
221,249,9728,1,0,0:0:0:0:
459,269,9887,1,8,0:0:0:0:
221,249,10046,1,0,0:0:0:0:
376,261,10204,1,8,0:0:0:0:
473,69,10363,5,4,0:0:0:0:
502,184,10522,1,8,0:0:0:0:
402,354,10681,1,8,0:0:0:0:
402,354,10839,2,0,P|342:367|204:347,1,200,4|0,0:0|0:0,0:0:0:0:
75,69,11316,6,0,L|57:181,1,100,4|0,0:2|0:0,0:0:0:0:
277,135,11633,2,0,L|295:23,1,100,4|0,0:2|0:0,0:0:0:0:
111,258,11950,1,4,0:2:0:0:
352,195,12109,5,0,0:0:0:0:
401,187,12189,1,0,0:0:0:0:
439,155,12268,1,4,0:2:0:0:
181,182,12427,2,0,L|76:163,1,100,4|0,0:2|0:0,0:0:0:0:
263,351,12744,2,0,L|364:339,1,100,4|0,0:2|0:0,0:0:0:0:
494,321,13062,1,4,0:2:0:0:
290,44,13379,6,0,L|311:250,1,200,4|0,0:2|0:0,0:0:0:0:
471,102,13855,1,8,0:0:0:0:
440,238,14014,1,0,0:0:0:0:
97,178,14173,1,8,0:0:0:0:
219,111,14331,1,0,0:0:0:0:
342,367,14490,1,8,0:0:0:0:
219,226,14649,5,0,0:0:0:0:
209,274,14728,1,0,0:0:0:0:
221,322,14808,1,4,0:2:0:0:
320,137,14966,1,0,0:0:0:0:
107,278,15125,1,0,0:0:0:0:
394,224,15284,2,0,P|424:173|433:126,1,100,4|0,0:2|0:0,0:0:0:0:
277,19,15601,1,8,0:0:0:0:
241,234,15760,5,0,0:0:0:0:
501,165,15919,1,8,0:0:0:0:
225,149,16077,1,0,0:0:0:0:
301,296,16236,1,8,0:0:0:0:
182,54,16395,1,0,0:0:0:0:
187,293,16554,1,8,0:0:0:0:
308,173,16712,1,0,0:0:0:0:
141,171,16871,1,8,0:0:0:0:
247,361,17030,5,0,0:0:0:0:
467,245,17189,1,8,0:0:0:0:
240,228,17347,1,0,0:0:0:0:
431,367,17506,1,8,0:0:0:0:
379,139,17665,1,0,0:0:0:0:
347,279,17823,1,8,0:0:0:0:
510,144,17982,2,0,P|503:91|482:50,1,100,0|8,0:0|0:0,0:0:0:0:
246,134,18300,5,0,0:0:0:0:
275,292,18458,1,8,0:0:0:0:
394,212,18617,1,0,0:0:0:0:
126,129,18776,1,8,0:0:0:0:
378,42,18935,1,0,0:0:0:0:
289,211,19093,1,8,0:0:0:0:
251,56,19252,5,0,0:0:0:0:
145,259,19411,1,8,0:0:0:0:
19,178,19569,1,0,0:0:0:0:
183,13,19728,1,8,0:0:0:0:
336,126,19887,1,0,0:0:0:0:
169,186,20046,1,8,0:0:0:0:
303,294,20204,1,0,0:0:0:0:
95,357,20363,1,8,0:0:0:0:
222,259,20522,5,4,0:0:0:0:
346,361,20681,1,8,0:0:0:0:
484,276,20839,1,8,0:0:0:0:
379,18,20998,2,0,P|359:67|360:213,1,200,4|0,0:0|0:0,0:0:0:0:
487,78,21474,5,4,0:2:0:0:
508,198,21633,1,0,0:0:0:0:
268,114,21792,1,4,0:2:0:0:
259,244,21950,1,0,0:0:0:0:
83,47,22109,1,4,0:2:0:0:
31,173,22268,1,0,0:0:0:0:
177,358,22427,5,4,0:2:0:0:
384,166,22585,1,4,0:2:0:0:
177,358,22903,2,0,L|385:337,1,200,4|0,0:2|0:0,0:0:0:0:
503,368,23379,1,0,0:0:0:0:
275,140,23538,6,0,L|263:255,1,100,4|0,0:2|0:0,0:0:0:0:
357,45,23855,1,8,0:0:0:0:
168,158,24014,1,8,0:0:0:0:
379,272,24173,2,0,L|480:235,1,100,4|0,0:2|0:0,0:0:0:0:
351,129,24490,1,0,0:0:0:0:
381,365,24649,1,8,0:0:0:0:
135,268,24808,5,4,0:2:0:0:
135,268,24887,1,0,0:0:0:0:
135,268,24966,1,0,0:0:0:0:
267,239,25125,1,0,0:0:0:0:
76,200,25284,1,8,0:0:0:0:
195,334,25443,1,0,0:0:0:0:
143,100,25601,1,0,0:0:0:0:
9,289,25760,1,8,0:0:0:0:
9,289,25839,1,8,0:0:0:0:
9,289,25919,1,8,0:0:0:0:
143,100,26077,6,0,P|196:111|246:110,1,100,4|0,0:0|0:0,0:0:0:0:
420,63,26395,1,8,0:0:0:0:
278,24,26554,1,8,0:0:0:0:
484,144,26712,2,0,P|431:162|378:159,1,100,4|0,0:0|0:0,0:0:0:0:
181,279,27030,1,8,0:0:0:0:
341,234,27189,1,8,0:0:0:0:
199,374,27347,2,0,P|147:367|97:338,1,100,4|0,0:0|0:0,0:0:0:0:
337,115,27665,5,0,0:0:0:0:
278,330,27823,2,0,P|327:345|379:341,1,100,8|0,0:0|0:0,0:0:0:0:
278,330,28141,1,8,0:0:0:0:
471,197,28458,5,0,0:0:0:0:
490,150,28538,1,0,0:0:0:0:
492,100,28617,1,0,0:0:0:0:
479,51,28696,1,0,0:0:0:0:
447,11,28776,5,4,0:0:0:0:
247,125,28935,1,0,0:0:0:0:
360,298,29093,1,8,0:0:0:0:
414,103,29252,1,0,0:0:0:0:
189,23,29411,1,0,0:0:0:0:
112,173,29569,1,8,0:0:0:0:
321,196,29728,1,8,0:0:0:0:
244,346,29886,1,0,0:0:0:0:
35,239,30046,5,0,0:0:0:0:
228,211,30204,1,0,0:0:0:0:
67,99,30363,1,8,0:0:0:0:
100,297,30522,1,0,0:0:0:0:
235,115,30681,1,0,0:0:0:0:
404,238,30839,1,0,0:0:0:0:
245,294,30998,1,8,0:0:0:0:
334,22,31316,5,4,0:0:0:0:
496,178,31474,1,0,0:0:0:0:
307,237,31633,1,8,0:0:0:0:
366,91,31792,1,0,0:0:0:0:
151,180,31950,1,0,0:0:0:0:
268,369,32109,1,8,0:0:0:0:
354,169,32268,1,8,0:0:0:0:
467,361,32427,1,0,0:0:0:0:
129,277,32585,6,0,P|83:251|59:210,1,100,4|0,0:2|0:0,0:0:0:0:
390,0,32903,2,0,P|436:26|460:67,1,100,4|0,0:2|0:0,0:0:0:0:
129,278,33220,2,0,L|108:377,1,100,4|0,0:2|0:0,0:0:0:0:
471,149,33538,2,0,L|492:50,1,100,4|0,0:2|0:0,0:0:0:0:
253,263,33855,5,4,0:0:0:0:
476,242,34014,1,0,0:0:0:0:
296,79,34173,1,8,0:0:0:0:
320,307,34331,1,0,0:0:0:0:
407,46,34490,1,0,0:0:0:0:
325,230,34649,1,8,0:0:0:0:
211,27,34808,1,8,0:0:0:0:
108,207,34967,1,0,0:0:0:0:
246,153,35125,5,0,0:0:0:0:
18,207,35284,1,0,0:0:0:0:
200,290,35443,1,8,0:0:0:0:
168,110,35601,1,0,0:0:0:0:
89,332,35760,1,0,0:0:0:0:
228,253,35919,1,0,0:0:0:0:
326,370,36077,1,8,0:0:0:0:
502,201,36395,5,4,0:0:0:0:
311,272,36554,1,0,0:0:0:0:
489,325,36712,1,8,0:0:0:0:
428,161,36871,1,0,0:0:0:0:
226,364,37030,1,0,0:0:0:0:
412,238,37189,1,8,0:0:0:0:
167,192,37347,1,8,0:0:0:0:
355,61,37506,1,0,0:0:0:0:
110,29,37665,5,4,0:0:0:0:
59,251,37823,1,0,0:0:0:0:
2,124,37982,2,0,L|210:132,1,200,8|4,0:0|0:1,0:0:0:0:
467,268,38935,5,4,0:2:0:0:
256,185,39728,1,0,0:0:0:0:
431,88,40046,5,4,0:2:0:0:
185,13,40363,1,4,0:2:0:0:
109,147,40522,1,4,0:2:0:0:
366,313,40839,1,4,0:2:0:0:
248,368,40998,5,8,0:0:0:0:
248,368,41157,1,8,0:0:0:0:
332,180,41316,2,0,P|404:211|486:209,1,150,4|0,0:0|0:0,0:0:0:0:
512,174,41633,5,0,0:0:0:0:
350,54,41792,1,8,0:0:0:0:
204,159,41950,2,0,P|135:161|55:192,1,150,4|0,0:0|0:0,0:0:0:0:
22,233,42268,5,0,0:0:0:0:
165,357,42427,1,8,0:0:0:0:
284,203,42585,2,0,P|293:144|244:9,1,200,4|0,0:0|0:0,0:0:0:0:
471,109,43062,1,0,0:0:0:0:
128,257,43379,5,8,0:0:0:0:
266,305,43538,1,0,0:0:0:0:
71,355,43696,1,0,0:0:0:0:
143,51,44014,5,4,0:2:0:0:
415,158,44808,1,0,0:0:0:0:
340,343,45125,5,4,0:2:0:0:
440,61,45443,1,4,0:2:0:0:
499,245,45601,1,4,0:2:0:0:
252,120,45919,1,4,0:2:0:0:
75,114,46077,5,8,0:0:0:0:
75,114,46236,1,8,0:0:0:0:
230,23,46395,1,0,0:0:0:0:
143,198,46554,6,0,L|129:300,1,100,4|0,0:0|0:0,0:0:0:0:
369,186,46871,2,0,L|383:84,1,100,8|0,0:0|0:0,0:0:0:0:
44,255,47189,1,0,0:0:0:0:
175,363,47347,2,0,P|221:369|272:356,1,100,8|0,0:0|0:0,0:0:0:0:
487,193,47665,2,0,P|435:183|287:202,1,200,0|0,0:0|0:0,0:0:0:0:
483,52,48141,1,4,0:2:0:0:
339,286,48458,1,4,0:2:0:0:
183,82,48776,5,0,0:0:0:0:
183,82,48935,1,0,0:0:0:0:
120,160,49093,2,0,P|114:206|126:313,1,150.000005722046,0|0,0:0|0:0,0:0:0:0:
294,184,49728,2,0,P|300:138|288:31,1,150.000005722046,8|0,0:2|0:0,0:0:0:0:
464,76,50363,5,4,0:0:0:0:
499,190,50681,1,0,0:0:0:0:
463,304,50998,1,8,0:2:0:0:
358,364,51316,1,0,0:0:0:0:
238,375,51633,2,0,P|228:327|237:223,1,150.000005722046,4|0,0:0|0:0,0:0:0:0:
360,92,52268,5,8,0:2:0:0:
275,123,52427,1,0,0:0:0:0:
185,112,52585,1,0,0:0:0:0:
110,61,52744,2,0,L|88:215,1,150.000005722046,4|0,0:0|0:0,0:0:0:0:
53,292,53220,2,0,P|93:303|210:293,1,150.000005722046,0|8,0:0|0:2,0:0:0:0:
438,334,53855,5,8,0:2:0:0:
355,370,54014,1,0,0:0:0:0:
438,334,54173,2,0,L|445:183,1,150.000005722046,4|0,0:0|0:0,0:0:0:0:
212,72,54808,5,4,0:2:0:0:
279,130,54966,1,0,0:0:0:0:
381,30,55125,1,4,0:2:0:0:
103,179,55443,5,4,0:2:0:0:
356,273,55601,1,4,0:2:0:0:
48,378,55919,6,0,P|23:330|10:182,1,200,4|0,0:2|0:0,0:0:0:0:
87,72,56395,1,0,0:0:0:0:
201,141,56554,6,0,L|409:118,1,200,4|0,0:0|0:0,0:0:0:0:
344,11,57030,1,8,0:0:0:0:
313,229,57189,1,0,0:0:0:0:
225,30,57347,1,0,0:0:0:0:
194,248,57506,1,0,0:0:0:0:
326,339,57665,1,8,0:0:0:0:
484,235,57823,5,0,0:0:0:0:
484,235,57903,1,0,0:0:0:0:
484,235,57982,2,4,L|494:132,1,100,4|4,0:0|0:0,0:0:0:0:
264,66,58300,2,0,L|254:169,1,100,8|0,0:0|0:0,0:0:0:0:
399,364,58617,2,0,L|409:261,1,100,4|0,0:0|0:0,0:0:0:0:
143,131,58935,5,8,0:0:0:0:
350,150,59093,1,8,0:0:0:0:
85,276,59252,1,4,0:2:0:0:
246,23,59569,5,0,0:0:0:0:
158,215,59727,1,0,0:0:0:0:
326,371,59886,1,4,0:2:0:0:
474,183,60204,5,0,0:0:0:0:
270,125,60363,1,0,0:0:0:0:
160,337,60522,1,4,0:2:0:0:
59,74,60839,5,0,0:0:0:0:
392,216,60998,1,4,0:2:0:0:
61,286,61474,5,0,0:0:0:0:
254,217,61633,1,8,0:0:0:0:
102,164,61792,1,0,0:0:0:0:
102,164,61950,1,8,0:0:0:0:
207,303,62109,1,0,0:0:0:0:
332,115,62268,1,8,0:0:0:0:
350,331,62427,1,0,0:0:0:0:
350,331,62585,1,8,0:0:0:0:
472,208,62744,5,0,0:0:0:0:
272,28,62903,2,0,L|247:140,1,100,8|0,0:0|0:0,0:0:0:0:
409,66,63220,1,8,0:0:0:0:
159,117,63379,1,0,0:0:0:0:
399,263,63538,2,0,L|382:159,1,100,8|0,0:0|0:0,0:0:0:0:
157,219,63855,1,8,0:0:0:0:
296,259,64014,1,0,0:0:0:0:
77,364,64173,6,0,L|82:257,1,100,8|0,0:0|0:0,0:0:0:0:
274,112,64490,1,8,0:0:0:0:
211,312,64649,1,0,0:0:0:0:
20,219,64808,2,0,L|25:112,1,100,8|0,0:0|0:0,0:0:0:0:
257,187,65125,5,8,0:0:0:0:
122,118,65284,1,0,0:0:0:0:
359,27,65443,2,0,L|368:131,1,100,8|0,0:0|0:0,0:0:0:0:
192,60,65760,1,8,0:0:0:0:
147,256,65919,1,0,0:0:0:0:
341,254,66077,2,0,L|328:371,1,100,8|4,0:0|0:0,0:0:0:0:
502,276,66395,5,8,0:0:0:0:
449,41,66554,1,8,0:0:0:0:
506,157,66712,2,0,P|435:173|298:154,1,200,4|0,0:0|0:0,0:0:0:0:
92,31,67189,6,0,P|96:97|115:138,1,100,4|0,0:2|0:0,0:0:0:0:
183,369,67506,2,0,P|232:336|258:296,1,100,4|0,0:2|0:0,0:0:0:0:
5,244,67823,2,0,P|63:260|108:260,1,100,4|0,0:2|0:0,0:0:0:0:
420,202,68141,5,4,0:2:0:0:
172,157,68300,1,4,0:2:0:0:
370,358,68617,5,4,0:2:0:0:
502,125,68935,1,4,0:2:0:0:
268,16,69252,2,0,P|253:72|261:215,1,200,4|0,0:2|0:0,0:0:0:0:
55,264,69728,5,8,0:0:0:0:
179,354,69887,1,0,0:0:0:0:
454,216,70046,1,0,0:0:0:0:
304,271,70204,1,0,0:0:0:0:
94,85,70363,1,8,0:0:0:0:
220,169,70522,5,0,0:0:0:0:
278,155,70601,1,0,0:0:0:0:
318,109,70681,1,4,0:2:0:0:
40,146,70839,1,0,0:0:0:0:
159,24,70998,1,0,0:0:0:0:
40,146,71157,2,0,L|22:351,1,200,4|8,0:2|0:0,0:0:0:0:
179,264,71633,5,0,0:0:0:0:
406,198,71792,1,8,0:0:0:0:
237,359,71950,1,0,0:0:0:0:
406,312,72109,1,8,0:0:0:0:
222,75,72268,1,0,0:0:0:0:
267,283,72427,1,8,0:0:0:0:
112,152,72585,1,0,0:0:0:0:
140,285,72744,1,8,0:0:0:0:
316,122,72903,5,0,0:0:0:0:
492,255,73062,1,8,0:0:0:0:
303,232,73220,1,0,0:0:0:0:
508,144,73379,1,8,0:0:0:0:
316,122,73538,1,0,0:0:0:0:
408,300,73696,1,8,0:0:0:0:
202,373,73855,2,0,P|182:308|184:268,1,100,0|8,0:0|0:0,0:0:0:0:
244,51,74173,5,0,0:0:0:0:
2,171,74331,1,8,0:0:0:0:
148,202,74490,1,0,0:0:0:0:
37,74,74649,1,8,0:0:0:0:
81,278,74808,1,0,0:0:0:0:
235,143,74966,1,8,0:0:0:0:
103,125,75125,1,0,0:0:0:0:
324,99,75284,5,8,0:0:0:0:
261,235,75443,1,0,0:0:0:0:
498,143,75601,1,8,0:0:0:0:
376,18,75760,1,0,0:0:0:0:
332,186,75919,1,8,0:0:0:0:
176,199,76077,1,0,0:0:0:0:
132,367,76236,1,8,0:0:0:0:
294,303,76395,5,4,0:0:0:0:
72,225,76554,1,8,0:0:0:0:
171,302,76712,1,8,0:0:0:0:
71,97,76871,2,0,P|131:83|274:97,1,200,4|0,0:0|0:0,0:0:0:0:
461,180,77347,5,4,0:2:0:0:
493,64,77506,1,0,0:0:0:0:
353,251,77665,1,4,0:2:0:0:
381,367,77823,1,0,0:0:0:0:
248,175,77982,1,4,0:2:0:0:
284,60,78141,1,0,0:0:0:0:
461,282,78300,5,4,0:2:0:0:
180,316,78458,2,0,P|125:307|84:284,1,100,4|0,0:2|0:0,0:0:0:0:
146,1,78776,2,0,L|164:204,1,200,4|0,0:2|0:0,0:0:0:0:
163,200,79252,1,8,0:0:0:0:
285,375,79411,6,0,P|297:321|290:274,1,100,4|0,0:2|0:0,0:0:0:0:
423,137,79728,1,8,0:0:0:0:
236,134,79887,1,8,0:0:0:0:
506,83,80046,2,0,P|518:137|511:184,1,100,4|0,0:2|0:0,0:0:0:0:
339,21,80363,5,0,0:0:0:0:
317,77,80443,1,0,0:0:0:0:
322,136,80522,1,8,0:0:0:0:
373,278,80681,2,0,P|302:297|170:282,1,200,4|0,0:2|0:0,0:0:0:0:
13,184,81157,1,8,0:0:0:0:
111,367,81316,1,0,0:0:0:0:
220,193,81474,1,0,0:0:0:0:
122,10,81633,5,8,0:0:0:0:
92,61,81712,1,8,0:0:0:0:
83,120,81792,1,8,0:0:0:0:
95,178,81871,1,0,0:0:0:0:
134,222,81950,6,0,L|256:212,1,100,4|0,0:0|0:0,0:0:0:0:
458,181,82268,1,8,0:0:0:0:
277,131,82427,1,8,0:0:0:0:
501,303,82585,2,0,L|379:293,1,100,4|0,0:0|0:0,0:0:0:0:
372,118,82903,1,8,0:0:0:0:
329,361,83062,1,8,0:0:0:0:
204,83,83220,2,0,P|183:148|187:279,1,200,4|0,0:0|0:0,0:0:0:0:
382,199,83696,5,4,0:0:0:0:
45,251,84014,1,4,0:0:0:0:
211,364,84331,1,0,0:0:0:0:
320,121,84649,5,4,0:0:0:0:
300,289,84808,1,0,0:0:0:0:
470,97,84966,1,8,0:0:0:0:
450,265,85125,1,0,0:0:0:0:
282,11,85284,1,0,0:0:0:0:
152,196,85443,1,8,0:0:0:0:
411,190,85601,1,8,0:0:0:0:
272,371,85760,1,0,0:0:0:0:
68,281,85919,5,0,0:0:0:0:
219,282,86077,1,0,0:0:0:0:
48,68,86236,1,8,0:0:0:0:
5,201,86395,1,0,0:0:0:0:
222,120,86554,1,0,0:0:0:0:
308,253,86712,1,0,0:0:0:0:
151,359,86871,1,8,0:0:0:0:
230,204,87030,5,0,0:0:0:0:
230,204,87109,1,0,0:0:0:0:
230,204,87189,1,4,0:0:0:0:
404,314,87347,1,0,0:0:0:0:
495,103,87506,1,8,0:0:0:0:
304,152,87665,1,0,0:0:0:0:
448,23,87823,1,0,0:0:0:0:
320,268,87982,1,8,0:0:0:0:
236,73,88141,1,8,0:0:0:0:
108,318,88300,1,0,0:0:0:0:
483,384,88458,6,0,P|502:340|502:285,1,100,4|0,0:2|0:0,0:0:0:0:
161,3,88776,2,0,P|142:47|142:102,1,100,4|0,0:2|0:0,0:0:0:0:
502,288,89093,2,0,L|477:191,1,100,4|0,0:2|0:0,0:0:0:0:
141,98,89411,2,0,L|166:195,1,100,4|0,0:2|0:0,0:0:0:0:
320,90,89728,5,4,0:0:0:0:
59,188,89887,1,0,0:0:0:0:
328,221,90046,1,8,0:0:0:0:
127,291,90204,1,0,0:0:0:0:
374,365,90363,1,0,0:0:0:0:
189,242,90522,1,8,0:0:0:0:
421,140,90681,1,8,0:0:0:0:
236,17,90840,1,0,0:0:0:0:
249,187,90998,5,0,0:0:0:0:
91,99,91157,1,0,0:0:0:0:
15,269,91316,1,8,0:0:0:0:
91,99,91474,1,0,0:0:0:0:
300,89,91633,1,0,0:0:0:0:
360,262,91792,1,0,0:0:0:0:
205,364,91950,1,8,0:0:0:0:
156,189,92109,5,0,0:0:0:0:
156,189,92189,1,0,0:0:0:0:
156,189,92268,1,4,0:0:0:0:
278,306,92427,1,0,0:0:0:0:
454,83,92585,1,8,0:0:0:0:
307,189,92744,1,0,0:0:0:0:
489,288,92903,1,0,0:0:0:0:
384,134,93062,1,8,0:0:0:0:
193,274,93220,1,8,0:0:0:0:
88,120,93379,1,0,0:0:0:0:
323,32,93538,5,4,0:0:0:0:
5,128,93696,1,0,0:0:0:0:
198,21,93855,2,0,P|216:77|213:222,1,200,8|4,0:0|0:1,0:0:0:0:
496,200,94808,5,4,0:2:0:0:
203,162,95601,1,0,0:0:0:0:
245,298,95919,5,4,0:2:0:0:
383,359,96236,1,4,0:2:0:0:
383,359,96395,1,4,0:2:0:0:
512,292,96712,5,4,0:2:0:0:
387,167,96871,2,0,L|403:275,1,100,8|8,0:0|0:0,0:0:0:0:
490,60,97189,1,4,0:0:0:0:
197,136,97506,6,0,L|181:244,1,100,0|8,0:0|0:0,0:0:0:0:
94,29,97824,1,4,0:0:0:0:
278,364,98141,5,0,0:0:0:0:
101,271,98300,1,8,0:0:0:0:
306,169,98458,2,0,P|360:168|496:96,1,200,4|0,0:0|0:0,0:0:0:0:
358,272,98935,5,0,0:0:0:0:
251,35,99252,1,8,0:0:0:0:
41,188,99569,1,0,0:0:0:0:
203,233,99887,5,4,0:2:0:0:
488,134,100998,1,4,0:2:0:0:
339,366,101316,5,4,0:2:0:0:
286,257,101475,1,4,0:2:0:0:
429,23,101792,5,4,0:2:0:0:
429,23,101950,1,0,0:0:0:0:
259,114,102109,1,8,0:0:0:0:
398,171,102268,1,8,0:0:0:0:
203,326,102427,6,0,P|182:267|185:223,1,100,4|0,0:0|0:0,0:0:0:0:
37,252,102744,2,0,P|43:195|64:149,1,100,8|0,0:0|0:0,0:0:0:0:
353,27,103062,1,0,0:0:0:0:
125,85,103220,1,8,0:0:0:0:
321,177,103379,1,0,0:0:0:0:
216,15,103538,2,0,L|224:222,1,200,0|0,0:0|0:0,0:0:0:0:
309,342,104014,2,0,P|368:351|506:320,1,200,4|4,0:2|0:2,0:0:0:0:
101,274,104649,5,0,0:0:0:0:
101,274,104808,1,0,0:0:0:0:
191,310,104966,2,0,P|204:264|200:158,1,150.000005722046,0|0,0:0|0:0,0:0:0:0:
44,62,105443,1,0,0:0:0:0:
44,62,105601,2,0,P|31:108|35:214,1,150.000005722046,8|0,0:2|0:0,0:0:0:0:
287,44,106236,5,4,0:0:0:0:
410,72,106554,1,0,0:0:0:0:
494,167,106871,1,8,0:2:0:0:
486,290,107189,1,0,0:0:0:0:
379,366,107506,2,0,P|363:320|374:217,1,150.000005722046,4|0,0:0|0:0,0:0:0:0:
175,112,108141,5,8,0:2:0:0:
176,118,108300,1,0,0:0:0:0:
177,124,108458,1,0,0:0:0:0:
179,130,108617,2,0,L|183:290,1,150.000005722046,4|0,0:0|0:0,0:0:0:0:
133,368,109093,2,0,P|181:377|283:361,1,150.000005722046,0|8,0:0|0:2,0:0:0:0:
36,294,109728,5,8,0:2:0:0:
5,189,109887,1,0,0:0:0:0:
78,95,110046,2,0,P|128:89|228:108,1,150.000005722046,4|0,0:0|0:0,0:0:0:0:
497,77,110681,5,4,0:2:0:0:
279,177,110839,1,0,0:0:0:0:
478,233,110998,1,4,0:2:0:0:
200,316,111316,5,4,0:2:0:0:
357,35,111474,1,4,0:2:0:0:
35,213,111792,5,4,0:2:0:0:
332,369,112109,6,0,P|354:315|357:266,1,100,0|8,0:0|0:0,0:0:0:0:
197,36,112427,2,0,P|184:96|203:240,1,200,4|0,0:0|0:0,0:0:0:0:
454,161,112903,1,8,0:0:0:0:
311,175,113062,1,0,0:0:0:0:
495,66,113220,1,0,0:0:0:0:
265,272,113379,1,0,0:0:0:0:
285,95,113538,1,8,0:0:0:0:
479,235,113696,1,0,0:0:0:0:
235,372,113855,6,0,P|186:340|162:297,1,100,4|4,0:0|0:0,0:0:0:0:
419,132,114173,2,0,P|422:190|413:235,1,100,8|0,0:0|0:0,0:0:0:0:
181,78,114490,2,0,P|205:26|241:1,1,100,4|0,0:0|0:0,0:0:0:0:
12,121,114808,5,8,0:0:0:0:
241,186,114966,1,8,0:0:0:0:
17,264,115125,1,4,0:2:0:0:
363,358,115443,5,0,0:0:0:0:
169,237,115601,1,0,0:0:0:0:
298,51,115760,1,4,0:2:0:0:
491,239,116077,5,0,0:0:0:0:
314,134,116236,1,0,0:0:0:0:
205,348,116395,1,4,0:2:0:0:
120,29,116712,5,0,0:0:0:0:
387,241,116871,1,4,0:2:0:0:
42,351,117347,5,0,0:0:0:0:
97,140,117506,1,8,0:0:0:0:
0,231,117665,1,0,0:0:0:0:
136,262,117823,1,8,0:0:0:0:
271,42,117982,1,0,0:0:0:0:
326,253,118141,1,8,0:0:0:0:
229,162,118300,1,0,0:0:0:0:
365,131,118458,1,8,0:0:0:0:
286,366,118617,5,0,0:0:0:0:
486,220,118776,1,8,0:0:0:0:
506,352,118935,1,0,0:0:0:0:
233,274,119093,1,8,0:0:0:0:
364,336,119252,1,0,0:0:0:0:
162,206,119411,2,0,L|167:93,1,100,8|0,0:0|0:0,0:0:0:0:
369,33,119728,1,8,0:0:0:0:
285,136,119887,5,0,0:0:0:0:
66,57,120046,1,8,0:0:0:0:
105,282,120204,1,0,0:0:0:0:
39,148,120363,1,8,0:0:0:0:
85,374,120522,1,0,0:0:0:0:
248,263,120681,2,0,L|349:260,1,100,8|0,0:0|0:0,0:0:0:0:
503,165,120998,1,8,0:0:0:0:
337,356,121157,1,0,0:0:0:0:
406,71,121316,6,0,L|406:186,1,100,8|0,0:0|0:0,0:0:0:0:
248,140,121633,1,8,0:0:0:0:
173,339,121792,1,0,0:0:0:0:
54,212,121950,2,0,L|157:204,1,100,8|4,0:0|0:0,0:0:0:0:
335,116,122268,5,8,0:0:0:0:
199,27,122427,1,8,0:0:0:0:
68,140,122585,2,0,P|59:199|84:337,1,200,4|0,0:0|0:0,0:0:0:0:
342,257,123062,6,0,L|237:247,1,100,4|0,0:2|0:0,0:0:0:0:
382,44,123379,2,0,L|487:54,1,100,4|0,0:2|0:0,0:0:0:0:
372,348,123696,2,0,L|267:338,1,100,4|0,0:2|0:0,0:0:0:0:
18,161,124014,5,4,0:2:0:0:
159,374,124173,1,4,0:2:0:0:
369,131,124490,5,4,0:2:0:0:
79,64,124808,1,4,0:2:0:0:
463,59,125125,2,0,P|477:119|465:268,1,200,4|0,0:2|0:0,0:0:0:0:
377,353,125601,6,0,L|276:348,1,100,8|0,0:0|0:0,0:0:0:0:
156,173,125919,2,0,L|257:178,1,100,0|0,0:0|0:0,0:0:0:0:
325,72,126236,1,8,0:0:0:0:
191,290,126395,5,0,0:0:0:0:
191,290,126474,1,0,0:0:0:0:
191,290,126554,1,4,0:2:0:0:
83,76,126712,2,0,P|51:124|39:179,1,100,0|0,0:0|0:0,0:0:0:0:
291,351,127030,2,0,P|307:296|293:147,1,200,4|8,0:2|0:0,0:0:0:0:
480,40,127506,5,0,0:0:0:0:
233,96,127665,1,8,0:0:0:0:
442,124,127823,1,0,0:0:0:0:
283,15,127982,1,8,0:0:0:0:
360,229,128141,1,0,0:0:0:0:
108,287,128300,1,8,0:0:0:0:
280,176,128458,1,0,0:0:0:0:
187,334,128617,1,8,0:0:0:0:
63,201,128776,5,0,0:0:0:0:
322,92,128935,1,8,0:0:0:0:
154,39,129093,1,0,0:0:0:0:
7,280,129252,1,8,0:0:0:0:
213,222,129411,1,0,0:0:0:0:
44,11,129569,2,0,P|37:62|43:112,1,100,8|0,0:0|0:0,0:0:0:0:
203,63,129887,1,8,0:0:0:0:
284,258,130046,5,0,0:0:0:0:
494,140,130204,1,8,0:0:0:0:
318,169,130363,1,0,0:0:0:0:
471,276,130522,1,8,0:0:0:0:
342,78,130681,1,0,0:0:0:0:
199,311,130839,1,8,0:0:0:0:
351,361,130998,1,0,0:0:0:0:
131,218,131157,1,8,0:0:0:0:
94,366,131316,1,0,0:0:0:0:
240,183,131474,6,0,P|209:132|172:106,1,100,8|0,0:0|0:0,0:0:0:0:
2,140,131792,1,8,0:0:0:0:
270,51,131950,1,0,0:0:0:0:
92,17,132109,2,0,L|85:127,1,100,8|4,0:0|0:0,0:0:0:0:
223,280,132427,5,8,0:0:0:0:
347,104,132585,1,8,0:0:0:0:
127,213,132744,2,0,P|112:269|179:386,1,200,4|0,0:0|0:0,0:0:0:0:
469,284,133220,5,4,0:2:0:0:
322,361,133379,1,0,0:0:0:0:
225,174,133538,1,4,0:2:0:0:
389,196,133696,1,0,0:0:0:0:
474,29,133855,1,4,0:2:0:0:
281,66,134014,1,0,0:0:0:0:
478,155,134173,5,4,0:2:0:0:
128,111,134331,2,0,P|111:173|115:216,1,100,4|0,0:2|0:0,0:0:0:0:
318,380,134649,2,0,P|333:325|319:178,1,200,4|0,0:2|0:0,0:0:0:0:
212,86,135125,1,0,0:0:0:0:
402,11,135284,6,0,L|420:119,1,100,4|0,0:2|0:0,0:0:0:0:
452,281,135601,1,8,0:0:0:0:
285,213,135760,1,8,0:0:0:0:
174,363,135919,2,0,L|68:358,1,100,4|0,0:2|0:0,0:0:0:0:
12,116,136236,1,0,0:0:0:0:
114,243,136395,1,8,0:0:0:0:
219,20,136554,6,0,L|201:223,1,200,4|0,0:2|0:0,0:0:0:0:
347,333,137030,2,0,P|393:296|413:256,1,100,8|0,0:0|0:0,0:0:0:0:
108,111,137347,1,0,0:0:0:0:
321,116,137506,1,8,0:0:0:0:
321,116,137585,1,8,0:0:0:0:
321,116,137665,1,8,0:0:0:0:
54,341,137823,6,0,P|19:303|3:252,1,100,4|0,0:0|0:0,0:0:0:0:
198,41,138141,1,8,0:0:0:0:
25,163,138300,1,8,0:0:0:0:
252,175,138458,1,4,0:0:0:0:
252,175,138538,1,0,0:0:0:0:
252,175,138617,1,0,0:0:0:0:
231,368,138776,1,8,0:0:0:0:
395,200,138935,1,8,0:0:0:0:
119,288,139093,2,0,P|172:294|311:240,1,200,4|0,0:0|0:0,0:0:0:0:
76,52,139569,5,8,0:0:0:0:
409,348,139887,1,8,0:0:0:0:
496,92,140204,1,0,0:0:0:0:
284,25,140522,6,0,P|268:78|282:251,1,225.000008583069
366,167,141157,2,0,L|190:183,1,150.000005722046,8|0,0:2|0:0,0:0:0:0:
47,53,141792,1,0,0:0:0:0:
47,53,141950,2,0,P|32:97|32:204,1,150.000005722046
77,290,142427,1,8,0:2:0:0:
245,364,142744,1,0,0:0:0:0:
410,291,143062,6,0,L|385:142,1,150.000005722046
231,49,143696,2,0,P|212:110|215:198,1,150.000005722046,8|0,0:2|0:0,0:0:0:0:
458,212,144331,5,0,0:0:0:0:
489,160,144411,1,0,0:0:0:0:
485,100,144490,1,0,0:0:0:0:
327,281,144649,5,8,0:0:0:0:
297,274,144728,1,0,0:0:0:0:
267,267,144808,1,0,0:0:0:0:
237,260,144887,1,0,0:0:0:0:
207,253,144966,5,0,0:0:0:0:
176,213,145046,1,8,0:0:0:0:
174,163,145125,1,0,0:0:0:0:
191,116,145204,1,0,0:0:0:0:
227,81,145284,1,8,0:0:0:0:
274,67,145363,1,8,0:0:0:0:
324,72,145443,1,8,0:0:0:0:
368,94,145522,1,8,0:0:0:0:
394,136,145601,5,4,0:0:0:0:
243,366,145760,1,0,0:0:0:0:
97,116,145919,1,8,0:0:0:0:
289,182,146077,1,0,0:0:0:0:
70,202,146236,1,8,0:0:0:0:
20,167,146316,1,0,0:0:0:0:
9,108,146395,1,8,0:0:0:0:
32,53,146474,1,0,0:0:0:0:
85,24,146554,2,0,L|202:11,1,100,8|0,0:0|0:0,0:0:0:0:
370,304,146871,5,4,0:0:0:0:
432,105,147030,1,0,0:0:0:0:
194,206,147189,1,8,0:0:0:0:
435,205,147347,1,0,0:0:0:0:
229,120,147506,1,8,0:0:0:0:
279,155,147586,1,0,0:0:0:0:
290,214,147665,1,8,0:0:0:0:
267,269,147744,1,0,0:0:0:0:
214,298,147824,2,0,L|97:311,1,100,8|0,0:0|0:0,0:0:0:0:
4,176,148141,5,4,0:0:0:0:
78,372,148300,1,8,0:0:0:0:
134,69,148458,1,4,0:0:0:0:
51,266,148617,1,8,0:0:0:0:
293,49,148776,1,4,0:0:0:0:
104,167,148935,1,8,0:0:0:0:
450,97,149093,1,4,0:0:0:0:
216,116,149252,1,8,0:0:0:0:
495,364,149411,6,0,L|497:298,1,50,4|0,0:2|0:0,0:0:0:0:
500,214,149569,1,0,0:0:0:0:
386,315,149728,2,0,L|367:247,1,50,4|0,0:2|0:0,0:0:0:0:
325,155,149887,1,0,0:0:0:0:
250,307,150046,2,0,L|215:253,1,50,4|0,0:0|0:0,0:0:0:0:
155,165,150204,1,0,0:0:0:0:
134,357,150363,2,0,L|90:326,1,50,4|0,0:0|0:0,0:0:0:0:
0,260,150522,1,0,0:0:0:0:
253,38,150681,5,4,0:0:0:0:
110,251,150839,1,0,0:0:0:0:
75,74,150998,1,8,0:0:0:0:
288,217,151156,1,0,0:0:0:0:
482,49,151316,1,8,0:0:0:0:
512,100,151395,1,0,0:0:0:0:
511,159,151474,1,8,0:0:0:0:
481,211,151554,1,0,0:0:0:0:
425,231,151633,2,0,L|411:343,1,100,8|0,0:0|0:0,0:0:0:0:
288,140,151950,5,4,0:0:0:0:
502,296,152109,1,0,0:0:0:0:
407,126,152268,1,8,0:0:0:0:
244,326,152427,1,0,0:0:0:0:
302,38,152585,1,8,0:0:0:0:
242,46,152665,1,0,0:0:0:0:
197,86,152744,1,8,0:0:0:0:
185,144,152823,1,0,0:0:0:0:
200,202,152903,2,0,L|93:191,1,100,8|0,0:0|0:0,0:0:0:0:
351,189,153220,5,4,0:0:0:0:
314,363,153379,1,8,0:0:0:0:
494,155,153538,1,4,0:0:0:0:
457,329,153697,1,8,0:0:0:0:
161,189,153855,1,4,0:0:0:0:
198,363,154014,1,8,0:0:0:0:
18,155,154173,1,4,0:0:0:0:
55,329,154332,1,8,0:0:0:0:
229,69,154490,6,0,P|174:51|126:54,1,100,4|0,0:0|0:0,0:0:0:0:
369,19,154808,1,8,0:0:0:0:
401,69,154887,1,0,0:0:0:0:
407,128,154966,1,0,0:0:0:0:
389,186,155046,1,0,0:0:0:0:
346,227,155125,5,0,0:0:0:0:
500,154,155284,1,8,0:0:0:0:
237,261,155443,1,0,0:0:0:0:
466,351,155601,1,8,0:0:0:0:
275,115,155760,1,4,0:2:0:0:
83,355,156077,5,0,0:0:0:0:
210,177,156236,1,0,0:0:0:0:
24,42,156395,1,4,0:2:0:0:
381,307,156712,5,0,0:0:0:0:
114,190,156871,1,0,0:0:0:0:
366,38,157030,1,4,0:2:0:0:
144,28,157347,5,0,0:0:0:0:
202,357,157506,1,4,0:2:0:0:
483,217,157982,5,0,0:0:0:0:
283,156,158141,1,4,0:2:0:0:
470,307,158617,5,0,0:0:0:0:
297,69,158776,1,4,0:2:0:0:
499,128,159252,5,0,0:0:0:0:
265,244,159411,2,0,L|164:254,1,100,4|0,0:2|0:0,0:0:0:0:
10,199,159728,5,0,0:0:0:0:
119,370,159887,1,0,0:0:0:0:
202,107,160046,1,4,0:2:0:0:
360,312,160522,5,0,0:0:0:0:
124,176,160681,1,4,0:2:0:0:
368,28,160998,5,0,0:0:0:0:
488,196,161157,1,0,0:0:0:0:
300,368,161316,1,4,0:2:0:0:
24,264,161633,5,0,0:0:0:0:
139,40,161792,1,0,0:0:0:0:
332,196,161950,1,4,0:2:0:0:
448,88,162268,5,0,0:0:0:0:
244,152,162427,1,0,0:0:0:0:
484,320,162585,1,4,0:2:0:0:
276,40,162903,5,8,0:0:0:0:
276,40,162982,1,0,0:0:0:0:
276,40,163062,1,8,0:0:0:0:
235,259,163220,2,0,P|175:263|39:219,1,200,4|0,0:0|0:0,0:0:0:0:
342,206,163696,6,0,P|348:259|343:308,1,100,4|0,0:2|0:0,0:0:0:0:
152,77,164014,2,0,P|135:127|132:176,1,100,4|0,0:2|0:0,0:0:0:0:
437,131,164331,2,0,P|457:182|461:229,1,100,4|0,0:2|0:0,0:0:0:0:
248,364,164649,5,4,0:2:0:0:
338,53,164808,1,4,0:2:0:0:
479,309,165125,5,4,0:2:0:0:
167,171,165443,1,4,0:2:0:0:
371,355,165760,2,0,P|388:300|371:151,1,200,4|0,0:2|0:0,0:0:0:0:
225,4,166236,6,0,P|215:57|224:111,1,100,8|0,0:0|0:0,0:0:0:0:
496,86,166554,2,0,P|447:73|392:73,1,100,0|0,0:0|0:0,0:0:0:0:
28,287,166871,2,0,P|77:300|132:300,1,100,8|0,0:0|0:0,0:0:0:0:
96,89,167189,5,4,0:2:0:0:
343,214,167347,1,0,0:0:0:0:
200,358,167506,1,0,0:0:0:0:
450,163,167665,2,0,P|465:220|448:367,1,200,4|8,0:2|0:0,0:0:0:0:
268,39,168141,5,0,0:0:0:0:
251,282,168300,1,8,0:0:0:0:
139,234,168458,1,0,0:0:0:0:
359,323,168617,1,8,0:0:0:0:
163,91,168776,1,0,0:0:0:0:
146,334,168935,1,8,0:0:0:0:
34,286,169093,1,0,0:0:0:0:
254,375,169252,1,8,0:0:0:0:
494,120,169411,5,0,0:0:0:0:
226,194,169569,1,8,0:0:0:0:
457,264,169728,1,0,0:0:0:0:
226,32,169887,1,8,0:0:0:0:
345,256,170046,1,0,0:0:0:0:
423,55,170204,1,8,0:0:0:0:
126,139,170363,1,0,0:0:0:0:
127,305,170522,1,8,0:0:0:0:
286,358,170681,5,0,0:0:0:0:
12,233,170839,1,8,0:0:0:0:
201,205,170998,1,0,0:0:0:0:
70,372,171157,1,8,0:0:0:0:
31,85,171316,1,0,0:0:0:0:
273,158,171474,2,0,L|384:156,1,100,8|0,0:0|0:0,0:0:0:0:
468,351,171792,5,8,0:0:0:0:
502,135,171950,1,0,0:0:0:0:
232,16,172109,2,0,P|207:66|204:122,1,100,8|0,0:0|0:0,0:0:0:0:
333,294,172427,1,8,0:0:0:0:
383,105,172585,1,0,0:0:0:0:
73,139,172744,2,0,P|95:189|138:227,1,100,8|4,0:0|0:0,0:0:0:0:
327,181,173062,5,8,0:0:0:0:
127,357,173220,1,8,0:0:0:0:
249,101,173379,2,0,P|297:78|427:125,1,200,4|0,0:0|0:0,0:0:0:0:
501,346,173855,6,0,L|392:360,1,100,4|0,0:2|0:0,0:0:0:0:
78,252,174173,2,0,L|187:238,1,100,4|0,0:2|0:0,0:0:0:0:
444,58,174490,2,0,L|335:72,1,100,4|0,0:2|0:0,0:0:0:0:
125,19,174808,5,4,0:2:0:0:
27,329,174966,1,4,0:2:0:0:
390,371,175284,6,0,P|410:310|396:168,1,200,4|0,0:2|0:0,0:0:0:0:
25,166,175919,6,0,L|132:151,1,100,4|0,0:2|0:0,0:0:0:0:
351,111,176236,1,0,0:0:0:0:
152,278,176395,1,0,0:0:0:0:
250,13,176554,2,0,L|243:130,1,100,4|0,0:2|0:0,0:0:0:0:
223,364,176871,1,0,0:0:0:0:
371,225,177030,1,0,0:0:0:0:
93,55,177189,6,0,P|67:114|62:249,1,200,4|0,0:2|0:0,0:0:0:0:
272,246,177665,2,0,P|295:296|332:324,1,100,8|0,0:0|0:0,0:0:0:0:
443,65,177982,1,0,0:0:0:0:
497,221,178141,5,8,0:0:0:0:
489,280,178220,1,8,0:0:0:0:
452,328,178300,1,8,0:0:0:0:
396,350,178379,1,0,0:0:0:0:
336,352,178458,6,0,L|224:351,1,100,4|0,0:0|0:0,0:0:0:0:
15,156,178776,1,8,0:0:0:0:
88,341,178935,1,8,0:0:0:0:
304,129,179093,2,0,L|294:18,1,100,4|0,0:0|0:0,0:0:0:0:
131,116,179411,1,8,0:0:0:0:
452,72,179569,1,8,0:0:0:0:
208,258,179728,2,0,P|155:270|15:229,1,200,4|0,0:0|0:0,0:0:0:0:
406,160,180204,5,8,0:0:0:0:
485,351,180522,1,8,0:0:0:0:
270,324,180839,1,0,0:0:0:0:
464,51,181157,5,4,0:0:0:0:
413,262,181316,1,0,0:0:0:0:
260,69,181474,1,8,0:0:0:0:
209,280,181633,1,0,0:0:0:0:
387,367,181792,1,0,0:0:0:0:
146,216,181950,1,8,0:0:0:0:
412,172,182109,1,8,0:0:0:0:
171,21,182267,1,0,0:0:0:0:
52,273,182427,5,0,0:0:0:0:
264,195,182585,1,0,0:0:0:0:
84,125,182744,1,8,0:0:0:0:
12,345,182903,1,0,0:0:0:0:
200,123,183062,1,0,0:0:0:0:
341,225,183220,1,0,0:0:0:0:
256,369,183379,1,8,0:0:0:0:
287,58,183696,5,4,0:0:0:0:
184,250,183855,1,0,0:0:0:0:
115,40,184014,1,8,0:0:0:0:
8,233,184173,1,0,0:0:0:0:
148,115,184331,1,0,0:0:0:0:
280,295,184490,1,8,0:0:0:0:
374,122,184649,1,8,0:0:0:0:
506,302,184808,1,0,0:0:0:0:
166,367,184966,6,0,P|111:343|79:312,1,100,4|0,0:2|0:0,0:0:0:0:
391,9,185284,2,0,P|446:33|478:64,1,100,4|0,0:2|0:0,0:0:0:0:
82,316,185601,2,0,L|71:211,1,100,4|0,0:2|0:0,0:0:0:0:
475,60,185919,2,0,L|486:165,1,100,4|0,0:2|0:0,0:0:0:0:
187,91,186236,5,4,0:0:0:0:
393,269,186395,1,0,0:0:0:0:
382,78,186554,1,8,0:0:0:0:
195,280,186712,1,0,0:0:0:0:
281,25,186871,1,0,0:0:0:0:
260,233,187030,1,8,0:0:0:0:
75,140,187189,1,8,0:0:0:0:
54,348,187348,1,0,0:0:0:0:
319,340,187506,5,0,0:0:0:0:
115,213,187665,1,0,0:0:0:0:
335,176,187823,1,8,0:0:0:0:
179,357,187982,1,0,0:0:0:0:
268,111,188141,1,0,0:0:0:0:
469,199,188300,1,0,0:0:0:0:
288,264,188458,1,8,0:0:0:0:
448,80,188617,5,0,0:0:0:0:
448,80,188696,1,0,0:0:0:0:
448,80,188776,1,4,0:0:0:0:
410,299,188935,1,0,0:0:0:0:
186,153,189093,1,8,0:0:0:0:
257,357,189252,1,0,0:0:0:0:
355,146,189411,1,0,0:0:0:0:
112,258,189569,1,8,0:0:0:0:
245,21,189728,1,8,0:0:0:0:
2,133,189886,1,0,0:0:0:0:
354,235,190046,5,4,0:0:0:0:
17,306,190204,1,0,0:0:0:0:
246,169,190363,2,0,P|256:268|232:365,1,200,8|4,0:0|0:0,0:0:0:0:
105,280,190839,1,8,0:0:0:0:
130,136,190998,1,8,0:0:0:0:
242,41,191157,1,8,0:0:0:0:
484,198,191316,5,4,0:0:0:0:
473,139,191395,1,0,0:0:0:0:
462,80,191474,1,0,0:0:0:0:
512,331,191633,1,8,0:0:0:0:
331,224,191792,5,4,0:0:0:0:
328,164,191871,1,0,0:0:0:0:
326,104,191950,1,0,0:0:0:0:
336,365,192109,1,8,0:0:0:0:
181,224,192268,5,4,0:0:0:0:
184,164,192347,1,0,0:0:0:0:
186,104,192426,1,0,0:0:0:0:
176,365,192585,1,8,0:0:0:0:
28,198,192744,5,4,0:0:0:0:
39,139,192823,1,0,0:0:0:0:
50,80,192902,1,0,0:0:0:0:
0,331,193061,1,8,0:0:0:0:
428,321,193220,6,0,P|473:298|510:252,1,100,4|0,0:0|0:0,0:0:0:0:
171,6,193538,2,0,P|125:28|89:75,1,100,4|0,0:0|0:0,0:0:0:0:
297,162,193855,1,4,0:0:0:0:
256,192,193935,12,2,195125,2:2:0:0:
