osu file format v14

[General]
AudioFilename: Hatsune Miku - SPiCa ReACT Trance Remix.mp3
AudioLeadIn: 0
PreviewTime: -1
Countdown: 0
SampleSet: None
StackLeniency: 0.7
Mode: 0
LetterboxInBreaks: 1
WidescreenStoryboard: 0

[Editor]
DistanceSpacing: 0.8
BeatDivisor: 4
GridSize: 8
TimelineZoom: 1

[Metadata]
Title:SPiCa ReACT (Trance Remix)
TitleUnicode:SPiCa ReACT (Trance Remix)
Artist:TokuP
ArtistUnicode:とくP
Creator:Esti
Version:Catalyze 2014
Source:Vocaloid
Tags:Vocaloid Hatsune Miku
BeatmapID:2157166
BeatmapSetID:1031596

[Difficulty]
HPDrainRate:7
CircleSize:4
OverallDifficulty:8
ApproachRate:8
SliderMultiplier:1.4
SliderTickRate:1

[Events]
//Background and Video events
//Break Periods
2,221308,233714
2,268774,281385
//Storyboard Layer 0 (Background)
//Storyboard Layer 1 (Fail)
//Storyboard Layer 2 (Pass)
//Storyboard Layer 3 (Foreground)
//Storyboard Layer 4 (Overlay)
//Storyboard Sound Samples

[TimingPoints]
1040,410.958904109589,4,1,0,50,1,0
27341,-100,4,1,0,50,0,0
53642,-100,4,1,0,50,0,0
79944,-100,4,1,0,50,0,0
89807,-100,4,1,0,50,0,0
93094,-100,4,1,0,50,0,0
132546,-90.9090909090909,4,1,0,50,0,1
155560,-90.9090909090909,4,1,0,50,0,1
181861,-100,4,1,0,50,0,0
221313,-100,4,1,0,50,0,0
234464,-100,4,1,0,50,0,0
244327,-90.9090909090909,4,1,0,50,0,1
268985,-90.9090909090909,4,1,0,50,0,1
321587,-125,4,1,0,50,0,0
347889,-125,4,1,0,50,0,0
374190,-100,4,1,0,50,0,0

[Colours]
Combo1 : 255,0,128
Combo2 : 128,255,255
Combo3 : 128,128,255
Combo4 : 255,128,255

[HitObjects]
339,110,1040,5,0,0:0:0:0:
339,110,1656,2,0,P|306:133|266:137,2,70,0|0|0,0:0|0:0|0:0,0:0:0:0:
209,59,2478,2,0,P|177:128|196:204,1,140
187,188,3505,1,0,0:0:0:0:
187,188,3711,2,0,L|144:251,1,70
200,304,4122,5,0,0:0:0:0:
200,304,4327,2,0,P|301:273|410:308,1,210
423,208,5149,2,0,L|477:160,1,70
338,49,5766,2,0,P|186:59|80:215,1,350
86,232,7615,5,0,0:0:0:0:
275,234,8231,2,0,P|300:198|324:180,1,70,0|0,0:0|0:0,0:0:0:0:
336,174,8642,1,0,0:0:0:0:
436,251,9053,2,0,P|444:90|287:51,1,350
180,60,10903,6,0,P|153:163|66:254,1,210
151,298,11724,2,0,B|185:303|185:303|213:325,1,70
344,294,12341,1,0,0:0:0:0:
410,176,12752,1,0,0:0:0:0:
410,176,13163,2,0,P|388:117|369:93,1,70
313,90,13574,1,0,0:0:0:0:
264,148,13779,2,0,P|216:135|185:135,1,70
129,195,14190,6,0,P|109:112|146:60,1,140
214,56,14807,1,0,0:0:0:0:
214,56,15012,2,0,P|242:103|267:122,1,70
359,156,15629,1,0,0:0:0:0:
366,171,16656,5,0,0:0:0:0:
386,245,16861,2,0,P|370:283|370:314,2,70,0|0|0,0:0|0:0|0:0,0:0:0:0:
472,259,17478,2,0,P|451:184|394:159,1,140
323,173,18094,2,0,P|284:177|250:172,1,70
204,115,18505,1,0,0:0:0:0:
204,115,18916,6,0,P|110:134|151:338,1,350
292,258,20766,6,0,B|235:233|202:259|141:226,2,140,0|0|0,0:0|0:0|0:0,0:0:0:0:
350,305,21793,1,0,0:0:0:0:
350,305,22204,2,0,P|441:196|329:54,1,350
319,56,24053,5,0,0:0:0:0:
312,70,24670,2,0,P|273:106|250:121,1,70
202,62,25081,2,0,P|183:132|239:194,1,140
348,218,25903,6,0,L|412:179,1,70
404,287,26313,2,0,L|386:359,2,70,0|0|0,0:0|0:0|0:0,0:0:0:0:
305,290,26930,2,0,L|240:243,1,70
209,168,27341,6,0,P|251:101|252:38,1,140
105,164,28163,2,0,P|118:218|201:269,1,140
354,188,28985,2,0,P|316:254|298:316,1,140
111,317,29807,2,0,P|144:246|159:174,1,140
134,116,30423,1,0,0:0:0:0:
205,82,30629,6,0,B|250:71|250:71|291:45|291:45|343:34,1,140
394,90,31245,2,0,P|388:142|391:178,1,70
394,180,31656,1,0,0:0:0:0:
461,230,31861,2,0,P|388:265|328:237,1,140
181,271,32683,2,0,P|138:211|69:204,1,140
76,202,33505,5,0,0:0:0:0:
76,202,33916,2,0,P|115:135|159:79,1,140
232,75,34533,2,0,P|212:31|183:11,2,70,0|0|0,0:0|0:0|0:0,0:0:0:0:
191,161,35355,2,0,P|266:304|435:273,1,350
296,75,37204,6,0,B|203:104|214:182|105:189,1,210
115,109,38026,2,0,P|96:76|65:57,1,70
78,273,38642,1,0,0:0:0:0:
283,285,39053,1,0,0:0:0:0:
418,137,39464,2,0,P|427:96|443:63,1,70
348,159,39875,1,0,0:0:0:0:
331,254,40081,2,0,P|290:209|278:180,1,70
220,164,40492,6,0,P|182:153|82:162,1,140
171,292,41313,2,0,P|209:303|309:294,1,140
436,178,42135,1,0,0:0:0:0:
436,178,42546,1,0,0:0:0:0:
283,85,42957,2,0,P|289:160|282:224,1,140
215,266,43574,5,0,0:0:0:0:
131,314,43779,2,0,P|121:234|159:184,1,140
327,189,44601,2,0,P|400:193|456:157,1,140
260,121,45423,2,0,P|234:185|271:269,1,140
394,209,46245,2,0,L|312:187,1,70
398,108,46656,2,0,L|364:40,1,70
264,64,47067,6,0,P|199:111|129:137,1,140
66,176,47683,2,0,P|89:209|111:259,1,70
153,304,48094,2,0,P|211:289|246:288,1,70
293,187,48711,1,0,0:0:0:0:
293,187,49122,1,0,0:0:0:0:
293,187,49533,2,0,P|368:198|444:198,1,140
271,95,50355,6,0,P|210:144|203:219,1,140
304,297,51176,1,0,0:0:0:0:
444,255,51587,1,0,0:0:0:0:
381,112,51998,6,0,P|386:69|396:40,2,70,0|0|0,0:0|0:0|0:0,0:0:0:0:
293,132,52615,1,0,0:0:0:0:
240,207,52820,2,0,P|202:243|162:271,1,70,0|0,0:0|0:0,0:0:0:0:
282,300,53231,2,0,P|327:310|359:321,1,70
427,252,53642,5,0,0:0:0:0:
427,252,53848,1,0,0:0:0:0:
397,153,54259,2,0,P|388:110|391:71,1,70
277,58,54875,1,0,0:0:0:0:
277,58,55081,2,0,P|221:118|167:153,1,140
65,112,55903,2,0,P|54:162|100:242,1,140,0|0,0:0|0:0,0:0:0:0:
225,273,56724,6,0,P|280:273|301:278,1,70
320,286,57135,1,0,0:0:0:0:
364,126,57546,2,0,P|351:163|344:213,1,70
403,254,58163,1,0,0:0:0:0:
403,254,58368,2,0,P|351:244|257:282,1,140
123,283,59190,6,0,P|96:194|95:148,1,140
100,125,59807,1,0,0:0:0:0:
259,101,60218,2,0,P|296:111|332:116,1,70
488,134,60834,1,0,0:0:0:0:
488,134,61039,2,0,P|437:217|419:273,1,140
417,282,61656,1,0,0:0:0:0:
185,198,62272,6,0,P|263:161|270:103,1,140
177,52,63094,6,0,P|142:42|104:17,2,70,0|0|0,0:0|0:0|0:0,0:0:0:0:
114,119,63711,2,0,P|88:188|105:265,1,140
107,268,64327,1,0,0:0:0:0:
266,304,64738,1,0,0:0:0:0:
266,304,64944,1,0,0:0:0:0:
344,261,65149,6,0,P|363:229|388:203,1,70
309,155,65560,2,0,P|286:114|268:91,1,70
183,81,65971,1,0,0:0:0:0:
99,128,66176,1,0,0:0:0:0:
82,218,66382,2,0,P|99:253|106:290,1,70
199,305,66793,5,0,0:0:0:0:
199,305,66998,1,0,0:0:0:0:
370,271,67409,1,0,0:0:0:0:
370,271,67615,2,0,P|401:208|409:130,1,140
486,88,68231,2,0,P|419:46|347:71,1,140
176,117,69053,2,0,P|243:159|315:134,1,140
255,60,69875,5,0,0:0:0:0:
255,60,70081,2,0,L|235:148,1,70
96,242,70697,2,0,P|146:212|176:201,1,70
298,318,71313,1,0,0:0:0:0:
298,318,71519,2,0,P|367:273|372:201,1,140
444,151,72341,2,0,P|380:125|316:149,1,140
301,163,72957,1,0,0:0:0:0:
126,109,73368,6,0,P|156:56|166:34,1,70
301,163,73985,2,0,P|325:212|331:230,1,70
161,295,74601,1,0,0:0:0:0:
161,295,74807,1,0,0:0:0:0:
171,94,75423,2,0,P|245:100|286:149,1,140
197,188,76245,6,0,P|161:228|141:245,1,70
240,278,76656,2,0,P|277:281|315:289,1,70
445,175,77272,1,0,0:0:0:0:
445,175,77478,2,0,P|395:143|371:120,1,70
374,38,77889,2,0,P|328:64|296:78,1,70
211,92,78300,5,0,0:0:0:0:
211,92,78505,2,0,P|157:72|74:73,1,140
88,177,79122,2,0,P|101:222|106:265,1,70
107,274,79533,1,0,0:0:0:0:
270,307,79944,2,0,P|321:278|353:268,1,70
431,225,80355,2,0,P|434:280|446:325,1,70
331,274,80766,2,0,P|287:229|264:211,1,70
191,186,81176,5,0,0:0:0:0:
101,225,81382,1,0,0:0:0:0:
143,313,81587,2,0,P|189:313|222:318,1,70
311,218,81998,2,0,P|256:219|220:213,1,70
139,140,82409,2,0,P|123:71|163:8,1,140
247,87,83231,1,0,0:0:0:0:
247,87,83642,1,0,0:0:0:0:
247,87,84053,6,0,P|336:115|381:143,2,140,0|0|0,0:0|0:0|0:0,0:0:0:0:
82,137,85286,1,0,0:0:0:0:
152,293,85697,2,0,P|193:306|225:314,1,70
258,225,86108,2,0,P|290:203|321:178,1,70
423,161,86519,2,0,P|366:84|307:80,1,140
137,107,87341,6,0,P|78:147|67:216,1,140
77,243,87957,2,0,P|131:267|150:283,1,70
236,247,88368,2,0,P|280:230|329:223,1,70
407,240,88779,1,0,0:0:0:0:
376,138,88985,2,0,L|395:101,3,35,0|0|0|0,0:0|0:0|0:0|0:0,0:0:0:0:
338,131,89396,2,0,L|344:93,3,35,0|0|0|0,0:0|0:0|0:0|0:0,0:0:0:0:
318,141,89807,5,0,0:0:0:0:
299,146,89909,1,0,0:0:0:0:
277,148,90012,1,0,0:0:0:0:
256,143,90115,1,0,0:0:0:0:
235,135,90218,1,0,0:0:0:0:
218,123,90320,5,0,0:0:0:0:
201,109,90423,1,0,0:0:0:0:
182,97,90526,1,0,0:0:0:0:
161,90,90629,1,0,0:0:0:0:
140,93,90731,1,0,0:0:0:0:
120,102,90834,5,0,0:0:0:0:
106,118,90937,1,0,0:0:0:0:
98,138,91039,1,0,0:0:0:0:
95,158,91142,1,0,0:0:0:0:
101,179,91245,1,0,0:0:0:0:
111,197,91348,1,0,0:0:0:0:
125,214,91450,6,0,L|131:268,11,35,0|0|0|0|0|0|0|0|0|0|0|0,0:0|0:0|0:0|0:0|0:0|0:0|0:0|0:0|0:0|0:0|0:0|0:0,0:0:0:0:
338,199,93094,6,0,P|372:137|416:77,1,140
470,170,93711,2,0,B|489:204|489:204|494:245,1,70
415,290,94122,1,0,0:0:0:0:
308,289,94327,2,0,P|266:283|235:284,1,70
148,232,94738,1,0,0:0:0:0:
191,123,94944,1,0,0:0:0:0:
293,74,95149,2,0,P|330:104|359:120,1,70
466,122,95560,5,0,0:0:0:0:
404,219,95766,2,0,P|370:255|356:276,1,70
241,285,96176,1,0,0:0:0:0:
241,285,96279,1,0,0:0:0:0:
241,285,96382,2,0,P|174:259|153:184,1,140
187,103,96998,1,0,0:0:0:0:
187,103,97204,6,0,P|258:83|341:70,1,140
417,154,97820,2,0,P|448:106|451:70,1,70
303,171,98231,2,0,P|272:219|269:255,1,70
370,238,98642,1,0,0:0:0:0:
289,323,98848,1,0,0:0:0:0:
174,298,99053,1,0,0:0:0:0:
127,191,99259,2,0,P|116:152|103:118,1,70
147,45,99670,6,0,P|73:38|20:85,1,140,0|0,0:0|0:0,0:0:0:0:
105,124,100286,1,0,0:0:0:0:
159,207,100492,2,0,P|217:258|288:254,1,140
254,157,101108,1,0,0:0:0:0:
332,81,101313,2,0,P|353:53|373:19,2,70,0|0|0,0:0|0:0|0:0,0:0:0:0:
230,55,101930,5,0,0:0:0:0:
230,55,102033,1,0,0:0:0:0:
230,55,102135,1,0,0:0:0:0:
126,93,102341,1,0,0:0:0:0:
126,93,102444,1,0,0:0:0:0:
126,93,102546,2,0,P|101:157|97:184,1,70
192,255,102957,2,0,P|240:217|318:204,1,140
388,273,103574,5,0,0:0:0:0:
388,273,103779,2,0,P|424:210|390:129,2,140,0|0|0,0:0|0:0|0:0,0:0:0:0:
278,199,104807,2,0,P|211:197|194:196,1,70
408,148,105218,2,0,P|448:112|469:94,1,70
263,53,105629,2,0,P|224:94|196:118,2,70,0|0|0,0:0|0:0|0:0,0:0:0:0:
279,199,106245,6,0,P|330:259|405:262,1,140
382,160,106861,1,0,0:0:0:0:
335,63,107067,2,0,P|244:44|199:63,1,140
118,128,107683,2,0,P|71:136|40:137,1,70
106,236,108094,2,0,P|136:273|155:302,1,70
259,263,108505,2,0,P|324:284|391:266,1,140
435,168,109122,5,0,0:0:0:0:
361,79,109327,1,0,0:0:0:0:
361,79,109430,1,0,0:0:0:0:
361,79,109533,2,0,P|286:55|214:78,1,140
150,139,110149,1,0,0:0:0:0:
214,226,110355,2,0,P|193:275|166:304,1,70
91,259,110766,5,0,0:0:0:0:
265,320,110971,1,0,0:0:0:0:
265,320,111074,1,0,0:0:0:0:
265,320,111176,1,0,0:0:0:0:
362,257,111382,2,0,P|393:240|434:228,1,70
375,147,111793,2,0,P|290:116|288:7,1,210
367,55,112615,5,0,0:0:0:0:
367,55,112820,2,0,P|309:94|253:152,1,140
176,199,113437,1,0,0:0:0:0:
123,109,113642,2,0,P|111:70|105:32,1,70
216,58,114053,1,0,0:0:0:0:
302,126,114259,1,0,0:0:0:0:
337,231,114464,6,0,P|349:288|359:316,1,70
454,265,114875,1,0,0:0:0:0:
465,158,115081,1,0,0:0:0:0:
465,158,115183,1,0,0:0:0:0:
465,158,115286,2,0,P|424:117|393:106,1,70
302,126,115697,2,0,P|267:151|242:167,1,70
138,171,116108,5,0,0:0:0:0:
51,102,116313,1,0,0:0:0:0:
153,301,116519,1,0,0:0:0:0:
258,255,116724,1,0,0:0:0:0:
373,251,116930,2,0,P|411:264|448:273,1,70
432,160,117341,2,0,P|427:109|422:73,1,70
326,48,117752,5,0,0:0:0:0:
326,48,117957,2,0,P|263:103|196:78,1,140
106,108,118574,2,0,P|78:152|55:175,1,70
119,258,118985,1,0,0:0:0:0:
228,290,119190,1,0,0:0:0:0:
323,232,119396,2,0,P|384:183|466:205,1,140
412,278,120012,5,0,0:0:0:0:
412,278,120218,2,0,P|346:202|325:165,1,140
347,64,120834,1,0,0:0:0:0:
417,147,121039,2,0,P|461:151|494:150,1,70
298,228,121450,2,0,P|251:223|215:227,1,70
151,149,121861,1,0,0:0:0:0:
180,45,122067,1,0,0:0:0:0:
229,226,122272,5,0,0:0:0:0:
274,322,122478,1,0,0:0:0:0:
383,312,122683,2,0,P|441:274|436:191,1,140
380,124,123300,1,0,0:0:0:0:
284,172,123505,2,0,P|219:197|138:188,1,140
78,113,124122,1,0,0:0:0:0:
78,113,124327,2,0,P|119:67|136:33,1,70
232,58,124738,5,0,0:0:0:0:
333,96,124944,1,0,0:0:0:0:
320,204,125149,2,0,P|296:257|279:283,1,70
393,299,125560,2,0,P|426:315|458:326,1,70
437,217,125971,1,0,0:0:0:0:
358,147,126176,1,0,0:0:0:0:
248,164,126382,5,0,0:0:0:0:
204,261,126587,1,0,0:0:0:0:
204,261,126690,1,0,0:0:0:0:
204,261,126793,2,0,P|155:276|116:277,1,70
74,190,127204,1,0,0:0:0:0:
125,92,127409,2,0,P|159:78|197:56,1,70
297,81,127820,5,0,0:0:0:0:
297,81,127923,1,0,0:0:0:0:
297,81,128026,2,0,P|372:102|446:76,1,140
466,188,128642,1,0,0:0:0:0:
411,282,128848,1,0,0:0:0:0:
301,282,129053,1,0,0:0:0:0:
230,198,129259,6,0,P|160:174|93:195,1,140
160,286,129875,1,0,0:0:0:0:
160,286,130081,2,0,L|170:129,1,140
227,56,130697,1,0,0:0:0:0:
256,192,130800,12,0,132135,0:0:0:0:
299,226,132546,6,0,P|345:259|377:274,1,77.0000023498536
443,198,132957,1,0,0:0:0:0:
436,90,133163,1,0,0:0:0:0:
332,49,133368,2,0,P|270:83|186:90,1,154.000004699707
83,61,133985,1,0,0:0:0:0:
35,156,134190,2,0,P|26:203|22:240,1,77.0000023498536
131,222,134601,1,0,0:0:0:0:
131,222,134807,1,0,0:0:0:0:
239,223,135012,6,0,P|291:268|372:258,1,154.000004699707
425,160,135629,2,0,P|477:214|474:300,1,154.000004699707
352,307,136245,1,0,0:0:0:0:
251,269,136450,1,0,0:0:0:0:
214,166,136656,2,0,P|167:114|84:101,1,154.000004699707
111,214,137272,1,0,0:0:0:0:
176,298,137478,2,0,P|216:315|246:334,2,77.0000023498536,0|0|0,0:0|0:0|0:0,0:0:0:0:
238,208,138094,5,0,0:0:0:0:
346,198,138300,2,0,P|396:217|427:222,1,77.0000023498536
421,112,138711,2,0,P|461:96|498:76,1,77.0000023498536
391,21,139122,1,0,0:0:0:0:
283,33,139327,1,0,0:0:0:0:
236,131,139533,1,0,0:0:0:0:
152,210,139738,2,0,P|99:215|64:214,1,77.0000023498536
43,114,140149,2,0,P|66:60|73:20,1,77.0000023498536
176,60,140560,5,0,0:0:0:0:
250,140,140766,2,0,P|304:163|337:188,1,77.0000023498536
345,268,141176,1,0,0:0:0:0:
345,268,141279,1,0,0:0:0:0:
345,268,141382,2,0,P|402:233|412:143,1,154.000004699707
322,78,141998,1,0,0:0:0:0:
215,115,142204,6,0,B|131:125|84:47,1,154.000004699707
57,168,142820,2,0,P|38:206|16:240,1,77.0000023498536
131,255,143231,2,0,P|139:300|142:335,1,77.0000023498536
249,306,143642,1,0,0:0:0:0:
355,332,143848,1,0,0:0:0:0:
418,244,144053,6,0,P|446:221|484:200,1,77.0000023498536
396,130,144464,1,0,0:0:0:0:
396,130,144567,1,0,0:0:0:0:
396,130,144670,2,0,P|347:73|270:68,1,154.000004699707
301,168,145286,1,0,0:0:0:0:
301,168,145492,1,0,0:0:0:0:
194,197,145697,6,0,P|156:197|115:190,1,77.0000023498536
84,89,146108,1,0,0:0:0:0:
181,42,146313,1,0,0:0:0:0:
181,42,146416,1,0,0:0:0:0:
181,42,146519,2,0,P|217:87|231:113,1,77.0000023498536
194,197,146930,1,0,0:0:0:0:
239,296,147135,1,0,0:0:0:0:
347,311,147341,6,0,P|388:306|424:307,1,77.0000023498536
323,197,147752,2,0,P|282:202|247:199,1,77.0000023498536
395,124,148163,2,0,P|424:193|399:270,1,154.000004699707
302,290,148779,2,0,P|254:291|218:297,2,77.0000023498536,0|0|0,0:0|0:0|0:0,0:0:0:0:
408,268,149396,1,0,0:0:0:0:
459,171,149601,1,0,0:0:0:0:
400,78,149807,2,0,P|360:63|327:43,1,77.0000023498536
251,118,150218,5,0,0:0:0:0:
162,54,150423,1,0,0:0:0:0:
63,100,150629,2,0,P|42:148|25:180,1,77.0000023498536
77,261,151040,1,0,0:0:0:0:
77,261,151450,2,0,P|132:243|165:226,1,77.0000023498536
276,288,151861,2,0,P|221:306|184:327,1,77.0000023498536
386,271,152272,5,0,0:0:0:0:
405,257,152375,1,0,0:0:0:0:
420,238,152478,1,0,0:0:0:0:
432,217,152581,1,0,0:0:0:0:
440,194,152683,2,0,P|441:144|429:111,1,77.0000023498536
321,52,153094,5,0,0:0:0:0:
302,66,153197,1,0,0:0:0:0:
279,76,153300,1,0,0:0:0:0:
255,78,153403,1,0,0:0:0:0:
231,74,153505,2,0,P|186:59|151:64,1,77.0000023498536
112,172,153916,5,0,0:0:0:0:
166,302,154122,1,0,0:0:0:0:
305,250,154327,1,0,0:0:0:0:
251,120,154533,1,0,0:0:0:0:
251,120,154944,2,0,P|286:83|301:57,1,77.0000023498536
413,103,155355,1,0,0:0:0:0:
408,210,155560,6,0,P|376:256|346:283,1,77.0000023498536
259,259,155971,1,0,0:0:0:0:
171,322,156176,1,0,0:0:0:0:
81,262,156382,2,0,P|38:240|8:229,2,77.0000023498536,0|0|0,0:0|0:0|0:0,0:0:0:0:
170,200,156998,1,0,0:0:0:0:
171,90,157204,2,0,P|213:59|238:47,1,77.0000023498536
325,106,157615,5,0,0:0:0:0:
422,62,157820,1,0,0:0:0:0:
465,161,158026,2,0,P|476:197|484:240,1,77.0000023498536
374,242,158437,1,0,0:0:0:0:
374,242,158642,1,0,0:0:0:0:
271,210,158848,2,0,P|248:249|223:281,1,77.0000023498536
181,174,159259,2,0,P|162:138|145:99,1,77.0000023498536
243,56,159670,5,0,0:0:0:0:
344,97,159875,1,0,0:0:0:0:
401,201,160081,2,0,P|408:257|420:291,1,77.0000023498536
299,251,160492,1,0,0:0:0:0:
214,334,160697,1,0,0:0:0:0:
214,334,160800,1,0,0:0:0:0:
214,334,160903,2,0,P|163:298|140:286,1,77.0000023498536
140,174,161313,6,0,P|159:133|167:98,1,77.0000023498536
272,47,161724,1,0,0:0:0:0:
374,113,161930,1,0,0:0:0:0:
344,228,162135,2,0,P|327:263|316:303,1,77.0000023498536
442,259,162546,2,0,P|459:224|470:184,1,77.0000023498536
446,70,162957,5,0,0:0:0:0:
328,49,163163,1,0,0:0:0:0:
225,107,163368,2,0,P|208:153|190:184,1,77.0000023498536
222,315,163779,2,0,P|239:269|257:238,2,77.0000023498536,0|0|0,0:0|0:0|0:0,0:0:0:0:
343,298,164396,1,0,0:0:0:0:
431,217,164601,5,0,0:0:0:0:
378,88,164807,1,0,0:0:0:0:
251,146,165012,1,0,0:0:0:0:
171,32,165218,1,0,0:0:0:0:
56,113,165423,2,0,P|44:163|55:215,1,77.0000023498536
135,263,165834,1,0,0:0:0:0:
258,240,166040,5,0,0:0:0:0:
258,240,166142,1,0,0:0:0:0:
258,240,166245,2,0,P|331:239|389:303,1,154.000004699707
292,333,166861,1,0,0:0:0:0:
292,333,167067,2,0,P|320:276|336:255,1,77.0000023498536
336,254,167375,1,0,0:0:0:0:
347,242,167478,1,0,0:0:0:0:
453,191,167683,5,0,0:0:0:0:
371,80,167889,2,0,P|357:45|346:4,1,77.0000023498536
251,109,168300,2,0,P|225:150|209:193,1,77.0000023498536
98,183,168711,1,0,0:0:0:0:
98,183,168916,1,0,0:0:0:0:
165,286,169122,2,0,P|216:307|243:326,1,77.0000023498536,0|0,0:0|0:0,0:0:0:0:
334,256,169533,1,0,0:0:0:0:
439,312,169738,1,0,0:0:0:0:
444,193,169944,6,0,P|469:144|493:113,1,77.0000023498536
383,58,170355,1,0,0:0:0:0:
269,104,170560,1,0,0:0:0:0:
269,104,170663,1,0,0:0:0:0:
269,104,170766,2,0,P|219:124|184:129,1,77.0000023498536
79,109,171176,1,0,0:0:0:0:
25,214,171382,1,0,0:0:0:0:
176,233,171587,5,0,0:0:0:0:
247,328,171793,1,0,0:0:0:0:
361,289,171998,2,0,P|403:277|443:269,1,77.0000023498536
396,159,172409,1,0,0:0:0:0:
445,50,172615,1,0,0:0:0:0:
330,23,172820,2,0,P|271:25|246:22,1,77.0000023498536
148,136,173231,2,0,P|207:134|232:137,1,77.0000023498536
322,198,173642,5,0,0:0:0:0:
269,301,173848,1,0,0:0:0:0:
166,248,174053,1,0,0:0:0:0:
219,145,174259,1,0,0:0:0:0:
219,145,174464,1,0,0:0:0:0:
142,55,174670,1,0,0:0:0:0:
142,55,174772,1,0,0:0:0:0:
142,55,174875,2,0,P|92:70|53:77,1,77.0000023498536
262,69,175286,6,0,P|305:54|339:47,1,77.0000023498536
418,132,175697,1,0,0:0:0:0:
394,245,175903,2,0,P|371:277|353:317,2,77.0000023498536,0|0|0,0:0|0:0|0:0,0:0:0:0:
482,266,176519,1,0,0:0:0:0:
344,163,176724,1,0,0:0:0:0:
344,163,176827,1,0,0:0:0:0:
344,163,176930,2,0,P|300:127|277:103,1,77.0000023498536
158,190,177341,2,0,P|201:183|240:180,1,77.0000023498536
374,269,177752,6,0,P|331:276|292:279,1,77.0000023498536
189,238,178163,1,0,0:0:0:0:
164,125,178368,1,0,0:0:0:0:
250,46,178574,2,0,P|301:41|334:32,1,77.0000023498536
420,105,178985,1,0,0:0:0:0:
339,187,179190,1,0,0:0:0:0:
333,206,179293,1,0,0:0:0:0:
331,229,179396,1,0,0:0:0:0:
334,251,179498,1,0,0:0:0:0:
343,272,179601,6,0,P|322:317|302:338,1,77.0000023498536
195,287,180012,1,0,0:0:0:0:
119,194,180218,2,0,P|87:166|58:146,1,77.0000023498536
177,95,180629,2,0,P|166:50|150:14,1,77.0000023498536
282,77,181040,1,0,0:0:0:0:
408,210,181245,1,0,0:0:0:0:
380,117,181450,1,0,0:0:0:0:
351,298,181656,1,0,0:0:0:0:
250,259,181861,6,0,P|197:212|119:190,1,140
73,269,182478,1,0,0:0:0:0:
160,311,182683,2,0,P|191:234|227:175,1,140
319,205,183300,2,0,P|361:220|395:229,1,70
336,312,183711,2,0,P|376:323|414:328,1,70
466,252,184122,1,0,0:0:0:0:
445,156,184327,1,0,0:0:0:0:
365,100,184533,5,0,0:0:0:0:
268,93,184738,1,0,0:0:0:0:
189,150,184944,1,0,0:0:0:0:
189,150,185046,1,0,0:0:0:0:
189,150,185149,2,0,P|178:207|168:235,1,70
219,305,185560,1,0,0:0:0:0:
316,291,185766,6,0,P|363:283|396:282,1,70
438,203,186176,1,0,0:0:0:0:
367,135,186382,1,0,0:0:0:0:
376,38,186587,1,0,0:0:0:0:
376,38,186690,1,0,0:0:0:0:
376,38,186793,2,0,P|317:23|299:21,2,70,0|0|0,0:0|0:0|0:0,0:0:0:0:
367,135,187409,1,0,0:0:0:0:
293,197,187615,6,0,P|244:208|212:215,1,70
174,313,188026,2,0,P|233:297|271:290,1,70
341,288,188437,2,0,P|364:320|384:347,1,70
383,187,188848,2,0,P|326:161|306:151,1,70
288,65,189259,2,0,P|230:115|225:183,1,140
303,231,189875,5,0,0:0:0:0:
303,231,189978,1,0,0:0:0:0:
303,231,190081,2,0,P|237:273|169:257,1,140
128,181,190697,2,0,P|79:168|55:166,2,70,0|0|0,0:0|0:0|0:0,0:0:0:0:
213,131,191313,1,0,0:0:0:0:
229,121,191416,1,0,0:0:0:0:
246,114,191519,1,0,0:0:0:0:
267,113,191622,1,0,0:0:0:0:
289,117,191724,6,0,P|331:135|386:144,1,70
416,65,192135,2,0,P|446:138|422:208,1,140
342,238,192752,1,0,0:0:0:0:
286,319,192957,2,0,P|246:300|214:288,1,70
139,237,193368,2,0,P|191:214|219:198,1,70
264,132,193779,1,0,0:0:0:0:
277,33,193985,2,0,L|243:6,2,35,0|0|0,0:0|0:0|0:0,0:0:0:0:
369,70,194396,6,0,P|424:77|451:77,1,70
385,163,194807,2,0,P|402:213|405:245,1,70
329,290,195218,1,0,0:0:0:0:
239,254,195423,2,0,P|159:240|93:273,2,140,0|0|0,0:0|0:0|0:0,0:0:0:0:
329,290,196450,1,0,0:0:0:0:
408,231,196656,2,0,P|425:185|431:155,1,70
356,94,197067,2,0,P|339:140|333:170,1,70
255,220,197478,6,0,P|178:207|132:153,1,140
176,73,198094,1,0,0:0:0:0:
274,73,198300,2,0,P|351:86|397:140,1,140
381,227,198916,1,0,0:0:0:0:
381,227,199019,1,0,0:0:0:0:
381,227,199122,2,0,P|398:277|409:298,1,70
316,335,199533,6,0,P|271:329|238:328,1,70
169,270,199944,2,0,P|150:320|152:349,1,70
262,239,200355,2,0,P|219:181|145:173,1,140
69,217,200971,1,0,0:0:0:0:
33,129,201176,2,0,P|22:92|9:60,1,70
109,54,201587,1,0,0:0:0:0:
127,63,201690,1,0,0:0:0:0:
147,70,201793,1,0,0:0:0:0:
168,72,201896,1,0,0:0:0:0:
189,72,201998,6,0,P|239:63|270:63,1,70
339,120,202409,2,0,P|360:158|372:192,1,70
274,209,202820,1,0,0:0:0:0:
274,209,203026,1,0,0:0:0:0:
177,225,203231,2,0,P|170:270|161:307,1,70
88,228,203642,2,0,P|66:194|49:167,1,70
108,90,204053,1,0,0:0:0:0:
206,68,204259,1,0,0:0:0:0:
291,117,204464,6,0,P|326:136|356:147,1,70
451,138,204875,2,0,P|441:194|416:221,2,70,0|0|0,0:0|0:0|0:0,0:0:0:0:
378,72,205492,1,0,0:0:0:0:
291,116,205697,2,0,P|235:137|215:142,2,70,0|0|0,0:0|0:0|0:0,0:0:0:0:
361,186,206313,1,0,0:0:0:0:
298,260,206519,2,0,P|302:305|307:337,1,70
192,242,206930,2,0,P|186:186|180:156,1,70
212,78,207341,5,0,0:0:0:0:
308,53,207546,1,0,0:0:0:0:
381,119,207752,2,0,P|417:147|444:160,1,70
290,154,208163,2,0,P|302:64|354:27,1,140
381,119,208779,1,0,0:0:0:0:
381,119,208985,2,0,P|369:209|317:246,1,140
239,219,209601,1,0,0:0:0:0:
168,288,209807,6,0,P|143:205|168:151,2,140,0|0|0,0:0|0:0|0:0,0:0:0:0:
335,324,211040,1,0,0:0:0:0:
335,324,211450,2,0,P|395:267|458:251,1,140
378,101,212272,2,0,P|327:49|256:45,1,140
289,132,213094,2,0,P|258:175|224:255,1,140
252,345,213916,2,0,P|183:341|136:293,1,140
126,193,214533,5,0,0:0:0:0:
126,193,214635,1,0,0:0:0:0:
126,193,214738,2,0,P|161:151|182:65,1,140
277,48,215355,1,0,0:0:0:0:
347,118,215560,2,0,P|407:160|489:142,1,140
429,59,216176,1,0,0:0:0:0:
429,59,216382,2,0,L|389:211,2,140,0|0|0,0:0|0:0|0:0,0:0:0:0:
328,43,217409,6,0,P|265:43|232:38,1,70
164,71,217820,1,0,0:0:0:0:
106,150,218026,2,0,P|120:200|122:224,1,70
203,299,218437,2,0,P|207:264|218:231,1,70
313,200,218848,1,0,0:0:0:0:
327,210,218950,1,0,0:0:0:0:
343,218,219053,1,0,0:0:0:0:
360,222,219156,1,0,0:0:0:0:
378,225,219259,6,0,P|421:219|458:221,1,70
442,122,219670,1,0,0:0:0:0:
430,109,219772,1,0,0:0:0:0:
416,98,219875,1,0,0:0:0:0:
399,91,219978,1,0,0:0:0:0:
384,88,220081,5,0,0:0:0:0:
368,88,220183,1,0,0:0:0:0:
351,89,220286,1,0,0:0:0:0:
334,92,220389,1,0,0:0:0:0:
316,90,220492,1,0,0:0:0:0:
299,87,220594,1,0,0:0:0:0:
283,79,220697,1,0,0:0:0:0:
268,71,220800,1,0,0:0:0:0:
255,59,220903,6,0,P|205:39|179:40,1,70
181,228,234464,6,0,P|131:243|89:233,2,70,0|0|0,0:0|0:0|0:0,0:0:0:0:
235,146,235081,1,0,0:0:0:0:
314,201,235286,2,0,P|387:219|428:298,1,140
328,297,235903,1,0,0:0:0:0:
234,270,236108,2,0,P|186:262|152:263,1,70
82,207,236519,2,0,P|97:167|123:121,1,70
207,131,236930,6,0,P|173:65|104:48,1,140
81,207,237546,2,0,P|60:253|41:282,1,70
143,295,237957,1,0,0:0:0:0:
143,295,238060,1,0,0:0:0:0:
143,295,238163,2,0,P|204:298|242:296,1,70
305,243,238574,5,0,0:0:0:0:
323,230,238676,1,0,0:0:0:0:
345,226,238779,1,0,0:0:0:0:
367,228,238882,1,0,0:0:0:0:
388,233,238985,2,0,P|458:214|487:155,1,140
390,138,239601,1,0,0:0:0:0:
301,86,239807,5,0,0:0:0:0:
280,76,239909,1,0,0:0:0:0:
259,68,240012,1,0,0:0:0:0:
235,65,240115,1,0,0:0:0:0:
212,65,240218,2,0,P|175:83|131:81,1,70
77,153,240629,1,0,0:0:0:0:
137,232,240834,5,0,0:0:0:0:
137,232,240937,1,0,0:0:0:0:
137,232,241040,2,0,P|142:282|141:312,1,70
246,273,241450,1,0,0:0:0:0:
266,268,241553,1,0,0:0:0:0:
287,269,241656,1,0,0:0:0:0:
307,274,241759,1,0,0:0:0:0:
327,279,241861,1,0,0:0:0:0:
348,283,241964,5,0,0:0:0:0:
369,281,242067,1,0,0:0:0:0:
389,276,242170,1,0,0:0:0:0:
406,264,242272,1,0,0:0:0:0:
421,248,242375,1,0,0:0:0:0:
432,230,242478,1,0,0:0:0:0:
406,128,242683,6,0,P|390:93|385:61,1,70
277,38,243094,2,0,P|293:73|298:105,1,70
296,104,243916,1,0,0:0:0:0:
121,258,244327,6,0,P|150:298|167:328,1,77.0000023498536
257,251,244738,2,0,P|298:221|320:201,1,77.0000023498536,0|0,0:0|0:0,0:0:0:0:
333,102,245149,2,0,P|401:142|413:234,1,154.000004699707
336,283,245766,1,0,0:0:0:0:
227,248,245971,2,0,P|179:244|136:256,1,77.0000023498536
66,181,246382,1,0,0:0:0:0:
139,94,246587,5,0,0:0:0:0:
139,94,246690,1,0,0:0:0:0:
139,94,246793,2,0,P|197:70|276:22,1,154.000004699707
381,78,247409,2,0,P|421:90|459:98,1,77.0000023498536
318,150,247820,1,0,0:0:0:0:
239,211,248026,2,0,P|199:223|161:231,1,77.0000023498536
90,164,248437,2,0,P|67:254|104:308,1,154.000004699707
205,302,249053,5,0,0:0:0:0:
310,272,249259,2,0,P|363:280|393:280,2,77.0000023498536,0|0|0,0:0|0:0|0:0,0:0:0:0:
271,170,249875,1,0,0:0:0:0:
341,86,250081,2,0,P|384:70|417:65,1,77.0000023498536
425,173,250492,1,0,0:0:0:0:
336,237,250697,1,0,0:0:0:0:
336,237,250800,1,0,0:0:0:0:
336,237,250903,2,0,P|246:267|175:264,1,154.000004699707
138,173,251519,5,0,0:0:0:0:
218,90,251724,2,0,P|122:64|44:100,2,154.000004699707,0|0|0,0:0|0:0|0:0,0:0:0:0:
234,205,252752,2,0,P|252:241|273:276,1,77.0000023498536
355,187,253163,2,0,P|396:164|422:147,1,77.0000023498536
356,61,253574,1,0,0:0:0:0:
249,32,253779,1,0,0:0:0:0:
148,71,253985,5,0,0:0:0:0:
148,71,254087,1,0,0:0:0:0:
148,71,254190,2,0,P|131:118|106:154,1,77.0000023498536
28,176,254601,2,0,P|64:221|113:229,1,77.0000023498536
186,263,255012,2,0,P|196:304|201:343,2,77.0000023498536,0|0|0,0:0|0:0|0:0,0:0:0:0:
232,165,255629,1,0,0:0:0:0:
232,165,255731,1,0,0:0:0:0:
232,165,255834,6,0,P|272:135|299:106,1,77.0000023498536
390,120,256245,1,0,0:0:0:0:
390,120,256450,2,0,P|355:35|292:15,1,154.000004699707
206,66,257067,2,0,P|170:100|132:120,1,77.0000023498536
111,216,257478,1,0,0:0:0:0:
111,216,257683,1,0,0:0:0:0:
190,293,257889,2,0,P|231:275|270:264,1,77.0000023498536
343,330,258300,6,0,P|366:252|327:182,1,154.000004699707
237,140,258916,1,0,0:0:0:0:
326,68,259122,2,0,P|365:45|399:41,1,77.0000023498536
403,149,259533,2,0,P|447:165|475:194,1,77.0000023498536
382,252,259944,2,0,P|341:319|253:330,1,154.000004699707
277,225,260560,2,0,B|226:186|248:140|190:92,1,154.000004699707
134,183,261176,6,0,P|94:205|64:218,1,77.0000023498536
194,96,261587,2,0,P|248:73|284:62,1,77.0000023498536
434,76,261998,1,0,0:0:0:0:
327,177,262204,1,0,0:0:0:0:
395,268,262409,2,0,P|365:293|334:330,2,77.0000023498536,0|0|0,0:0|0:0|0:0,0:0:0:0:
495,306,263026,1,0,0:0:0:0:
495,306,263231,6,0,P|401:273|343:212,1,154.000004699707
331,134,263848,1,0,0:0:0:0:
375,40,264053,2,0,P|288:38|231:99,1,154.000004699707
186,175,264670,2,0,P|133:179|99:173,1,77.0000023498536
88,70,265081,1,0,0:0:0:0:
199,48,265286,2,0,P|242:43|285:48,1,77.0000023498536
366,177,265697,5,0,0:0:0:0:
137,168,265903,1,0,0:0:0:0:
163,307,266108,1,0,0:0:0:0:
249,89,266313,1,0,0:0:0:0:
256,192,266519,12,0,268574,0:0:0:0:
303,98,282135,6,0,L|370:31,1,77.0000023498536
314,207,282546,2,0,L|417:182,1,77.0000023498536
256,298,282957,2,0,L|340:322,2,77.0000023498536,0|0|0,0:0|0:0|0:0,0:0:0:0:
174,224,283574,1,0,0:0:0:0:
90,160,283779,2,0,P|66:109|46:80,1,77.0000023498536
196,89,284190,2,0,P|240:95|282:96,1,77.0000023498536
423,127,284601,5,0,0:0:0:0:
273,181,284807,1,0,0:0:0:0:
426,235,285012,1,0,0:0:0:0:
275,293,285218,1,0,0:0:0:0:
275,293,285423,2,0,P|206:279|175:279,1,77.0000023498536
118,197,285834,1,0,0:0:0:0:
154,85,286040,1,0,0:0:0:0:
154,85,286142,1,0,0:0:0:0:
154,85,286245,6,0,P|201:81|237:71,1,77.0000023498536
307,16,286656,2,0,P|326:59|323:98,1,77.0000023498536
252,174,287067,2,0,P|246:222|264:266,1,77.0000023498536
359,298,287478,1,0,0:0:0:0:
447,223,287683,1,0,0:0:0:0:
384,122,287889,2,0,P|363:88|348:48,1,77.0000023498536
235,78,288300,5,0,0:0:0:0:
146,155,288505,1,0,0:0:0:0:
31,141,288711,2,0,P|32:185|46:217,1,77.0000023498536
165,320,289122,1,0,0:0:0:0:
243,189,289327,1,0,0:0:0:0:
370,284,289533,2,0,P|403:211|481:196,1,154.000004699707
464,284,290149,1,0,0:0:0:0:
464,284,290355,6,0,L|394:213,1,77.0000023498536
308,101,290766,2,0,P|256:134|228:146,1,77.0000023498536
100,94,291176,1,0,0:0:0:0:
187,214,291382,1,0,0:0:0:0:
99,186,291587,1,0,0:0:0:0:
187,65,291793,1,0,0:0:0:0:
242,140,291998,6,0,P|309:135|346:123,1,77.0000023498536
444,148,292409,1,0,0:0:0:0:
416,255,292615,1,0,0:0:0:0:
307,294,292820,2,0,P|223:262|156:288,1,154.000004699707
57,227,293437,1,0,0:0:0:0:
102,114,293642,2,0,P|90:77|74:40,2,77.0000023498536,0|0|0,0:0|0:0|0:0,0:0:0:0:
219,163,294259,1,0,0:0:0:0:
321,96,294464,6,0,P|342:57|350:19,1,77.0000023498536
331,207,294875,2,0,P|390:182|413:155,1,77.0000023498536
219,163,295286,2,0,P|154:193|137:217,1,77.0000023498536
192,313,295697,1,0,0:0:0:0:
192,313,295903,1,0,0:0:0:0:
316,279,296108,2,0,P|346:215|367:195,2,77.0000023498536,0|0|0,0:0|0:0|0:0,0:0:0:0:
423,288,296724,1,0,0:0:0:0:
458,188,296930,6,0,P|433:139|402:118,1,77.0000023498536
297,77,297341,2,0,P|280:120|248:155,1,77.0000023498536
141,77,297752,1,0,0:0:0:0:
41,170,297957,1,0,0:0:0:0:
136,272,298163,1,0,0:0:0:0:
236,179,298368,1,0,0:0:0:0:
373,163,298574,6,0,P|412:172|470:174,1,77.0000023498536
381,52,298985,2,0,P|321:61|296:79,1,77.0000023498536
236,179,299396,1,0,0:0:0:0:
236,179,299601,1,0,0:0:0:0:
112,137,299807,2,0,P|92:95|70:62,2,77.0000023498536,0|0|0,0:0|0:0|0:0,0:0:0:0:
86,267,300423,1,0,0:0:0:0:
211,302,300629,2,0,P|256:294|295:292,1,77.0000023498536
401,240,301040,6,0,P|415:295|399:340,1,77.0000023498536
301,203,301450,2,0,P|287:148|303:103,1,77.0000023498536
359,69,301861,1,0,0:0:0:0:
231,70,302067,2,0,P|191:82|150:100,1,77.0000023498536
90,198,302478,1,0,0:0:0:0:
90,198,302581,1,0,0:0:0:0:
90,198,302683,2,0,P|111:248|117:281,1,77.0000023498536
247,294,303094,5,0,0:0:0:0:
360,227,303300,1,0,0:0:0:0:
360,227,303403,1,0,0:0:0:0:
360,227,303505,2,0,P|400:241|438:263,1,77.0000023498536
376,119,303916,2,0,P|336:105|298:83,1,77.0000023498536
182,73,304327,1,0,0:0:0:0:
77,153,304533,1,0,0:0:0:0:
168,242,304738,2,0,P|196:277|212:308,1,77.0000023498536
318,227,305149,6,0,P|347:188|375:162,1,77.0000023498536
459,141,305560,2,0,P|428:96|399:79,1,77.0000023498536
296,109,305971,1,0,0:0:0:0:
296,109,306176,1,0,0:0:0:0:
226,202,306382,2,0,P|179:199|142:206,1,77.0000023498536
115,315,306793,1,0,0:0:0:0:
239,335,306998,6,0,P|312:304|397:300,1,154.000004699707
427,178,307615,2,0,B|431:149|431:149|449:128|449:128|455:106,1,77.0000023498536
316,163,308026,2,0,B|316:139|316:139|322:115|322:115|321:83,1,77.0000023498536
191,78,308437,2,0,P|120:111|103:196,1,154.000004699707
211,181,309053,1,0,0:0:0:0:
211,180,309259,2,0,P|188:251|120:282,1,154.000004699707
99,179,309875,5,0,0:0:0:0:
99,179,310081,2,0,L|171:238,1,77.0000023498536
276,286,310492,2,0,P|314:270|357:260,1,77.0000023498536
458,178,310903,2,0,P|394:161|369:147,2,77.0000023498536,0|0|0,0:0|0:0|0:0,0:0:0:0:
458,178,311519,1,0,0:0:0:0:
374,268,311724,2,0,P|338:293|286:308,1,77.0000023498536
155,228,312135,5,0,0:0:0:0:
285,184,312341,1,0,0:0:0:0:
314,63,312546,2,0,P|354:58|388:44,1,77.0000023498536
357,164,312957,2,0,P|317:169|283:183,1,77.0000023498536
198,246,313369,1,0,0:0:0:0:
131,285,313574,1,0,0:0:0:0:
132,208,313779,1,0,0:0:0:0:
240,247,313985,5,0,0:0:0:0:
106,324,314190,1,0,0:0:0:0:
107,170,314396,1,0,0:0:0:0:
235,87,314601,2,0,P|270:55|290:28,1,77.0000023498536
348,149,315012,2,0,P|402:173|440:199,1,77.0000023498536
330,257,315423,1,0,0:0:0:0:
330,257,315629,1,0,0:0:0:0:
219,257,315834,6,0,P|206:305|188:338,2,77.0000023498536,0|0|0,0:0|0:0|0:0,0:0:0:0:
139,166,316450,1,0,0:0:0:0:
200,57,316656,2,0,P|239:39|277:31,1,77.0000023498536
341,125,317067,2,0,P|400:109|429:87,1,77.0000023498536
457,211,317478,1,0,0:0:0:0:
376,302,317683,1,0,0:0:0:0:
259,260,317889,2,0,P|203:238|171:232,1,77.0000023498536
114,134,318300,6,0,P|109:87|97:47,1,77.0000023498536
220,99,318711,1,0,0:0:0:0:
332,47,318916,1,0,0:0:0:0:
422,133,319122,2,0,P|373:200|392:270,1,154.000004699707
476,214,319738,1,0,0:0:0:0:
476,214,319944,2,0,L|371:199,1,77.0000023498536
287,135,320355,5,0,0:0:0:0:
186,213,320560,1,0,0:0:0:0:
71,163,320766,2,0,P|37:144|-2:130,1,77.0000023498536
194,95,321176,2,0,P|168:53|143:24,1,77.0000023498536
345,103,321587,6,0,P|325:166|355:227,2,112,0|0|0,0:0|0:0|0:0,0:0:0:0:
431,268,322820,2,0,P|381:317|319:320,1,112
241,232,323642,2,0,P|152:241|124:267,1,112
208,335,324464,1,0,0:0:0:0:
338,276,324875,2,0,P|348:215|319:151,1,112
240,231,325697,2,0,B|191:247|175:220|105:245,2,112,0|0|0,0:0|0:0|0:0,0:0:0:0:
362,148,326930,1,0,0:0:0:0:
470,191,327341,2,0,P|410:251|363:267,1,112
212,186,328163,6,0,P|158:127|111:122,1,112
123,218,328779,2,0,P|93:275|83:290,1,56
83,292,329190,1,0,0:0:0:0:
262,307,329601,2,0,P|324:209|391:206,1,168
372,309,330629,2,0,L|283:222,1,112
161,82,331450,5,0,0:0:0:0:
161,82,332067,2,0,P|121:127|105:139,2,56,0|0|0,0:0|0:0|0:0,0:0:0:0:
278,127,332683,2,0,P|311:89|331:74,1,56
431,120,333094,1,0,0:0:0:0:
431,120,333300,2,0,P|450:171|458:184,1,56
382,264,333711,2,0,P|315:244|256:272,1,112
151,206,334327,5,0,0:0:0:0:
155,188,334430,1,0,0:0:0:0:
156,171,334533,1,0,0:0:0:0:
156,153,334635,1,0,0:0:0:0:
155,134,334738,2,0,P|170:64|223:41,1,112
315,83,335355,1,0,0:0:0:0:
425,120,335560,2,0,P|466:117|493:112,1,56
369,215,335971,2,0,P|310:224|289:233,1,56
193,197,336382,5,0,0:0:0:0:
122,278,336587,1,0,0:0:0:0:
38,207,336793,2,0,P|25:169|13:144,1,56
111,92,337204,1,0,0:0:0:0:
111,92,337409,1,0,0:0:0:0:
217,104,337615,2,0,P|236:59|242:40,1,56
336,144,338026,6,0,P|356:196|408:228,1,112
432,135,338642,1,0,0:0:0:0:
432,135,338848,2,0,L|379:178,1,56
250,229,339464,2,0,P|185:235|151:278,2,112,0|0|0,0:0|0:0|0:0,0:0:0:0:
267,242,341313,5,0,0:0:0:0:
267,242,341930,2,0,P|309:262|326:277,2,56,0|0|0,0:0|0:0|0:0,0:0:0:0:
153,200,342752,2,0,P|101:164|83:104,1,112
203,92,343574,1,0,0:0:0:0:
219,86,343676,1,0,0:0:0:0:
237,85,343779,1,0,0:0:0:0:
254,91,343882,1,0,0:0:0:0:
269,101,343985,6,0,P|301:118|334:123,1,56
408,114,344396,1,0,0:0:0:0:
442,200,344601,2,0,P|426:270|392:305,1,112
303,298,345218,1,0,0:0:0:0:
286,294,345320,1,0,0:0:0:0:
268,294,345423,5,0,0:0:0:0:
252,300,345526,1,0,0:0:0:0:
237,308,345629,1,0,0:0:0:0:
221,313,345731,1,0,0:0:0:0:
204,317,345834,1,0,0:0:0:0:
187,319,345937,5,0,0:0:0:0:
171,316,346040,1,0,0:0:0:0:
155,311,346142,1,0,0:0:0:0:
141,301,346245,1,0,0:0:0:0:
130,288,346348,1,0,0:0:0:0:
122,273,346450,1,0,0:0:0:0:
119,257,346553,1,0,0:0:0:0:
120,240,346656,6,0,L|92:207,4,28,0|0|0|0|0,0:0|0:0|0:0|0:0|0:0,0:0:0:0:
187,171,347272,1,0,0:0:0:0:
199,158,347375,1,0,0:0:0:0:
211,146,347478,1,0,0:0:0:0:
224,133,347581,1,0,0:0:0:0:
237,122,347683,2,0,P|277:101|300:96,1,56
